论坛风格切换切换到宽版
  • 616阅读
  • 9回复

[亲传][Single] 1991 Remember The Time (US - 49K 74201) - WAV整轨 ♬by幽灵 [复制链接]

上一主题 下一主题
离线mjghosts
 

发帖
8240
金钱
216247
威望
9172
贡献值
2721
交易币
4743
只看楼主 倒序阅读 楼主  发表于: 2016-08-19
— 本帖被 mjghosts 执行加亮操作(2016-08-19) —
*91年美国市售单曲,收录9首混音歌曲。5首RTT+4首BOW,弥补了美国BOW单曲中没有推出的混音作品。* ]o`qI#{R~R  
qD Z?iTHQq  
注:独家整理,转载请注明出处!EAC无损整轨(压缩包内含CD图片) Lh.?G#EM  
q8%T)$!  
解压密码:www.mjsunny.com
N"Y)  
0gdFXh$!e  
Tracklist L1=+x^WQ  
wGdnv}#  
1 Remember The Time (Silky Soul 7") 4:18 K%AbM#o<  
2 Remember The Time (New Jack Radio Mix) 4:00 ":s1}A  
3 Remember The Time (12" Main Mix) 4:37 $n_'# m2LE  
4 Remember The Time (E-Smoove's Late Nite Mix) 7:14 g'2'K  
5 Remember The Time (Maurice's Underground) 7:29 I5EKS0MQ!  
6 Black Or White (Clivillés & Cole Radio Mix) 3:33 >6fc` 3*!  
7 Black Or White (House With Guitar Radio Mix) 3:53 n~~0iU )  
8 Black Or White (Clivillés & Cole House/Club Mix) 7:33 Md!L@gX6<  
9 Black Or White (The Underground Club Mix) 7:30 P .I <.e  
y"N7r1Pf  
:X1~  
.I~#o$6  
m 2tw[6M  
X<pg^Y0  
t r)[6o#  
Exact Audio Copy V1.0 beta 6 from 9. April 2015 Z%h _g-C  
,F&TSzH[@v  
EAC 抓取日志文件从16. 八月 2016, 0:07 fU6O:-  
aUy!(Y  
Michael Jackson / Remember The Time Li'>pQ+  
2bs={p$}a  
使用驱动器  :MATSHITADVD-RAM UJ890AS   Adapter: 1  ID: 1 `{Jo>L .  
?rJe"TOIy  
读取模式      : 可靠Secure -MK9IO]i  
使用精确流     : 是 {!L25  
清空音频缓存    : 否 Gp9:#L!  
使用 C2 指示器 : 是 ubQbEv{(,  
{8pN]=SaJ~  
读取偏移校正:               : 102 KCl85Wi'  
读取 Lead-In 和 Lead-Out : 否 *A ([1l&]i  
用静音填充抓取中丢失偏移的采样       : 是 hd1aNaF-  
去除首尾静音块               : 否 $]<wQH/?_  
在CRC 计算中使用了空样本       : 是 [T(`+ #f  
已用接口                  : Win NT 及 2000 本地 Win32 接口 A4daIhP (  
w_P2\B^  
所用输出模式: : 内部 WAV 函数 I+/fX0-Lib  
样本格式    : 44.100 Hz; 16 Bit; 立体声 %J8uVD.2  
C@WdPjxj  
U%n>(!d  
已抓取 CD 的 TOC /vI"v 4  
_p'u!.a?!  
     音轨 |    起始    |    长度    |  起始扇区  |  结束扇区   t +|t/1s2  
    -------------------------------------------- /!%?I#K{Wq  
      1 |  0:00.00 |  4:21.57 |      0 |  19631 *z};&UsF{  
      2 |  4:21.57 |  4:00.50 |  19632 |  37681 Bus]OF>hu  
      3 |  8:22.32 |  4:48.23 |  37682 |  59304 1je/l9L  
      4 | 13:10.55 |  7:20.45 |  59305 |  92349 ?_r{G7|D  
      5 | 20:31.25 |  7:30.32 |  92350 | 126131 x.$cP  
      6 | 28:01.57 |  3:35.23 | 126132 | 142279 V`9*_8Dx2  
      7 | 31:37.05 |  3:51.25 | 142280 | 159629 ]~~G<Yh:=  
      8 | 35:28.30 |  7:34.50 | 159630 | 193729 7w]3D  
      9 | 43:03.05 |  7:28.30 | 193730 | 227359 It<VjN9  
 ?!<Q8=  
j9yOkaVEg  
范围状态及错误 {p$@)b  
;(jL`L F  
已选择范围 $06('Hg&  
B2*7H  
     文件名 J:\12 Music*音乐\CDImage.wav -T i<H9OV  
W}"tf L8  
     峰值电平 100.0 % MxUbx+_N  
     抓取速度 6.4 X #_`p 0wY  
     范围质量 99.9 % !Q<3TfC  
     复制 CRC 35BDC16F isy[RAP<  
     复制成功 9o6[4Q}  
[{R>'~  
没有错误发生 X[dH*PV  
~Ym*QSD  
hR:i!  
AccurateRip 摘要 d(d3@b4Ta  
{R[V  
音轨  1  在数据库中不存在  lX/7  
音轨  2  在数据库中不存在 Mh3L(z]/E  
音轨  3  在数据库中不存在 vO"E4s  
音轨  4  在数据库中不存在 l ObY  
音轨  5  在数据库中不存在 s2 aFme  
音轨  6  在数据库中不存在 ;F71f#iY  
音轨  7  在数据库中不存在 eISHV.QV  
音轨  8  在数据库中不存在 o@} qPvt0  
音轨  9  在数据库中不存在 RzLeR%O  
Fy_~~nI0  
没有任何音轨在 AccurateRip 数据库中有记录 4%TmW/yd  
Az(J @  
状态报告结尾
m W4tW  
piPV&ytI  
链接:http://pan.baidu.com/s/1bFGaPC 密码: UTuOean ]'  
此帖售价 10 金钱,已有 7 人购买 [记录] [购买]
购买后,将显示帖子中所有出售内容。
若发现会员采用欺骗的方法获取财富,请立刻举报,我们会对会员处以2-N倍的罚金,严重者封掉ID!
此段为出售的内容,购买后显示

发帖
2729
金钱
31485
威望
620
贡献值
37
交易币
382
只看该作者 1楼 发表于: 2016-08-19
感谢分享

离线小李

发帖
232
金钱
230
威望
99
贡献值
8
交易币
204
只看该作者 2楼 发表于: 2016-08-20
谢谢,这些都有了,对比一下.
离线lifan_npl

发帖
2173
金钱
16819
威望
782
贡献值
347
交易币
2526
只看该作者 3楼 发表于: 2016-08-21
谢谢分享 很不错哦 问一下  封面和cd面  你是用扫描仪扫的吗?
我的淘宝:
http://shop63152617.taobao.com  
离线mjghosts

发帖
8240
金钱
216247
威望
9172
贡献值
2721
交易币
4743
只看该作者 4楼 发表于: 2016-08-22
回 lifan_npl 的帖子
lifan_npl:谢谢分享 很不错哦 问一下  封面和cd面  你是用扫描仪扫的吗? (2016-08-21 22:26)  1_PoqD!q  
TO]@ Zu1  
图片来自网络本人无仪器
离线flash

发帖
236
金钱
9429
威望
81
贡献值
0
交易币
236
只看该作者 5楼 发表于: 2016-08-31
谢谢分享 很不错哦
离线mjnet

发帖
380
金钱
30464
威望
104
贡献值
54
交易币
557
只看该作者 6楼 发表于: 2017-03-04
這張我也有!!!下來保存!!
离线肯尼

发帖
953
金钱
7175
威望
431
贡献值
228
交易币
1438
只看该作者 7楼 发表于: 2017-09-10
多谢分享
顺势待发张元穹 Kenny Saxton @肯尼 & 齐奕同Michael Qi @迈颤我栗
2014年6月25日 合辑 火热制作中
2014 MJFantastics Music International Ltd.
离线zjxgjp

发帖
36
金钱
1
威望
1
贡献值
0
交易币
37
只看该作者 8楼 发表于: 2017-10-03
よし不错的版本
离线mjlove98

发帖
2519
金钱
5963
威望
198
贡献值
122
交易币
2593
只看该作者 9楼 发表于: 2017-10-03
Re:[Single] 1991 Remember The Time (US - 49K 74201) - WAV整轨 ?by幽灵
感谢分享
快速回复
限100 字节
 
上一个 下一个