论坛风格切换切换到宽版
  • 1585阅读
  • 16回复

[亲传][Single] 1992 Jam [The Uptown Jams] (JP - ESCA 5638) - WAV整轨 ♬by幽灵 [复制链接]

上一主题 下一主题
离线mjghosts
 

发帖
8257
金钱
219515
威望
9187
贡献值
2734
交易币
4792
只看楼主 倒序阅读 楼主  发表于: 2016-08-20
— 本帖被 mjghosts 执行加亮操作(2016-08-20) —
【相关链接】[Single] 1992 Jam [The downtown Jams] (JP - ESCA 5672) - WAV整轨 ♬by幽灵 M YF ^zheD  
http://www.mjsunny.com/read.php?tid=64694 :EV.nD7  
}n==^2  
*日本发行的两张JAM单曲之一,红色封面,收录5首歌,全碟完美精确校准抓轨!* rw'+2\  
*&I>3;~%^}  
注:独家整理,转载请注明出处!EAC无损整轨(压缩包内含CD图片) wD9K\%jIr!  
(t-hi8"  
解压密码:www.mjsunny.com
U>PZ3  
wm`<+K  
Tracklist LE8<JMB  
arL>{mj  
1 Jam (Roger's Jeep Radio Mix) 3:56 RCR= W6  
2 Jam (Teddy's Jam) 5:43 \jC) ;mk  
3 Jam (More Than Enuff Mix) 5:58 tRoSq;VrS  
4 Jam (Atlanta Techno Mix) 6:07 W22S/s  
5 Don't Stop 'Til You Get Enough (Masters At Work Remix) 7:45  ew1L+  
&hWELZe0vv  
ud/!@WG  
zB%~=@Q^6  
)la3GT*1mS  
M ygCg(h  
?xaUWD  
Exact Audio Copy V1.0 beta 6 from 9. April 2015 8O^x~[sQ  
KF7w{A){  
EAC 抓取日志文件从19. 八月 2016, 23:18 rRevyTs  
6O/L~Z*t  
Michael Jackson / Jam - The Uptown Jams Z&^vEQ  
b#7nt ?`7p  
使用驱动器  :MATSHITADVD-RAM UJ890AS   Adapter: 1  ID: 1 L@MCB-@V  
=)y$&Ydj  
读取模式      : 可靠Secure wPghgjF{  
使用精确流     : 是 |vi=h2*  
清空音频缓存    : 否 |x.[*'X@  
使用 C2 指示器 : 是 z@[n?t!7k  
Pd:tRY+t/  
读取偏移校正:               : 102 @ 6jKjI  
读取 Lead-In 和 Lead-Out : 否 IL8&MA%  
用静音填充抓取中丢失偏移的采样       : 是 VjSbx'i  
去除首尾静音块               : 否 $>~4RXC  
在CRC 计算中使用了空样本       : 是 wd:SBU~f5*  
已用接口                  : Win NT 及 2000 本地 Win32 接口 n]JfdI  
z2V_nkI  
所用输出模式: : 内部 WAV 函数 my3W[3#  
样本格式    : 44.100 Hz; 16 Bit; 立体声 78+PG(Q_M  
C@ z^{Z+  
'%9e8C|  
已抓取 CD 的 TOC jkIgEF2d*  
Nu'T0LPNq(  
     音轨 |    起始    |    长度    |  起始扇区  |  结束扇区   e[7n`ka '  
    -------------------------------------------- x;Jy-hMNl  
      1 |  0:00.00 |  3:56.37 |      0 |  17736 64>o3Hb2  
      2 |  3:56.37 |  5:42.70 |  17737 |  43456 (W| Eg  
      3 |  9:39.32 |  5:57.60 |  43457 |  70291 C0X_t  
      4 | 15:37.17 |  6:07.45 |  70292 |  97861 Lh6G"f(n  
      5 | 21:44.62 |  7:48.50 |  97862 | 133011 ~JsTHE$F  
`)FSJV1  
(7G5y7wI"  
范围状态及错误 NuKktQd  
:4PK4D s7  
已选择范围 qh!2dj  
pJ7M.C!  
     文件名 J:\12 Music*音乐\CDImage.wav D/C)Rrq"a  
yES+0D5<  
     峰值电平 100.0 % #;59THdtPk  
     抓取速度 5.4 X QZ!;` ?(  
     范围质量 100.0 % K]4XD1n7  
     复制 CRC EEA74EA3 7'g'qUW+~  
     复制成功 n#,<-Rb-  
$^|I?5xD  
没有错误发生 U40adP? a  
"vVL52HwB  
`uRf*-   
AccurateRip 摘要 8ut:cCrmg  
[kc%+j<g  
音轨  1  精确地校准抓取  3)  [DF6F3A50]  (AR v2) ]s lYr8m  
音轨  2  精确地校准抓取  3)  [E9507700]  (AR v2) ;9cBlthh  
音轨  3  精确地校准抓取  3)  [4C2E4A98]  (AR v2) 3HsjF5?W  
音轨  4  精确地校准抓取  3)  [F90976CD]  (AR v2) &dSw[C#f  
音轨  5  精确地校准抓取  3)  [DFB138E8]  (AR v2) T W?O  
;S+c<MSl  
所有音轨精确校准抓取 xh> /bU!>  
^o't &  
状态报告结尾
3OHP-oa.  
U'LO;s04m  
链接:http://pan.baidu.com/s/1qYkvCBU 密码: *Kt7"J  
此帖售价 10 金钱,已有 13 人购买 [记录] [购买]
购买后,将显示帖子中所有出售内容。
若发现会员采用欺骗的方法获取财富,请立刻举报,我们会对会员处以2-N倍的罚金,严重者封掉ID!
此段为出售的内容,购买后显示
离线Moses

发帖
5062
金钱
37320
威望
2951
贡献值
1521
交易币
2748
只看该作者 1楼 发表于: 2016-08-20
Don't Stop 'Til You Get Enough (Masters At Work Remix) 这支好像是独有
http://blog.sina.com.cn/mjjcfc

发帖
2753
金钱
30915
威望
621
贡献值
38
交易币
410
只看该作者 2楼 发表于: 2016-08-20
感谢分享

离线小李

发帖
240
金钱
1125
威望
9
贡献值
8
交易币
212
只看该作者 3楼 发表于: 2016-08-20
厉害啊,MIX我有WAV越来越多了,但是没有WAV的官方的也是非常多,哈哈 7V~ "x&Eu  
非官方的我就全抛弃了几乎
离线耶稣

发帖
7203
金钱
277425
威望
2521
贡献值
1672
交易币
11342
只看该作者 4楼 发表于: 2016-08-21
版主,求这首歌whatever happens  WAV {brMqE>P#  
;Ut+yuy  



离线thelma66

发帖
615
金钱
27879
威望
284
贡献值
253
交易币
808
只看该作者 5楼 发表于: 2016-08-21
这个红色封面好有意境
离线wannam

发帖
2703
金钱
87079
威望
382
贡献值
189
交易币
3346
只看该作者 6楼 发表于: 2016-08-21
试试欣赏混音版
离线lifan_npl

发帖
2213
金钱
31997
威望
853
贡献值
430
交易币
2594
只看该作者 7楼 发表于: 2016-08-21
谢谢分享  超级喜欢日版
我的淘宝店:
http://shop63152617.taobao.com  

发帖
619
金钱
959
威望
16
贡献值
16
交易币
699
只看该作者 8楼 发表于: 2016-08-25
非常感谢楼主的提供
离线flash

发帖
276
金钱
484
威望
81
贡献值
0
交易币
276
只看该作者 9楼 发表于: 2016-08-31
Re:[Single] 1992 Jam [The Uptown Jams
非常感谢楼主非常感谢楼主
快速回复
限100 字节
 
上一个 下一个