论坛风格切换切换到宽版
  • 1284阅读
  • 16回复

[亲传][Single] 1992 Jam [The Uptown Jams] (JP - ESCA 5638) - WAV整轨 ♬by幽灵 [复制链接]

上一主题 下一主题
离线mjghosts
 

发帖
8251
金钱
218667
威望
9176
贡献值
2723
交易币
4762
只看楼主 倒序阅读 楼主  发表于: 2016-08-20
— 本帖被 mjghosts 执行加亮操作(2016-08-20) —
【相关链接】[Single] 1992 Jam [The downtown Jams] (JP - ESCA 5672) - WAV整轨 ♬by幽灵 5E0dX3-  
http://www.mjsunny.com/read.php?tid=64694 nHl{'|~  
!'*1;OQ  
*日本发行的两张JAM单曲之一,红色封面,收录5首歌,全碟完美精确校准抓轨!* ?JMy  
 >f*Zf(F  
注:独家整理,转载请注明出处!EAC无损整轨(压缩包内含CD图片) 2<tU  
$fG~;`T  
解压密码:www.mjsunny.com
(lt{$0   
?63ep:QEk  
Tracklist j> dL:V&`  
w]O,xO  
1 Jam (Roger's Jeep Radio Mix) 3:56 @.} @K  
2 Jam (Teddy's Jam) 5:43 >*WT[UU  
3 Jam (More Than Enuff Mix) 5:58 R7/ET"  
4 Jam (Atlanta Techno Mix) 6:07 q``:[Sz  
5 Don't Stop 'Til You Get Enough (Masters At Work Remix) 7:45 :H>0/^Mg0  
))4RgS$  
N)4R.}  
qm< mw"]  
k,-0OoCL-!  
JC iB;!y  
~W-5-Nl{s  
Exact Audio Copy V1.0 beta 6 from 9. April 2015 EkoT U#w5  
pd-I^Q3-  
EAC 抓取日志文件从19. 八月 2016, 23:18 =k5O*ql"  
ijgm-1ECk3  
Michael Jackson / Jam - The Uptown Jams 9# #(B  
hGRHuJ  
使用驱动器  :MATSHITADVD-RAM UJ890AS   Adapter: 1  ID: 1 d6)+d9?<  
*!ecb1U5  
读取模式      : 可靠Secure 49YN@ PXC  
使用精确流     : 是 }=|plz}  
清空音频缓存    : 否 d>V#?1$h  
使用 C2 指示器 : 是 }ld^zyL  
R?M>uaxn  
读取偏移校正:               : 102 3i~X`@$k>  
读取 Lead-In 和 Lead-Out : 否 tG~[E,/`  
用静音填充抓取中丢失偏移的采样       : 是 r"|.`$:B  
去除首尾静音块               : 否 p(nEcu  
在CRC 计算中使用了空样本       : 是 eD7qc1*G  
已用接口                  : Win NT 及 2000 本地 Win32 接口 0o:R:*  
a ,"   
所用输出模式: : 内部 WAV 函数 J57; X=M  
样本格式    : 44.100 Hz; 16 Bit; 立体声 ;#9ioG x  
`?b'.Z_J  
(L yKo  
已抓取 CD 的 TOC q^?a|l  
64]8ykRD-  
     音轨 |    起始    |    长度    |  起始扇区  |  结束扇区   crN*eFeW  
    -------------------------------------------- Gp+\}<^ Z  
      1 |  0:00.00 |  3:56.37 |      0 |  17736 EB*C;ms  
      2 |  3:56.37 |  5:42.70 |  17737 |  43456 53gLz_ee  
      3 |  9:39.32 |  5:57.60 |  43457 |  70291 b*H*(}A6"'  
      4 | 15:37.17 |  6:07.45 |  70292 |  97861 \P")Eh =d  
      5 | 21:44.62 |  7:48.50 |  97862 | 133011 VBw 5[  
ir"t@"Y;o  
O5Z9`_9<  
范围状态及错误 "|[9 Q?  
=B5{7g\  
已选择范围 `GdH ,:S>  
{\CWoFht>  
     文件名 J:\12 Music*音乐\CDImage.wav T^(W _S  
q4&! mDU  
     峰值电平 100.0 % 2#sFY/@  
     抓取速度 5.4 X 1*2ycfa  
     范围质量 100.0 % l`ZL^uT  
     复制 CRC EEA74EA3 #qY gQ<TM!  
     复制成功 'jfE?ngt  
" nCK%w=  
没有错误发生 6XF Ufi+  
g9|OhymB  
n=V|NrU  
AccurateRip 摘要 [0y,K{8t  
S',h*e  
音轨  1  精确地校准抓取  3)  [DF6F3A50]  (AR v2) l`zh Kj  
音轨  2  精确地校准抓取  3)  [E9507700]  (AR v2) `e<IO_cg  
音轨  3  精确地校准抓取  3)  [4C2E4A98]  (AR v2) ~6n|GxR.[  
音轨  4  精确地校准抓取  3)  [F90976CD]  (AR v2) syW[uXNLZ  
音轨  5  精确地校准抓取  3)  [DFB138E8]  (AR v2) klnNBo!  
DSqA}r  
所有音轨精确校准抓取 /C Xg$%\  
z@3gNY&7.8  
状态报告结尾
Ebs]]a>PO  
en'[_43  
链接:http://pan.baidu.com/s/1qYkvCBU 密码: T90O.]S  
此帖售价 10 金钱,已有 13 人购买 [记录] [购买]
购买后,将显示帖子中所有出售内容。
若发现会员采用欺骗的方法获取财富,请立刻举报,我们会对会员处以2-N倍的罚金,严重者封掉ID!
此段为出售的内容,购买后显示
离线Moses

发帖
5062
金钱
37320
威望
2951
贡献值
1521
交易币
2748
只看该作者 1楼 发表于: 2016-08-20
Don't Stop 'Til You Get Enough (Masters At Work Remix) 这支好像是独有
http://blog.sina.com.cn/mjjcfc

发帖
2740
金钱
30927
威望
620
贡献值
37
交易币
393
只看该作者 2楼 发表于: 2016-08-20
感谢分享

离线小李

发帖
238
金钱
1115
威望
9
贡献值
8
交易币
210
只看该作者 3楼 发表于: 2016-08-20
厉害啊,MIX我有WAV越来越多了,但是没有WAV的官方的也是非常多,哈哈 <*/Z>Z_c2  
非官方的我就全抛弃了几乎
离线耶稣

发帖
7158
金钱
273560
威望
2493
贡献值
1657
交易币
11237
只看该作者 4楼 发表于: 2016-08-21
版主,求这首歌whatever happens  WAV tJm1Q#||  
\KKE&3=  




离线thelma66

发帖
615
金钱
27879
威望
284
贡献值
253
交易币
808
只看该作者 5楼 发表于: 2016-08-21
这个红色封面好有意境
离线wannam

发帖
2702
金钱
87018
威望
382
贡献值
189
交易币
3345
只看该作者 6楼 发表于: 2016-08-21
试试欣赏混音版
离线lifan_npl

发帖
2196
金钱
31917
威望
851
贡献值
428
交易币
2569
只看该作者 7楼 发表于: 2016-08-21
谢谢分享  超级喜欢日版
我的淘宝:
http://shop63152617.taobao.com  

发帖
605
金钱
909
威望
16
贡献值
16
交易币
685
只看该作者 8楼 发表于: 2016-08-25
非常感谢楼主的提供
离线flash

发帖
271
金钱
530
威望
81
贡献值
0
交易币
271
只看该作者 9楼 发表于: 2016-08-31
Re:[Single] 1992 Jam [The Uptown Jams
非常感谢楼主非常感谢楼主
快速回复
限100 字节
 
上一个 下一个