论坛风格切换切换到宽版
  • 1187阅读
  • 16回复

[亲传][Single] 1992 Jam [The Uptown Jams] (JP - ESCA 5638) - WAV整轨 ♬by幽灵 [复制链接]

上一主题 下一主题
离线mjghosts
 

发帖
8242
金钱
217441
威望
9173
贡献值
2722
交易币
4749
只看楼主 倒序阅读 楼主  发表于: 2016-08-20
— 本帖被 mjghosts 执行加亮操作(2016-08-20) —
【相关链接】[Single] 1992 Jam [The downtown Jams] (JP - ESCA 5672) - WAV整轨 ♬by幽灵 t,?,F4 j  
http://www.mjsunny.com/read.php?tid=64694 o>K &D$J;O  
!Ud:?U  
*日本发行的两张JAM单曲之一,红色封面,收录5首歌,全碟完美精确校准抓轨!* zkG>u,B}  
~1d!hq?/q  
注:独家整理,转载请注明出处!EAC无损整轨(压缩包内含CD图片) %6Rp,M9=  
l<n5gfJ  
解压密码:www.mjsunny.com
 9^p32G  
/o\U/I  
Tracklist t,1in4sN  
\{:%v#ZZ  
1 Jam (Roger's Jeep Radio Mix) 3:56 ,FY-d$3)  
2 Jam (Teddy's Jam) 5:43 SF"#\{cjj  
3 Jam (More Than Enuff Mix) 5:58 \a?K?v|8  
4 Jam (Atlanta Techno Mix) 6:07 jp% +n  
5 Don't Stop 'Til You Get Enough (Masters At Work Remix) 7:45 =MCNCV/<  
rAM *\=  
xv^Sh}\}  
]GQv4-y  
UlnyTz~  
_2]O^$L  
]/LWrQD  
Exact Audio Copy V1.0 beta 6 from 9. April 2015 x)j/  
kNRyOUy  
EAC 抓取日志文件从19. 八月 2016, 23:18 aF,j J}On  
y*}AX%8`e~  
Michael Jackson / Jam - The Uptown Jams CKx\V+\O  
tceIA8d6  
使用驱动器  :MATSHITADVD-RAM UJ890AS   Adapter: 1  ID: 1 mG>T`c|r3  
o~Bk0V=  
读取模式      : 可靠Secure NnJ>0|74g  
使用精确流     : 是 "B3iX@C  
清空音频缓存    : 否 x%b]e a  
使用 C2 指示器 : 是 Rg%R/p)C  
] +}:VaeA  
读取偏移校正:               : 102 0z#l0-NdQ  
读取 Lead-In 和 Lead-Out : 否 /.pa ??u  
用静音填充抓取中丢失偏移的采样       : 是 R*JOiVAC  
去除首尾静音块               : 否 8.Pcr<  
在CRC 计算中使用了空样本       : 是 :vn0|7W4  
已用接口                  : Win NT 及 2000 本地 Win32 接口 >m)2ox_B  
&5kjjQ*HB  
所用输出模式: : 内部 WAV 函数 1A,4 Aw<  
样本格式    : 44.100 Hz; 16 Bit; 立体声 d\1:1ucV  
7|{%CckN  
9M-NItFos  
已抓取 CD 的 TOC *aSRKY  
YA8yMh*4D?  
     音轨 |    起始    |    长度    |  起始扇区  |  结束扇区   i,U-H\p&  
    -------------------------------------------- 'amex  
      1 |  0:00.00 |  3:56.37 |      0 |  17736 H 29 _ /  
      2 |  3:56.37 |  5:42.70 |  17737 |  43456 0I AaPz/e  
      3 |  9:39.32 |  5:57.60 |  43457 |  70291 ph|2lLZ  
      4 | 15:37.17 |  6:07.45 |  70292 |  97861 f*R_\  
      5 | 21:44.62 |  7:48.50 |  97862 | 133011 B'#gs'fl  
HpgN$$\@  
]V[  
范围状态及错误 Y&!McM!Jw  
!*QA;*e  
已选择范围 f>JzG,-  
?9.?w-Q'  
     文件名 J:\12 Music*音乐\CDImage.wav ZI:d&~1i1  
Y&:\s8C  
     峰值电平 100.0 % ~d1RD  
     抓取速度 5.4 X R5YtCw]i=  
     范围质量 100.0 % 4 w  
     复制 CRC EEA74EA3 \fGYJ37  
     复制成功 e&I.kC"j6  
u(Q(UuI  
没有错误发生  6}ewBAq%  
x~I1(l7r  
v*p)"J *  
AccurateRip 摘要 NWX%0PGZ  
Hw3 ES  
音轨  1  精确地校准抓取  3)  [DF6F3A50]  (AR v2) t$Ji{t-  
音轨  2  精确地校准抓取  3)  [E9507700]  (AR v2) -Q8`p  
音轨  3  精确地校准抓取  3)  [4C2E4A98]  (AR v2) =hb87g.  
音轨  4  精确地校准抓取  3)  [F90976CD]  (AR v2) B(NL3WJ  
音轨  5  精确地校准抓取  3)  [DFB138E8]  (AR v2) ,)m-nZ5  
2)]*re)  
所有音轨精确校准抓取 ^DJ U99  
J?DyTs3 Z  
状态报告结尾
6 d6SP)|j  
z81!F'x;  
链接:http://pan.baidu.com/s/1qYkvCBU 密码: NyNu1V$  
此帖售价 10 金钱,已有 13 人购买 [记录] [购买]
购买后,将显示帖子中所有出售内容。
若发现会员采用欺骗的方法获取财富,请立刻举报,我们会对会员处以2-N倍的罚金,严重者封掉ID!
此段为出售的内容,购买后显示
离线Moses

发帖
5060
金钱
37310
威望
2951
贡献值
1521
交易币
2746
只看该作者 1楼 发表于: 2016-08-20
Don't Stop 'Til You Get Enough (Masters At Work Remix) 这支好像是独有
http://blog.sina.com.cn/mjjcfc

发帖
2735
金钱
31355
威望
620
贡献值
37
交易币
388
只看该作者 2楼 发表于: 2016-08-20
感谢分享

离线小李

发帖
233
金钱
190
威望
99
贡献值
8
交易币
205
只看该作者 3楼 发表于: 2016-08-20
厉害啊,MIX我有WAV越来越多了,但是没有WAV的官方的也是非常多,哈哈 }%2hBl/  
非官方的我就全抛弃了几乎
离线耶稣

发帖
7139
金钱
270007
威望
2488
贡献值
1652
交易币
11198
只看该作者 4楼 发表于: 2016-08-21
版主,求这首歌whatever happens  WAV QZtQogNy#  
>,E^ R`y  





离线thelma66

发帖
615
金钱
27879
威望
284
贡献值
253
交易币
808
只看该作者 5楼 发表于: 2016-08-21
这个红色封面好有意境
离线wannam

发帖
2702
金钱
87012
威望
382
贡献值
189
交易币
3345
只看该作者 6楼 发表于: 2016-08-21
试试欣赏混音版
离线lifan_npl

发帖
2185
金钱
16546
威望
783
贡献值
348
交易币
2542
只看该作者 7楼 发表于: 2016-08-21
谢谢分享  超级喜欢日版
我的淘宝:
http://shop63152617.taobao.com  

发帖
605
金钱
909
威望
16
贡献值
16
交易币
685
只看该作者 8楼 发表于: 2016-08-25
非常感谢楼主的提供
离线flash

发帖
236
金钱
0
威望
81
贡献值
0
交易币
236
只看该作者 9楼 发表于: 2016-08-31
Re:[Single] 1992 Jam [The Uptown Jams
非常感谢楼主非常感谢楼主
快速回复
限100 字节
 
上一个 下一个