论坛风格切换切换到宽版
  • 1044阅读
  • 16回复

[亲传][Single] 1992 Jam [The Uptown Jams] (JP - ESCA 5638) - WAV整轨 ♬by幽灵 [复制链接]

上一主题 下一主题
离线mjghosts
 

发帖
8240
金钱
216437
威望
9172
贡献值
2721
交易币
4743
只看楼主 倒序阅读 楼主  发表于: 2016-08-20
— 本帖被 mjghosts 执行加亮操作(2016-08-20) —
【相关链接】[Single] 1992 Jam [The downtown Jams] (JP - ESCA 5672) - WAV整轨 ♬by幽灵 #e1>H1eU  
http://www.mjsunny.com/read.php?tid=64694 3?9IJ5p  
)gIKH{JYL  
*日本发行的两张JAM单曲之一,红色封面,收录5首歌,全碟完美精确校准抓轨!* y/{fX(aV  
kQSy+q  
注:独家整理,转载请注明出处!EAC无损整轨(压缩包内含CD图片) kk@fL  
F=e8IUr  
解压密码:www.mjsunny.com
f!uwzHA`?  
XB^'K2  
Tracklist TVtvuvQ2K  
y{B=-\O]  
1 Jam (Roger's Jeep Radio Mix) 3:56 (?1y4M  
2 Jam (Teddy's Jam) 5:43 ,GhS[VJjR  
3 Jam (More Than Enuff Mix) 5:58 \g&,@'uh  
4 Jam (Atlanta Techno Mix) 6:07 h ohfE3rd  
5 Don't Stop 'Til You Get Enough (Masters At Work Remix) 7:45 P+ 3G~Sr  
38Mv25N  
c)6m$5]  
u"r`3P`  
kf\PioD8  
60^`JVGWH  
:;%2BSgFU  
Exact Audio Copy V1.0 beta 6 from 9. April 2015 @(EAq<5{  
ih-#5M@  
EAC 抓取日志文件从19. 八月 2016, 23:18 kP=eW_0D  
|"q5sym8Y_  
Michael Jackson / Jam - The Uptown Jams E<rp7~#  
/cUO$m o  
使用驱动器  :MATSHITADVD-RAM UJ890AS   Adapter: 1  ID: 1 LRxZcxmy  
>%_\;svZG  
读取模式      : 可靠Secure "`/h#np  
使用精确流     : 是 Gq)]s'r2  
清空音频缓存    : 否 o+iiST JEe  
使用 C2 指示器 : 是 AG nxYV"p  
sPpH*,(  
读取偏移校正:               : 102 R{`(c/%8  
读取 Lead-In 和 Lead-Out : 否 T3.&R#1M8-  
用静音填充抓取中丢失偏移的采样       : 是 GTPHVp&y  
去除首尾静音块               : 否 m#Jmdb_  
在CRC 计算中使用了空样本       : 是  `,*3[  
已用接口                  : Win NT 及 2000 本地 Win32 接口 ;W )Y OT  
wo{gG?B  
所用输出模式: : 内部 WAV 函数 '?' l;#^i<  
样本格式    : 44.100 Hz; 16 Bit; 立体声 9MJG;+B~  
Y;M|D'y+  
a(X@Q8l:  
已抓取 CD 的 TOC 7hcYD!DS  
'3fu  
     音轨 |    起始    |    长度    |  起始扇区  |  结束扇区   ~L\z8[<C  
    -------------------------------------------- } 9Eg=%0v  
      1 |  0:00.00 |  3:56.37 |      0 |  17736 %/.b~|,-  
      2 |  3:56.37 |  5:42.70 |  17737 |  43456 <{cQM$ #  
      3 |  9:39.32 |  5:57.60 |  43457 |  70291 D=Gtq6jd  
      4 | 15:37.17 |  6:07.45 |  70292 |  97861 S`0(*A[W*  
      5 | 21:44.62 |  7:48.50 |  97862 | 133011 ,T$U'&;  
?M9=yA  
6j]0R*B7`Q  
范围状态及错误 X51:  
'XjZ_ng  
已选择范围 6}Ci>_i4#  
E]n&=\  
     文件名 J:\12 Music*音乐\CDImage.wav c]o'xd,T8\  
fxHH;hRfv  
     峰值电平 100.0 % sBg.u  
     抓取速度 5.4 X Jk n>S#SZ  
     范围质量 100.0 % J<h $ wM  
     复制 CRC EEA74EA3 w;amZgD>  
     复制成功 z$. 88 ^  
X5$Iyis  
没有错误发生 =-n}[Y}A  
o 3P${Rq  
~=l;=7 T  
AccurateRip 摘要 )Y{L&A  
F{;((VboN  
音轨  1  精确地校准抓取  3)  [DF6F3A50]  (AR v2) s9DYi~/,  
音轨  2  精确地校准抓取  3)  [E9507700]  (AR v2) r52gn(,  
音轨  3  精确地校准抓取  3)  [4C2E4A98]  (AR v2) Y&Z.2>b  
音轨  4  精确地校准抓取  3)  [F90976CD]  (AR v2) ,(^*+G.i  
音轨  5  精确地校准抓取  3)  [DFB138E8]  (AR v2) u <v7;dF|s  
_ *Pf  
所有音轨精确校准抓取 `1IgzKL9  
Y\g3h M  
状态报告结尾
bdE[;+58  
RPL:-  
链接:http://pan.baidu.com/s/1qYkvCBU 密码: JYHl,HH#z  
此帖售价 10 金钱,已有 13 人购买 [记录] [购买]
购买后,将显示帖子中所有出售内容。
若发现会员采用欺骗的方法获取财富,请立刻举报,我们会对会员处以2-N倍的罚金,严重者封掉ID!
此段为出售的内容,购买后显示
离线Moses

发帖
5059
金钱
37305
威望
2951
贡献值
1521
交易币
2745
只看该作者 1楼 发表于: 2016-08-20
Don't Stop 'Til You Get Enough (Masters At Work Remix) 这支好像是独有
http://blog.sina.com.cn/mjjcfc

发帖
2729
金钱
31485
威望
620
贡献值
37
交易币
382
只看该作者 2楼 发表于: 2016-08-20
感谢分享

离线小李

发帖
232
金钱
230
威望
99
贡献值
8
交易币
204
只看该作者 3楼 发表于: 2016-08-20
厉害啊,MIX我有WAV越来越多了,但是没有WAV的官方的也是非常多,哈哈 +x}<IS8  
非官方的我就全抛弃了几乎
离线耶稣

发帖
7121
金钱
265688
威望
2471
贡献值
1638
交易币
11152
只看该作者 4楼 发表于: 2016-08-21
版主,求这首歌whatever happens  WAV }W C[$Y_@  
MnsJEvn/  


离线thelma66

发帖
615
金钱
27879
威望
284
贡献值
253
交易币
808
只看该作者 5楼 发表于: 2016-08-21
这个红色封面好有意境
离线wannam

发帖
2701
金钱
86997
威望
382
贡献值
189
交易币
3344
只看该作者 6楼 发表于: 2016-08-21
试试欣赏混音版
离线lifan_npl

发帖
2173
金钱
16819
威望
782
贡献值
347
交易币
2526
只看该作者 7楼 发表于: 2016-08-21
谢谢分享  超级喜欢日版
我的淘宝:
http://shop63152617.taobao.com  

发帖
605
金钱
909
威望
16
贡献值
16
交易币
685
只看该作者 8楼 发表于: 2016-08-25
非常感谢楼主的提供
离线flash

发帖
236
金钱
9429
威望
81
贡献值
0
交易币
236
只看该作者 9楼 发表于: 2016-08-31
Re:[Single] 1992 Jam [The Uptown Jams
非常感谢楼主非常感谢楼主
快速回复
限100 字节
 
上一个 下一个