论坛风格切换切换到宽版
  • 1404阅读
  • 16回复

[亲传][Single] 1992 Jam [The Uptown Jams] (JP - ESCA 5638) - WAV整轨 ♬by幽灵 [复制链接]

上一主题 下一主题
离线mjghosts
 

发帖
8256
金钱
219309
威望
9187
贡献值
2734
交易币
4791
只看楼主 倒序阅读 楼主  发表于: 2016-08-20
— 本帖被 mjghosts 执行加亮操作(2016-08-20) —
【相关链接】[Single] 1992 Jam [The downtown Jams] (JP - ESCA 5672) - WAV整轨 ♬by幽灵 @F7QQs3  
http://www.mjsunny.com/read.php?tid=64694 lQ+-g#`  
m@c2'*&Y  
*日本发行的两张JAM单曲之一,红色封面,收录5首歌,全碟完美精确校准抓轨!* @pko zE-  
x`eYCi  
注:独家整理,转载请注明出处!EAC无损整轨(压缩包内含CD图片) =q"3a9 pb7  
3?}SXmA'@  
解压密码:www.mjsunny.com
WMC6 dD_6e  
\4&g5vE  
Tracklist w7W-=\Hvh  
_1Eyqh`oh  
1 Jam (Roger's Jeep Radio Mix) 3:56 +(<f(]bG  
2 Jam (Teddy's Jam) 5:43 0Nfj}sXCWE  
3 Jam (More Than Enuff Mix) 5:58 DjKjEZHgM  
4 Jam (Atlanta Techno Mix) 6:07 YJy*OS_&  
5 Don't Stop 'Til You Get Enough (Masters At Work Remix) 7:45 1 W0;YcT]  
 W 6~=?C  
&Yg/ 08*  
$ZS9CkN  
\ax%I)3  
^mi4q[PM  
^>Y%L(>  
Exact Audio Copy V1.0 beta 6 from 9. April 2015 l,.?-|Poa  
n*Vd<m;w  
EAC 抓取日志文件从19. 八月 2016, 23:18 S |>$0P4W(  
4|N\Q=,  
Michael Jackson / Jam - The Uptown Jams ]"Y%M'  
=kh>s$We  
使用驱动器  :MATSHITADVD-RAM UJ890AS   Adapter: 1  ID: 1 tIb21c q  
D2</^]3Su  
读取模式      : 可靠Secure #M?F^u[  
使用精确流     : 是 Z-SwJtWk  
清空音频缓存    : 否 }B"|z'u  
使用 C2 指示器 : 是 t0e{| du  
)d}H>Qx=  
读取偏移校正:               : 102 V)0[`zJ  
读取 Lead-In 和 Lead-Out : 否 -(\1r2 Y  
用静音填充抓取中丢失偏移的采样       : 是 4>4V-m\  
去除首尾静音块               : 否 5vD3K! \u  
在CRC 计算中使用了空样本       : 是 )|y#OZHR  
已用接口                  : Win NT 及 2000 本地 Win32 接口 j~Q}F|i8  
JC=dYP}  
所用输出模式: : 内部 WAV 函数 cZqfz  
样本格式    : 44.100 Hz; 16 Bit; 立体声 FJ{=2]x|  
G\R*#4cF  
j1/+\8Y  
已抓取 CD 的 TOC 2`EVdl7B]  
C0QM#"[  
     音轨 |    起始    |    长度    |  起始扇区  |  结束扇区   ++b$E&lYU  
    -------------------------------------------- KFU%DU G  
      1 |  0:00.00 |  3:56.37 |      0 |  17736  S(  
      2 |  3:56.37 |  5:42.70 |  17737 |  43456 :Wc_Utt  
      3 |  9:39.32 |  5:57.60 |  43457 |  70291 z=g$Exl  
      4 | 15:37.17 |  6:07.45 |  70292 |  97861 T.ML$"f  
      5 | 21:44.62 |  7:48.50 |  97862 | 133011 @1:0h9%  
G^;>8r  
'e!J06  
范围状态及错误 !EIjN  
$I9qgDJ)  
已选择范围 3?n>yS  
y|wlq3o  
     文件名 J:\12 Music*音乐\CDImage.wav *3/T;x.  
b` Hz$8  
     峰值电平 100.0 % OCZaQ33  
     抓取速度 5.4 X !l]dR@e  
     范围质量 100.0 % oF(Lji?m  
     复制 CRC EEA74EA3 -'~ LjA(  
     复制成功 Na X   
J9~ g|5  
没有错误发生 c y8;@[#9  
j_Yp>=+[  
8YbE`32  
AccurateRip 摘要 0\eIQp  
J@u;H$@/y  
音轨  1  精确地校准抓取  3)  [DF6F3A50]  (AR v2) I"ok&^t^}  
音轨  2  精确地校准抓取  3)  [E9507700]  (AR v2) e7sp =I ,  
音轨  3  精确地校准抓取  3)  [4C2E4A98]  (AR v2) 6 |PrX L&  
音轨  4  精确地校准抓取  3)  [F90976CD]  (AR v2) T9Nb`sbV]  
音轨  5  精确地校准抓取  3)  [DFB138E8]  (AR v2) 8@MV%MVy$  
7/I,HxXp!  
所有音轨精确校准抓取 l1BtI_7p  
t*Sa@$p  
状态报告结尾
RtTJ5@V(  
Br1&8L-|%  
链接:http://pan.baidu.com/s/1qYkvCBU 密码: f$e[u E r  
此帖售价 10 金钱,已有 13 人购买 [记录] [购买]
购买后,将显示帖子中所有出售内容。
若发现会员采用欺骗的方法获取财富,请立刻举报,我们会对会员处以2-N倍的罚金,严重者封掉ID!
此段为出售的内容,购买后显示
离线Moses

发帖
5062
金钱
37320
威望
2951
贡献值
1521
交易币
2748
只看该作者 1楼 发表于: 2016-08-20
Don't Stop 'Til You Get Enough (Masters At Work Remix) 这支好像是独有
http://blog.sina.com.cn/mjjcfc

发帖
2751
金钱
30829
威望
621
贡献值
38
交易币
408
只看该作者 2楼 发表于: 2016-08-20
感谢分享

离线小李

发帖
240
金钱
1125
威望
9
贡献值
8
交易币
212
只看该作者 3楼 发表于: 2016-08-20
厉害啊,MIX我有WAV越来越多了,但是没有WAV的官方的也是非常多,哈哈 u9:`4b   
非官方的我就全抛弃了几乎
离线耶稣

发帖
7193
金钱
276356
威望
2517
贡献值
1670
交易币
11324
只看该作者 4楼 发表于: 2016-08-21
版主,求这首歌whatever happens  WAV {m?K2]](  
c n\k`8  



离线thelma66

发帖
615
金钱
27879
威望
284
贡献值
253
交易币
808
只看该作者 5楼 发表于: 2016-08-21
这个红色封面好有意境
离线wannam

发帖
2703
金钱
87033
威望
382
贡献值
189
交易币
3346
只看该作者 6楼 发表于: 2016-08-21
试试欣赏混音版
离线lifan_npl

发帖
2212
金钱
31692
威望
853
贡献值
430
交易币
2593
只看该作者 7楼 发表于: 2016-08-21
谢谢分享  超级喜欢日版
我的淘宝店:
http://shop63152617.taobao.com  

发帖
605
金钱
909
威望
16
贡献值
16
交易币
685
只看该作者 8楼 发表于: 2016-08-25
非常感谢楼主的提供
离线flash

发帖
272
金钱
509
威望
81
贡献值
0
交易币
272
只看该作者 9楼 发表于: 2016-08-31
Re:[Single] 1992 Jam [The Uptown Jams
非常感谢楼主非常感谢楼主
快速回复
限100 字节
 
上一个 下一个