论坛风格切换切换到宽版
  • 1073阅读
  • 13回复

[亲传][Album] 2001 Thriller [Special Edition] (US - EK 66073) - WAV整轨 ♬by幽灵 [复制链接]

上一主题 下一主题
离线mjghosts
 

发帖
8244
金钱
217720
威望
9174
贡献值
2723
交易币
4755
只看楼主 倒序阅读 楼主  发表于: 2016-09-14
— 本帖被 mjghosts 执行加亮操作(2016-09-14) —
*2001年重编码优化版,加录一些采访录音和DEMO歌曲等。完美精确校准抓轨! MP!d4  
'H \9:7  
注:独家整理,转载请注明出处!EAC无损整轨(压缩包内含CD图片) +f@U6Vv  
rvXWcu-"  
解压密码:www.mjsunny.com
 Kfh|  
<8d^^0  
Tracklist FRg^c kb"  
1 Wanna Be Startin' Somethin' 6:03 9Hc$G{[a  
2 Baby Be Mine 4:21 iy14mh\ ~  
3 The Girl Is Mine 3:42 \Dd-Xn_b  
4 Thriller 5:58 )FpZPdN+h  
5 Beat It 4:18 !!`!|w  
6 Billie Jean 4:54 {3.r6ZwCn  
7 Human Nature 4:06 @ ]/AjjLt  
8 P.Y.T. (Pretty Young Thing) 3:59 wyQzM6:,yX  
9 The Lady In My Life 5:00 nSkPM 5\TI  
Special Edition Bonus Material av$/Om :  
10 Interview 1 2:19 \l.-eu'O  
11 Someone In The Dark 4:48 e}.^Tiwd]  
12 Interview 2 2:05 Hv\-_>}K  
13 Billie Jean (Home Demo From 1981) 2:21 ltD37QZQ  
14 Interview 3 3:11 2w-51tqm  
15 Interview 4 4:04 ?zsB6B?;  
16 Interview 5 1:33 EB_NK  
17 Voice-Over Session From "Thriller" 2:53 &g~ wS@  
18 Interview 6 1:56 p$x{yz3  
19 Interview 7 2:02 e4z1`YLsG  
20 Carousel 1:50 eU N"w,@y  
21 Interview 8 1:18
en:4H   
EgDQ+( -  
A,) VM9M_l  
-Z?Vd!H:  
\J6hI\/4^  
1 `7<2w  
Exact Audio Copy V1.0 beta 6 from 9. April 2015 v*qQ? S  
toaYsiIkzW  
EAC 抓取日志文件从7. 九月 2016, 3:09 LsM7hLy  
-.|4Y#b:&  
Michael Jackson / Thriller a@pz*e  
8v)_6p(<x8  
使用驱动器  :MATSHITADVD-RAM UJ890AS   Adapter: 1  ID: 1 dk==?  
((rv]f{  
读取模式      : 可靠Secure {R^'=(YFy  
使用精确流     : 是 RAjkH`  
清空音频缓存    : 否 e0;  
使用 C2 指示器 : 是 w^1Fi8+  
wVq\FY%  
读取偏移校正:               : 102 ^I]{7$6^  
读取 Lead-In 和 Lead-Out : 否 > 4oY3wk8  
用静音填充抓取中丢失偏移的采样       : 是 oY`qInM_  
去除首尾静音块               : 否 y5 m!*=`l`  
在CRC 计算中使用了空样本       : 是 Zwe[_z!*D  
已用接口                  : Win NT 及 2000 本地 Win32 接口 a-n4:QT  
YYRT.U'  
所用输出模式: : 内部 WAV 函数 ]#<  
样本格式    : 44.100 Hz; 16 Bit; 立体声 GLKO]y  
PdY>#Cyh  
;Mj002.\G  
已抓取 CD 的 TOC S2$5!(P  
#Y[H8TW  
     音轨 |    起始    |    长度    |  起始扇区  |  结束扇区   ~uPk  
    -------------------------------------------- 2 X<nn  
      1 |  0:00.00 |  6:02.28 |      0 |  27177 D6!tVdnVe  
      2 |  6:02.28 |  4:20.17 |  27178 |  46694 ItK  
      3 | 10:22.45 |  3:42.01 |  46695 |  63345 - s|t^  
      4 | 14:04.46 |  5:57.54 |  63346 |  90174 ,L-C(j  
      5 | 20:02.25 |  4:17.67 |  90175 | 109516 \ j]~>9  
      6 | 24:20.17 |  4:53.67 | 109517 | 131558 gStY8Z!k  
      7 | 29:14.09 |  4:05.52 | 131559 | 149985 *?Wtj  
      8 | 33:19.61 |  3:58.48 | 149986 | 167883 J%4HNW*p  
      9 | 37:18.34 |  4:59.17 | 167884 | 190325 &5/JfNe3  
     10 | 42:17.51 |  2:19.09 | 190326 | 200759 Wy)('EM  
     11 | 44:36.60 |  4:47.14 | 200760 | 222298 !@yQK<0  
     12 | 49:23.74 |  2:04.15 | 222299 | 231613 M;@Ex`+?i  
     13 | 51:28.14 |  2:20.16 | 231614 | 242129 O<iI  
     14 | 53:48.30 |  3:10.18 | 242130 | 256397 ]84YvpfW  
     15 | 56:58.48 |  4:03.20 | 256398 | 274642 (o{)>D  
     16 | 61:01.68 |  1:32.31 | 274643 | 281573 /]l f>\x1  
     17 | 62:34.24 |  2:52.53 | 281574 | 294526 " xxXZGUp  
     18 | 65:27.02 |  1:56.02 | 294527 | 303228 " #J}A0  
     19 | 67:23.04 |  2:01.45 | 303229 | 312348 Y/!0Q6<[2Y  
     20 | 69:24.49 |  1:49.45 | 312349 | 320568 KD9Ca $-  
     21 | 71:14.19 |  1:17.69 | 320569 | 326412 o+R. u}|  
~v,!n/('  
r$Kh3EEF`E  
范围状态及错误 )8\Z=uC  
!fif8kf  
已选择范围 ,\Z8*Jr3Q  
C}|O#"t^\  
     文件名 J:\12 Music*音乐\2001 Thriller [Special Edition] (US - EK 66073)\CDImage.wav  #=>kw^5  
;o&_:]S  
     峰值电平 98.8 % )GQ D*b  
     抓取速度 7.0 X c'>8pd  
     范围质量 100.0 % 3RG/X  
     复制 CRC 6433D63C EC:x  ,i  
     复制成功 4 g/<).1<b  
^[SbV^DOL  
没有错误发生 8O}A/*1FJ  
C=pPI  
Mf,Mcvs  
AccurateRip 摘要 Uzm[e%/`  
t8wz'[z  
音轨  1  精确地校准抓取  104)  [06A73B6D]  (AR v2) FcbA)7dD  
音轨  2  精确地校准抓取  106)  [3A32996E]  (AR v2) \?Oly171  
音轨  3  精确地校准抓取  106)  [DB3FBEBD]  (AR v2) LQ&d|giA  
音轨  4  精确地校准抓取  106)  [D8539629]  (AR v2) Duo#WtC  
音轨  5  精确地校准抓取  107)  [08066264]  (AR v2) - EX3' [*'  
音轨  6  精确地校准抓取  105)  [4D5B217F]  (AR v2) "Jv,QTIcS  
音轨  7  精确地校准抓取  107)  [255D67CC]  (AR v2) a[{QlD^D  
音轨  8  精确地校准抓取  105)  [28B11ED5]  (AR v2) H?r;S 5)c  
音轨  9  精确地校准抓取  106)  [2C7A40C2]  (AR v2) Wx\"wlJ7.3  
音轨 10  精确地校准抓取  91)  [C5F014AA]  (AR v2) RU ,N_GV   
音轨 11  精确地校准抓取  97)  [E4206B48]  (AR v2) $vicHuX!  
音轨 12  精确地校准抓取  92)  [0FA44C40]  (AR v2) JSZ j0_ B  
音轨 13  精确地校准抓取  92)  [7BC8E16C]  (AR v2) zSM7x  
音轨 14  精确地校准抓取  90)  [81E3B63F]  (AR v2) %a6]gsiv2<  
音轨 15  精确地校准抓取  90)  [071EE538]  (AR v2) D/6@bcCSY  
音轨 16  精确地校准抓取  91)  [F2FE902F]  (AR v2) H;!hp0y  
音轨 17  精确地校准抓取  92)  [89D1A583]  (AR v2) pnw4QQ9  
音轨 18  精确地校准抓取  91)  [9C81A98C]  (AR v2) Tb6x@MorP  
音轨 19  精确地校准抓取  88)  [20952E2F]  (AR v2) ok _{8z\#  
音轨 20  精确地校准抓取  94)  [F1860C20]  (AR v2) 9i[2z:4HJ  
音轨 21  精确地校准抓取  89)  [0B76B8D0]  (AR v2) q9(}wvtr  
@Lv_\^2/}  
所有音轨精确校准抓取 $^aXVy5p  
Kqu7DZ+W  
状态报告结尾
g]Ny?61  
|OT%,QT|  
链接:http://pan.baidu.com/s/1dFLXhEL 密码: `7n,(  
此帖售价 15 金钱,已有 13 人购买 [记录] [购买]
购买后,将显示帖子中所有出售内容。
若发现会员采用欺骗的方法获取财富,请立刻举报,我们会对会员处以2-N倍的罚金,严重者封掉ID!
此段为出售的内容,购买后显示

发帖
2735
金钱
31355
威望
620
贡献值
37
交易币
388
只看该作者 1楼 发表于: 2016-09-14
完美

离线thelma66

发帖
615
金钱
27879
威望
284
贡献值
253
交易币
808
只看该作者 2楼 发表于: 2016-09-14
谢谢分享
离线Mr灬W

发帖
1129
金钱
12950
威望
161
贡献值
56
交易币
1282
只看该作者 3楼 发表于: 2016-09-15
这个好,感谢!
Heal The World
离线小李

发帖
236
金钱
1405
威望
9
贡献值
8
交易币
208
只看该作者 4楼 发表于: 2016-09-15
谢谢,这个首次发布
离线wannam

发帖
2702
金钱
87012
威望
382
贡献值
189
交易币
3345
只看该作者 5楼 发表于: 2016-09-15
谢谢分享
离线mich008

发帖
832
金钱
5931
威望
24
贡献值
15
交易币
894
只看该作者 6楼 发表于: 2016-09-16
终于发布了2001版的 Thriller
离线lifan_npl

发帖
2189
金钱
19354
威望
816
贡献值
395
交易币
2550
只看该作者 7楼 发表于: 2016-09-17
谢谢分享 很不错哦
我的淘宝:
http://shop63152617.taobao.com  
离线mjnet

发帖
380
金钱
30479
威望
104
贡献值
54
交易币
557
只看该作者 8楼 发表于: 2017-03-04
謝謝分享!
离线mjbad25

发帖
160
金钱
5532
威望
0
贡献值
1
交易币
165
只看该作者 9楼 发表于: 2017-04-02
封面很特别,抱走了
快速回复
限100 字节
 
上一个 下一个