论坛风格切换切换到宽版
  • 911阅读
  • 13回复

[亲传][Album] 2001 Thriller [Special Edition] (US - EK 66073) - WAV整轨 ♬by幽灵 [复制链接]

上一主题 下一主题
离线mjghosts
 

发帖
8240
金钱
216247
威望
9172
贡献值
2721
交易币
4743
只看楼主 倒序阅读 楼主  发表于: 2016-09-14
— 本帖被 mjghosts 执行加亮操作(2016-09-14) —
*2001年重编码优化版,加录一些采访录音和DEMO歌曲等。完美精确校准抓轨!  ~-M7  
*EV]8  
注:独家整理,转载请注明出处!EAC无损整轨(压缩包内含CD图片) =z=Guvcn`  
j,1,;  
解压密码:www.mjsunny.com
Wb4sfP_  
%{HqF>=~  
Tracklist Szg<;._J  
1 Wanna Be Startin' Somethin' 6:03 w:umr#  
2 Baby Be Mine 4:21 g` h>:5]  
3 The Girl Is Mine 3:42 =vK(-h  
4 Thriller 5:58 aoJ&< vl3  
5 Beat It 4:18 +'KM~c?]  
6 Billie Jean 4:54 >)5vsqGZaK  
7 Human Nature 4:06 t)m4"p7  
8 P.Y.T. (Pretty Young Thing) 3:59 *1%g=vb  
9 The Lady In My Life 5:00 S4(IYnwN  
Special Edition Bonus Material e-s@@k  
10 Interview 1 2:19 4-"wFp  
11 Someone In The Dark 4:48 E`s_Dr}K  
12 Interview 2 2:05 PU>;4l  
13 Billie Jean (Home Demo From 1981) 2:21 &l.^UQ   
14 Interview 3 3:11 :.~a[\C@V<  
15 Interview 4 4:04 V?"^Ff3m!  
16 Interview 5 1:33 A`r9"([-A  
17 Voice-Over Session From "Thriller" 2:53 H>r-|*n  
18 Interview 6 1:56 =6dKC_Q  
19 Interview 7 2:02 [E^X=+Jnz  
20 Carousel 1:50 85fDuJ9$Z"  
21 Interview 8 1:18
*N r|G61  
713M4CtJ  
\Ji2u GT  
-ikuj  
SQU%N  
X&?lDL7?  
Exact Audio Copy V1.0 beta 6 from 9. April 2015 y6Epi|8  
AJ` v  
EAC 抓取日志文件从7. 九月 2016, 3:09 1|WpKaMoq  
vMX6Bg8  
Michael Jackson / Thriller Qyv'nx0=  
(' Ko#3b  
使用驱动器  :MATSHITADVD-RAM UJ890AS   Adapter: 1  ID: 1 =(.mf  
Tr+h$M1_Ja  
读取模式      : 可靠Secure Zk/' \(5  
使用精确流     : 是 stg30><  
清空音频缓存    : 否 c~gNH%1XN  
使用 C2 指示器 : 是 ? G$Om  
Z/2,al\  
读取偏移校正:               : 102 Gw ~{V  
读取 Lead-In 和 Lead-Out : 否 xS= _yO9-  
用静音填充抓取中丢失偏移的采样       : 是 r_b8,I6{]  
去除首尾静音块               : 否 L +L 9Y}  
在CRC 计算中使用了空样本       : 是 8]S,u:E:N  
已用接口                  : Win NT 及 2000 本地 Win32 接口 7; p4Wg7k}  
Z+ixRch@-s  
所用输出模式: : 内部 WAV 函数 aYqm0HCT  
样本格式    : 44.100 Hz; 16 Bit; 立体声 nP<S6:s:  
f-4.WW2FN  
,of]J|  
已抓取 CD 的 TOC ;FU|7L$H  
_1aGtX|W  
     音轨 |    起始    |    长度    |  起始扇区  |  结束扇区   ^z~~VBv  
    -------------------------------------------- T_LLJ}6M  
      1 |  0:00.00 |  6:02.28 |      0 |  27177 \S ."?!U  
      2 |  6:02.28 |  4:20.17 |  27178 |  46694 .tnkT;T  
      3 | 10:22.45 |  3:42.01 |  46695 |  63345 Udgqkl  
      4 | 14:04.46 |  5:57.54 |  63346 |  90174 [XR$F@o  
      5 | 20:02.25 |  4:17.67 |  90175 | 109516 M 4yI`dr6  
      6 | 24:20.17 |  4:53.67 | 109517 | 131558 >jg0s)RA'  
      7 | 29:14.09 |  4:05.52 | 131559 | 149985 ac{?+]8}  
      8 | 33:19.61 |  3:58.48 | 149986 | 167883 !69&Ld  
      9 | 37:18.34 |  4:59.17 | 167884 | 190325 ]`g@UtD9`  
     10 | 42:17.51 |  2:19.09 | 190326 | 200759 :Qt  
     11 | 44:36.60 |  4:47.14 | 200760 | 222298 )Z 9E=%  
     12 | 49:23.74 |  2:04.15 | 222299 | 231613 4fk8*{Y  
     13 | 51:28.14 |  2:20.16 | 231614 | 242129 X+L) -d  
     14 | 53:48.30 |  3:10.18 | 242130 | 256397 AjcX  N  
     15 | 56:58.48 |  4:03.20 | 256398 | 274642 Bj k]ZU0T  
     16 | 61:01.68 |  1:32.31 | 274643 | 281573 O+g3X5f+  
     17 | 62:34.24 |  2:52.53 | 281574 | 294526 ? A(QyaKz  
     18 | 65:27.02 |  1:56.02 | 294527 | 303228 TXe$<4"  
     19 | 67:23.04 |  2:01.45 | 303229 | 312348 ZPbpp@,  
     20 | 69:24.49 |  1:49.45 | 312349 | 320568 _YcA+3ZL  
     21 | 71:14.19 |  1:17.69 | 320569 | 326412 27;ci:5  
DZi!aJ  
Uw 47LP  
范围状态及错误 JU4q zi  
KN*  
已选择范围 Rj4|Q:XG  
^Y'HaneoM  
     文件名 J:\12 Music*音乐\2001 Thriller [Special Edition] (US - EK 66073)\CDImage.wav 9T1ZL5  
` eXaT8  
     峰值电平 98.8 % ?nmn1`UT  
     抓取速度 7.0 X 7eiV{tYF  
     范围质量 100.0 % ;9c<K  
     复制 CRC 6433D63C <x<"n t  
     复制成功 2u5|8  
Yj6*NZ*  
没有错误发生 vy\RcP  
"-vW,7y  
=g|IG [V  
AccurateRip 摘要 kNobl  
\E*d\hrl{  
音轨  1  精确地校准抓取  104)  [06A73B6D]  (AR v2) 2C9V|[U,  
音轨  2  精确地校准抓取  106)  [3A32996E]  (AR v2) !U'QqnT  
音轨  3  精确地校准抓取  106)  [DB3FBEBD]  (AR v2) 9.a3&*tV[  
音轨  4  精确地校准抓取  106)  [D8539629]  (AR v2) S'_-G;g.  
音轨  5  精确地校准抓取  107)  [08066264]  (AR v2) .MJofE;Jn  
音轨  6  精确地校准抓取  105)  [4D5B217F]  (AR v2) T QSzx%i2  
音轨  7  精确地校准抓取  107)  [255D67CC]  (AR v2) 2VE9}%i  
音轨  8  精确地校准抓取  105)  [28B11ED5]  (AR v2) }9W4"e2)  
音轨  9  精确地校准抓取  106)  [2C7A40C2]  (AR v2) T2!6(, s9  
音轨 10  精确地校准抓取  91)  [C5F014AA]  (AR v2) ?`#/ 8PN  
音轨 11  精确地校准抓取  97)  [E4206B48]  (AR v2) L>a  
音轨 12  精确地校准抓取  92)  [0FA44C40]  (AR v2) dnb)/  
音轨 13  精确地校准抓取  92)  [7BC8E16C]  (AR v2) HsHB!mQV  
音轨 14  精确地校准抓取  90)  [81E3B63F]  (AR v2) Q'YH>oGh^  
音轨 15  精确地校准抓取  90)  [071EE538]  (AR v2) K_El&  
音轨 16  精确地校准抓取  91)  [F2FE902F]  (AR v2) K,bo VFs  
音轨 17  精确地校准抓取  92)  [89D1A583]  (AR v2) _&j}<K$- (  
音轨 18  精确地校准抓取  91)  [9C81A98C]  (AR v2) 3'c0#h@VD  
音轨 19  精确地校准抓取  88)  [20952E2F]  (AR v2) W0k0$\iX  
音轨 20  精确地校准抓取  94)  [F1860C20]  (AR v2) 8g:;)u4$P  
音轨 21  精确地校准抓取  89)  [0B76B8D0]  (AR v2) r ; xLP  
5Pd"h S  
所有音轨精确校准抓取 s.x&LG  
gF0q@My~  
状态报告结尾
~{D[ >j][  
OKP9CLg9  
链接:http://pan.baidu.com/s/1dFLXhEL 密码: #_|sgS?1  
此帖售价 15 金钱,已有 13 人购买 [记录] [购买]
购买后,将显示帖子中所有出售内容。
若发现会员采用欺骗的方法获取财富,请立刻举报,我们会对会员处以2-N倍的罚金,严重者封掉ID!
此段为出售的内容,购买后显示

发帖
2729
金钱
31485
威望
620
贡献值
37
交易币
382
只看该作者 1楼 发表于: 2016-09-14
完美

离线thelma66

发帖
615
金钱
27879
威望
284
贡献值
253
交易币
808
只看该作者 2楼 发表于: 2016-09-14
谢谢分享
离线Mr灬W

发帖
1129
金钱
12950
威望
161
贡献值
56
交易币
1282
只看该作者 3楼 发表于: 2016-09-15
这个好,感谢!
Heal The World
离线小李

发帖
232
金钱
230
威望
99
贡献值
8
交易币
204
只看该作者 4楼 发表于: 2016-09-15
谢谢,这个首次发布
离线wannam

发帖
2701
金钱
86995
威望
382
贡献值
189
交易币
3344
只看该作者 5楼 发表于: 2016-09-15
谢谢分享
离线mich008

发帖
824
金钱
5489
威望
24
贡献值
15
交易币
886
只看该作者 6楼 发表于: 2016-09-16
终于发布了2001版的 Thriller
离线lifan_npl

发帖
2173
金钱
16819
威望
782
贡献值
347
交易币
2526
只看该作者 7楼 发表于: 2016-09-17
谢谢分享 很不错哦
我的淘宝:
http://shop63152617.taobao.com  
离线mjnet

发帖
380
金钱
30464
威望
104
贡献值
54
交易币
557
只看该作者 8楼 发表于: 2017-03-04
謝謝分享!
离线mjbad25

发帖
134
金钱
6006
威望
0
贡献值
1
交易币
139
只看该作者 9楼 发表于: 2017-04-02
封面很特别,抱走了
快速回复
限100 字节
 
上一个 下一个