论坛风格切换切换到宽版
  • 676阅读
  • 10回复

[亲传][Album] 2001 Thriller [Special Edition] (US - EK 66073) - WAV整轨 ♬by幽灵 [复制链接]

上一主题 下一主题
离线mjghosts
 

发帖
8258
金钱
212473
威望
9166
贡献值
2715
交易币
4709
只看楼主 倒序阅读 楼主  发表于: 2016-09-14
— 本帖被 mjghosts 执行加亮操作(2016-09-14) —
*2001年重编码优化版,加录一些采访录音和DEMO歌曲等。完美精确校准抓轨! W3M1> (  
NSV;R~"  
注:独家整理,转载请注明出处!EAC无损整轨(压缩包内含CD图片) P~^VLnw  
9,J^tN@^  
解压密码:www.mjsunny.com
h( V:-D  
Muay6b?  
Tracklist Bid+,,  
1 Wanna Be Startin' Somethin' 6:03 sBq6,Iu  
2 Baby Be Mine 4:21 MY w3+B+Jj  
3 The Girl Is Mine 3:42 CY</v,\:#  
4 Thriller 5:58 S9kA69O  
5 Beat It 4:18  sg9  
6 Billie Jean 4:54 C;\R 62'  
7 Human Nature 4:06 c_Lcsn  
8 P.Y.T. (Pretty Young Thing) 3:59 {g7~e {2  
9 The Lady In My Life 5:00 ?8!\VNC.  
Special Edition Bonus Material ]S+KH \2  
10 Interview 1 2:19 :um]a70  
11 Someone In The Dark 4:48 0Z1';A3  
12 Interview 2 2:05 t|?eNKVV9'  
13 Billie Jean (Home Demo From 1981) 2:21 ,lDOo+eE%:  
14 Interview 3 3:11 :6jh*,OHZl  
15 Interview 4 4:04 -8Q}*Z  
16 Interview 5 1:33 dZ|x `bIgs  
17 Voice-Over Session From "Thriller" 2:53 y`\rb<AZ*t  
18 Interview 6 1:56 0b}.!k9  
19 Interview 7 2:02 g4^3H3Pd  
20 Carousel 1:50 & ^;3S*p  
21 Interview 8 1:18
\: Q)X$6  
r2m&z%N &  
6h7TM?lt  
]OV}yD2p  
o>HU4O}  
5c$\DZ(  
Exact Audio Copy V1.0 beta 6 from 9. April 2015 $"ACg!=M  
P=.~LZZ]89  
EAC 抓取日志文件从7. 九月 2016, 3:09 <m~{60{  
EiVVVmm!  
Michael Jackson / Thriller Ygc|9}  
"^)GnK +-  
使用驱动器  :MATSHITADVD-RAM UJ890AS   Adapter: 1  ID: 1 )iid9K<HB  
0lV;bVa%  
读取模式      : 可靠Secure Tn9F g7<  
使用精确流     : 是 2@IL  n+#  
清空音频缓存    : 否 2A:&Cqo  
使用 C2 指示器 : 是 #M4LG; B  
P- +]4\  
读取偏移校正:               : 102 Q @[gj:w  
读取 Lead-In 和 Lead-Out : 否 K]uH7-YvL/  
用静音填充抓取中丢失偏移的采样       : 是 RR's W@  
去除首尾静音块               : 否 V.6pfL  
在CRC 计算中使用了空样本       : 是 sT "q]  
已用接口                  : Win NT 及 2000 本地 Win32 接口 O;i0xWUh  
M< .1U?_#  
所用输出模式: : 内部 WAV 函数 xRdx` YYu  
样本格式    : 44.100 Hz; 16 Bit; 立体声 dsj}GgG?Z  
3~V .  
3Pgokj   
已抓取 CD 的 TOC W amOg0  
XogCq?_m  
     音轨 |    起始    |    长度    |  起始扇区  |  结束扇区   eO(U):C2  
    -------------------------------------------- m(}}%VeR"z  
      1 |  0:00.00 |  6:02.28 |      0 |  27177 Kd5 8'$  
      2 |  6:02.28 |  4:20.17 |  27178 |  46694 ^jUw4Dj~-q  
      3 | 10:22.45 |  3:42.01 |  46695 |  63345 _H@ATut  
      4 | 14:04.46 |  5:57.54 |  63346 |  90174 QIlZZ  
      5 | 20:02.25 |  4:17.67 |  90175 | 109516 +xU({/  
      6 | 24:20.17 |  4:53.67 | 109517 | 131558 1JfZstT  
      7 | 29:14.09 |  4:05.52 | 131559 | 149985 wT6zeEV~*  
      8 | 33:19.61 |  3:58.48 | 149986 | 167883 LX oJw$C  
      9 | 37:18.34 |  4:59.17 | 167884 | 190325 1' v!~*af  
     10 | 42:17.51 |  2:19.09 | 190326 | 200759 |\?u-O3  
     11 | 44:36.60 |  4:47.14 | 200760 | 222298 h_S>Q  
     12 | 49:23.74 |  2:04.15 | 222299 | 231613 1O NkmVtL  
     13 | 51:28.14 |  2:20.16 | 231614 | 242129 ,!^5w,P:   
     14 | 53:48.30 |  3:10.18 | 242130 | 256397  16~E  
     15 | 56:58.48 |  4:03.20 | 256398 | 274642 L*[3rqER  
     16 | 61:01.68 |  1:32.31 | 274643 | 281573 nWY^?e'S  
     17 | 62:34.24 |  2:52.53 | 281574 | 294526 PBCGC^0{  
     18 | 65:27.02 |  1:56.02 | 294527 | 303228 l[ $bn!_ e  
     19 | 67:23.04 |  2:01.45 | 303229 | 312348 R=LiB+p  
     20 | 69:24.49 |  1:49.45 | 312349 | 320568 2*V[kmD/3  
     21 | 71:14.19 |  1:17.69 | 320569 | 326412 ,Q7;(&x~  
pLtw|S'4  
qrlC U4  
范围状态及错误 nwUz}em?O  
Y -a   
已选择范围 " L`)^  
R; c9)>8L  
     文件名 J:\12 Music*音乐\2001 Thriller [Special Edition] (US - EK 66073)\CDImage.wav Oti*"dV\::  
)_=2lu3%{  
     峰值电平 98.8 % 1^}I?PbqV  
     抓取速度 7.0 X F#sm^%_2  
     范围质量 100.0 % F+V!p4G  
     复制 CRC 6433D63C ]$@D=g,r  
     复制成功  mLxgvp  
+nDy b  
没有错误发生 <h7cQ  
`OBzOM  
v 3I^81  
AccurateRip 摘要 I+8n;I)]X  
6}"c4 ^k6  
音轨  1  精确地校准抓取  104)  [06A73B6D]  (AR v2) YX0ysE*V:&  
音轨  2  精确地校准抓取  106)  [3A32996E]  (AR v2) A9$x8x*Lt  
音轨  3  精确地校准抓取  106)  [DB3FBEBD]  (AR v2) dZU#lg  
音轨  4  精确地校准抓取  106)  [D8539629]  (AR v2) =&WIa#!=  
音轨  5  精确地校准抓取  107)  [08066264]  (AR v2) $5R2QNg n  
音轨  6  精确地校准抓取  105)  [4D5B217F]  (AR v2) UlYFloZ  
音轨  7  精确地校准抓取  107)  [255D67CC]  (AR v2) 3 jZMXEG)  
音轨  8  精确地校准抓取  105)  [28B11ED5]  (AR v2) p)y5[HX  
音轨  9  精确地校准抓取  106)  [2C7A40C2]  (AR v2) u"[f\l  
音轨 10  精确地校准抓取  91)  [C5F014AA]  (AR v2) aSzI5J]/=  
音轨 11  精确地校准抓取  97)  [E4206B48]  (AR v2) IiU> VLa  
音轨 12  精确地校准抓取  92)  [0FA44C40]  (AR v2) t#k]K]  
音轨 13  精确地校准抓取  92)  [7BC8E16C]  (AR v2) Ipp_}tl_  
音轨 14  精确地校准抓取  90)  [81E3B63F]  (AR v2) k9Pvh,_wp  
音轨 15  精确地校准抓取  90)  [071EE538]  (AR v2) F9K%f&0 a  
音轨 16  精确地校准抓取  91)  [F2FE902F]  (AR v2) hFrMOc&  
音轨 17  精确地校准抓取  92)  [89D1A583]  (AR v2) lA^1}  
音轨 18  精确地校准抓取  91)  [9C81A98C]  (AR v2) 2~4:rEPJ:  
音轨 19  精确地校准抓取  88)  [20952E2F]  (AR v2) UcRP/LR%C  
音轨 20  精确地校准抓取  94)  [F1860C20]  (AR v2) .wfydu)3  
音轨 21  精确地校准抓取  89)  [0B76B8D0]  (AR v2) cD!,ZL  
"+HJ/8Dd1  
所有音轨精确校准抓取 ;Afz`Se1@  
3I6ocj [,  
状态报告结尾
Gm~([Ln{  
tl#sCf!c  
链接:http://pan.baidu.com/s/1dFLXhEL 密码: 55Ss%$k@  
此帖售价 15 金钱,已有 10 人购买 [记录] [购买]
购买后,将显示帖子中所有出售内容。
若发现会员采用欺骗的方法获取财富,请立刻举报,我们会对会员处以2-N倍的罚金,严重者封掉ID!
此段为出售的内容,购买后显示

发帖
2708
金钱
28329
威望
619
贡献值
36
交易币
357
只看该作者 1楼 发表于: 2016-09-14
完美

离线thelma66

发帖
615
金钱
27879
威望
284
贡献值
253
交易币
808
只看该作者 2楼 发表于: 2016-09-14
谢谢分享
离线Mr灬W

发帖
1129
金钱
12894
威望
161
贡献值
56
交易币
1282
只看该作者 3楼 发表于: 2016-09-15
这个好,感谢!
Heal The World
离线小李

发帖
225
金钱
150
威望
99
贡献值
8
交易币
197
只看该作者 4楼 发表于: 2016-09-15
谢谢,这个首次发布
离线wannam

发帖
2698
金钱
86901
威望
382
贡献值
189
交易币
3341
只看该作者 5楼 发表于: 2016-09-15
谢谢分享
离线mich008

发帖
811
金钱
5257
威望
24
贡献值
15
交易币
873
只看该作者 6楼 发表于: 2016-09-16
终于发布了2001版的 Thriller
离线lifan_npl

发帖
2156
金钱
17106
威望
782
贡献值
347
交易币
2509
只看该作者 7楼 发表于: 2016-09-17
谢谢分享 很不错哦
我的淘宝:
http://shop63152617.taobao.com  
离线mjnet

发帖
375
金钱
30482
威望
104
贡献值
54
交易币
552
只看该作者 8楼 发表于: 03-04
謝謝分享!
离线mjbad25

发帖
134
金钱
6006
威望
0
贡献值
1
交易币
139
只看该作者 9楼 发表于: 04-02
封面很特别,抱走了
快速回复
限100 字节
 
上一个 下一个