论坛风格切换切换到宽版
  • 568阅读
  • 10回复

[亲传][Album] 2001 Thriller [Special Edition] (US - EK 66073) - WAV整轨 ♬by幽灵 [复制链接]

上一主题 下一主题
离线mjghosts
 

发帖
8247
金钱
210534
威望
9164
贡献值
2715
交易币
4698
只看楼主 倒序阅读 楼主  发表于: 2016-09-14
— 本帖被 mjghosts 执行加亮操作(2016-09-14) —
*2001年重编码优化版,加录一些采访录音和DEMO歌曲等。完美精确校准抓轨! X 10(oT  
`(A>7;]:  
注:独家整理,转载请注明出处!EAC无损整轨(压缩包内含CD图片) D{YAEG   
1ipfv-hb6  
解压密码:www.mjsunny.com
wb^Yg9  
p.,o@GcL~  
Tracklist "/6<k0.D&  
1 Wanna Be Startin' Somethin' 6:03 \ZiZ X$  
2 Baby Be Mine 4:21 i1RU5IRy|j  
3 The Girl Is Mine 3:42 ~7aBli=  
4 Thriller 5:58 , |SO'dG  
5 Beat It 4:18 V*P3C5 l  
6 Billie Jean 4:54 ?d`?Ss;v  
7 Human Nature 4:06 ]eA<  
8 P.Y.T. (Pretty Young Thing) 3:59 c`~aiC`l  
9 The Lady In My Life 5:00 m)4s4P57y  
Special Edition Bonus Material yP2[!vYw  
10 Interview 1 2:19 zRtaO'G(  
11 Someone In The Dark 4:48 | ZBv;BW  
12 Interview 2 2:05 j~!0n[F  
13 Billie Jean (Home Demo From 1981) 2:21 %v=z|d5-3  
14 Interview 3 3:11 g+8{{o=  
15 Interview 4 4:04 vH_QSx;C#  
16 Interview 5 1:33 wic"a Y<m  
17 Voice-Over Session From "Thriller" 2:53 vtw{ A}  
18 Interview 6 1:56 [ 9)9>-  
19 Interview 7 2:02 =fa!"$J3  
20 Carousel 1:50 F VW&&ft  
21 Interview 8 1:18
K~"uZa^s  
`` (D01<  
hX4&B  
WP-?C<Iw  
oiYI$ql3L  
UZsL0  
Exact Audio Copy V1.0 beta 6 from 9. April 2015 &~oBJar  
BL1$ ~0  
EAC 抓取日志文件从7. 九月 2016, 3:09 2lNZwV7  
"<6X=|C  
Michael Jackson / Thriller 2(V;OWY(@  
KSsv~!3Yf  
使用驱动器  :MATSHITADVD-RAM UJ890AS   Adapter: 1  ID: 1  ,r\  
V<&x+?>S  
读取模式      : 可靠Secure "b)Y5[nW  
使用精确流     : 是 z|,YO6(L  
清空音频缓存    : 否 B!:%^S  
使用 C2 指示器 : 是 F91uuSSL  
D c5tRO  
读取偏移校正:               : 102 M*XAyo4 fI  
读取 Lead-In 和 Lead-Out : 否 SrlTwcD  
用静音填充抓取中丢失偏移的采样       : 是 04;E^,V  
去除首尾静音块               : 否 |qUi9#NUo  
在CRC 计算中使用了空样本       : 是 S87E$k  
已用接口                  : Win NT 及 2000 本地 Win32 接口 'mwgHo<u  
"AN*2)e4  
所用输出模式: : 内部 WAV 函数 b'x26wT?  
样本格式    : 44.100 Hz; 16 Bit; 立体声 /x2-$a:<  
zx #HyO[a  
kZb #k#  
已抓取 CD 的 TOC 7~zd % o  
{[I]pm~n  
     音轨 |    起始    |    长度    |  起始扇区  |  结束扇区   .}n-N #  
    -------------------------------------------- ax)>rP,V  
      1 |  0:00.00 |  6:02.28 |      0 |  27177  cFD3  
      2 |  6:02.28 |  4:20.17 |  27178 |  46694 SH1S_EQ<  
      3 | 10:22.45 |  3:42.01 |  46695 |  63345 A<s zY92&5  
      4 | 14:04.46 |  5:57.54 |  63346 |  90174 $-i(xnU/nl  
      5 | 20:02.25 |  4:17.67 |  90175 | 109516 :pH3M[7  
      6 | 24:20.17 |  4:53.67 | 109517 | 131558 -HU4Ow  
      7 | 29:14.09 |  4:05.52 | 131559 | 149985 14pyHMOR  
      8 | 33:19.61 |  3:58.48 | 149986 | 167883 dW5@Z-9  
      9 | 37:18.34 |  4:59.17 | 167884 | 190325 hLICu[LC?  
     10 | 42:17.51 |  2:19.09 | 190326 | 200759 z&c|2L-u6  
     11 | 44:36.60 |  4:47.14 | 200760 | 222298 C=Tq/L w  
     12 | 49:23.74 |  2:04.15 | 222299 | 231613 a@S{ A5j  
     13 | 51:28.14 |  2:20.16 | 231614 | 242129 TE9Iyl|=  
     14 | 53:48.30 |  3:10.18 | 242130 | 256397 5AK@e|G$w  
     15 | 56:58.48 |  4:03.20 | 256398 | 274642 IhHKRb[  
     16 | 61:01.68 |  1:32.31 | 274643 | 281573 j#jwK(:]  
     17 | 62:34.24 |  2:52.53 | 281574 | 294526 `>- 56 %  
     18 | 65:27.02 |  1:56.02 | 294527 | 303228 `&:>?Y/X2  
     19 | 67:23.04 |  2:01.45 | 303229 | 312348 9vP#/ -g  
     20 | 69:24.49 |  1:49.45 | 312349 | 320568 ;$67GK  
     21 | 71:14.19 |  1:17.69 | 320569 | 326412 %ol\ sO|  
{9FL}Jrt  
2Ab`i!#  
范围状态及错误 ;H3~r^>c  
|l-O e  
已选择范围 nIZsKbnw  
9C8 G(r  
     文件名 J:\12 Music*音乐\2001 Thriller [Special Edition] (US - EK 66073)\CDImage.wav k[}WYs+r  
qnb/zr)p  
     峰值电平 98.8 % B6j/"x6N15  
     抓取速度 7.0 X ">M&/}4  
     范围质量 100.0 % &JYkh >  
     复制 CRC 6433D63C NHQoP&OG  
     复制成功 #?`S+YN!q)  
`e`DSl D>  
没有错误发生 ;>/yY]F7  
;" D~F  
h6IO;:P)  
AccurateRip 摘要 (74y2U6  
R^=v&c{@  
音轨  1  精确地校准抓取  104)  [06A73B6D]  (AR v2) ? HNuffk  
音轨  2  精确地校准抓取  106)  [3A32996E]  (AR v2) MslgQmlM  
音轨  3  精确地校准抓取  106)  [DB3FBEBD]  (AR v2) DajN1}]  
音轨  4  精确地校准抓取  106)  [D8539629]  (AR v2) Xh}D_c  
音轨  5  精确地校准抓取  107)  [08066264]  (AR v2) A|]#b?-  
音轨  6  精确地校准抓取  105)  [4D5B217F]  (AR v2) ?=^\kXc[  
音轨  7  精确地校准抓取  107)  [255D67CC]  (AR v2) KF5r?|8 M  
音轨  8  精确地校准抓取  105)  [28B11ED5]  (AR v2) Wv9L }@J  
音轨  9  精确地校准抓取  106)  [2C7A40C2]  (AR v2) |Ldvfd  
音轨 10  精确地校准抓取  91)  [C5F014AA]  (AR v2) OB\ZT@l  
音轨 11  精确地校准抓取  97)  [E4206B48]  (AR v2) '?Q"[e  
音轨 12  精确地校准抓取  92)  [0FA44C40]  (AR v2) tJn"$A ^N  
音轨 13  精确地校准抓取  92)  [7BC8E16C]  (AR v2) Iu~<Y(8^q#  
音轨 14  精确地校准抓取  90)  [81E3B63F]  (AR v2) cDzb}W*UM  
音轨 15  精确地校准抓取  90)  [071EE538]  (AR v2) L<3+D  
音轨 16  精确地校准抓取  91)  [F2FE902F]  (AR v2) x Gbq,~_r  
音轨 17  精确地校准抓取  92)  [89D1A583]  (AR v2) ~e]B[>PT  
音轨 18  精确地校准抓取  91)  [9C81A98C]  (AR v2) sLJ]N0t  
音轨 19  精确地校准抓取  88)  [20952E2F]  (AR v2) 9wGsHf8]  
音轨 20  精确地校准抓取  94)  [F1860C20]  (AR v2) /{jt]8/;7  
音轨 21  精确地校准抓取  89)  [0B76B8D0]  (AR v2) :).NA ]  
_KkaseR  
所有音轨精确校准抓取 _u u&?<h  
Uf ]$I`T#  
状态报告结尾
`GY3H3B  
pU<J?cU8N  
链接:http://pan.baidu.com/s/1dFLXhEL 密码: u0sN[<  
此帖售价 15 金钱,已有 10 人购买 [记录] [购买]
购买后,将显示帖子中所有出售内容。
若发现会员采用欺骗的方法获取财富,请立刻举报,我们会对会员处以2-N倍的罚金,严重者封掉ID!
此段为出售的内容,购买后显示

发帖
2658
金钱
28594
威望
617
贡献值
34
交易币
299
只看该作者 1楼 发表于: 2016-09-14
完美

离线thelma66

发帖
615
金钱
27879
威望
284
贡献值
253
交易币
808
只看该作者 2楼 发表于: 2016-09-14
谢谢分享
离线Mr灬W

发帖
1156
金钱
12819
威望
161
贡献值
56
交易币
1281
只看该作者 3楼 发表于: 2016-09-15
这个好,感谢!
Heal The World
离线小李

发帖
218
金钱
132
威望
98
贡献值
7
交易币
186
只看该作者 4楼 发表于: 2016-09-15
谢谢,这个首次发布
离线wannam

发帖
2697
金钱
86877
威望
382
贡献值
189
交易币
3340
只看该作者 5楼 发表于: 2016-09-15
谢谢分享
离线mich008

发帖
796
金钱
5102
威望
24
贡献值
15
交易币
858
只看该作者 6楼 发表于: 2016-09-16
终于发布了2001版的 Thriller
离线lifan_npl

发帖
2117
金钱
17682
威望
787
贡献值
347
交易币
2470
只看该作者 7楼 发表于: 2016-09-17
谢谢分享 很不错哦
我的淘宝:
http://shop63152617.taobao.com  
离线mjnet

发帖
368
金钱
30511
威望
104
贡献值
54
交易币
545
只看该作者 8楼 发表于: 03-04
謝謝分享!
离线mjbad25

发帖
134
金钱
6006
威望
0
贡献值
1
交易币
139
只看该作者 9楼 发表于: 04-02
封面很特别,抱走了
快速回复
限100 字节
 
上一个 下一个