论坛风格切换切换到宽版
  • 690阅读
  • 11回复

[亲传][Album] 2001 Off The Wall [Special Edition] (US - EK 66070) - WAV整轨 ♬by幽灵 [复制链接]

上一主题 下一主题
离线mjghosts
 

发帖
8247
金钱
210534
威望
9164
贡献值
2715
交易币
4698
只看楼主 倒序阅读 楼主  发表于: 2016-09-14
— 本帖被 mjghosts 执行加亮操作(2016-09-14) —
*2001年重编码优化版,加录一些采访录音和DEMO歌曲等。完美精确校准抓轨! gTB|IcOs  
LTH, a?lD  
注:独家整理,转载请注明出处!EAC无损整轨(压缩包内含CD图片) hE'7M;  
b&1hj[`)  
解压密码:www.mjsunny.com
Yl$ @/xAa  
t}pYSSTz  
Tracklist ) hoVB  
1 Don't Stop 'Til You Get Enough 6:04 EM +! ph  
2 Rock With You 3:40 v$(Z}Hg  
3 Workin' Day And Night 5:14 >TawJ"q-6R  
4 Get On The Floor 4:38 A=e1uBGA  
5 Off The Wall 4:05 6cbV[ !BL  
6 Girlfriend 3:05 v4uQ0~k~X  
7 She's Out Of My Life    3:38 CL-?Mi=Uc  
8 I Can't Help It 4:29 2e3AmR@*  
9 It's The Falling In Love 3:48 l 6aD3?8LN  
10 Burn This Disco Out 3:43 ?@`5^7*  
Special Edition Bonus Material r;H#cMj  
11 Quincy Jones Commentary #1 0:37 /~fu,2=7  
12 Don't Stop 'Til You Get Enough (Intro) 0:13 n-qle5sj  
13 Don't Stop 'Til You Get Enough (Original Demo Recording From 1978) 4:48 f.oY:3h:  
14 Quincy Jones Commentary #2 0:30 iXXaB +w  
15 Workin' Day And Night (Intro) 0:10 U-f8 D  
16 Workin' Day And Night (Original Demo Recording From 1978) 4:20 EUH9R8)  
17 Quincy Jones Commentary #3 0:49 rd[mC[ r  
18 Rod Temperton Commentary 4:57 c5O8,sT  
19 Quincy Jones Commentary #4 1:28
wGIRRM !b  
r8czDc),b  
+#(GU9_i+M  
a_b+RMy  
JPj/+f  
u3 &# UN  
Exact Audio Copy V1.0 beta 6 from 9. April 2015 M.)z;[3O  
[=Nv=d<[p  
EAC 抓取日志文件从7. 九月 2016, 13:46 JPgFTr  
j{=}?+M  
Michael Jackson / Off The Wall (Special Edition) 92b}N|u  
5C*- v,hF  
使用驱动器  :MATSHITADVD-RAM UJ890AS   Adapter: 1  ID: 1 0 EA3> $;  
qk0cf~ gz  
读取模式      : 可靠Secure ^hT2 ed +  
使用精确流     : 是 XJq]l6a:  
清空音频缓存    : 否 X"HVK+  
使用 C2 指示器 : 是 R7FI{ A  
l%yQ{loTh  
读取偏移校正:               : 102 ~ySsv  
读取 Lead-In 和 Lead-Out : 否 Y2g%{keo  
用静音填充抓取中丢失偏移的采样       : 是 /&c>*4)  
去除首尾静音块               : 否 yRQNmR;Uy  
在CRC 计算中使用了空样本       : 是 {5+69&:G.  
已用接口                  : Win NT 及 2000 本地 Win32 接口 aouYPxA`  
uOd1:\%*  
所用输出模式: : 内部 WAV 函数 E2S#REB4  
样本格式    : 44.100 Hz; 16 Bit; 立体声 0B~x8f  
N\CHIsVm>  
`P*wZKlW  
已抓取 CD 的 TOC 'Ir   
vP%:\u:{  
     音轨 |    起始    |    长度    |  起始扇区  |  结束扇区   <si cldz  
    -------------------------------------------- {?3i^Q=V  
      1 |  0:00.00 |  6:03.70 |      0 |  27294 _C'VC#Sy  
      2 |  6:03.70 |  3:39.40 |  27295 |  43759 z38Pi  
      3 |  9:43.35 |  5:13.39 |  43760 |  67273 [V5,1dmkI  
      4 | 14:56.74 |  4:38.00 |  67274 |  88123 'P%&*%  
      5 | 19:34.74 |  4:05.35 |  88124 | 106533 a 5w E{K  
      6 | 23:40.34 |  3:04.58 | 106534 | 120391 A43[i@o  
      7 | 26:45.17 |  3:37.64 | 120392 | 136730 lg^Lk\Y+re  
      8 | 30:23.06 |  4:28.47 | 136731 | 156877 ]^@m $O  
      9 | 34:51.53 |  3:47.58 | 156878 | 173960 Ov.oyke4  
     10 | 38:39.36 |  3:42.46 | 173961 | 190656 P(L iH  
     11 | 42:22.07 |  0:37.33 | 190657 | 193464 [Qqss8a  
     12 | 42:59.40 |  0:13.06 | 193465 | 194445 W&&C[@Jd3  
     13 | 43:12.46 |  4:48.31 | 194446 | 216076 m*KI'~#$%  
     14 | 48:01.02 |  0:29.70 | 216077 | 218321 O}6*9Xy  
     15 | 48:30.72 |  0:10.09 | 218322 | 219080 =:H EF;!  
     16 | 48:41.06 |  4:19.45 | 219081 | 238550 1IK*j +%  
     17 | 53:00.51 |  0:49.05 | 238551 | 242230 1Z_ H% (  
     18 | 53:49.56 |  4:57.33 | 242231 | 264538 jgfr_"@A  
     19 | 58:47.14 |  1:32.29 | 264539 | 271467 OgCNq W d-  
\e%%ik,<  
DMKtTt[}  
范围状态及错误 ?rdWhF]  
^<j =.E  
已选择范围 Xl>ZnI];  
+zl [C  
     文件名 J:\12 Music*音乐\CDImage.wav : TqeVf  
]qEg5:yY  
     峰值电平 98.8 % TA~ZN^xI  
     抓取速度 6.7 X |jcIn[)=  
     范围质量 100.0 % gMU%.%p2  
     复制 CRC C245DA53 1_M}Dc+J  
     复制成功 zV"'-iP  
9N6 \Ou~  
没有错误发生 In;+wFu;M  
Nema>T]  
8<=sUO  
AccurateRip 摘要 .(yJ+NU  
lLU8eHf\  
音轨  1  精确地校准抓取  80)  [1A4AA5EB]  (AR v2) bE3mOml  
音轨  2  精确地校准抓取  80)  [2FB74E7D]  (AR v2) Nc?'},  
音轨  3  精确地校准抓取  80)  [64AB87C8]  (AR v2) 2_)gJ_kP  
音轨  4  精确地校准抓取  76)  [DE0D6EA3]  (AR v2) $|AasT5w  
音轨  5  精确地校准抓取  78)  [FA73EDE5]  (AR v2) S[N9/2  
音轨  6  精确地校准抓取  79)  [DB402732]  (AR v2) #IU^(W  
音轨  7  精确地校准抓取  78)  [56199096]  (AR v2) <@Y`RqV+  
音轨  8  精确地校准抓取  77)  [A82CCABC]  (AR v2) 3h}i="i   
音轨  9  精确地校准抓取  74)  [909045E3]  (AR v2) Ms-)S7tMz  
音轨 10  精确地校准抓取  74)  [739C9FF2]  (AR v2) 0: B%,n UM  
音轨 11  精确地校准抓取  74)  [3B13E77D]  (AR v2) >G As&\4hs  
音轨 12  精确地校准抓取  74)  [8703C01C]  (AR v2) 6.6?Rp".  
音轨 13  精确地校准抓取  72)  [1CCBC9F7]  (AR v2) 8fP TxvXqL  
音轨 14  精确地校准抓取  73)  [C4E8D2E5]  (AR v2) xT!<x({  
音轨 15  精确地校准抓取  74)  [1AA329A4]  (AR v2) x1Z*R+|>2  
音轨 16  精确地校准抓取  69)  [18C7FEC7]  (AR v2) FwD q@Oj  
音轨 17  精确地校准抓取  72)  [2169085B]  (AR v2) `oM'H+  
音轨 18  精确地校准抓取  66)  [C0E7367D]  (AR v2) %al 5 {  
音轨 19  精确地校准抓取  70)  [A5D7A88B]  (AR v2) h67{qY[J[  
@|e we. r  
所有音轨精确校准抓取 .bj:tmz  
F@zTz54t  
状态报告结尾
_/Ay$l;F  
"F4 3q8P  
链接:http://pan.baidu.com/s/1pKBnjS3 密码: q$Ms7 `a  
此帖售价 15 金钱,已有 9 人购买 [记录] [购买]
购买后,将显示帖子中所有出售内容。
若发现会员采用欺骗的方法获取财富,请立刻举报,我们会对会员处以2-N倍的罚金,严重者封掉ID!
此段为出售的内容,购买后显示
离线mj1997

发帖
1470
金钱
6278
威望
221
贡献值
92
交易币
973
只看该作者 1楼 发表于: 2016-09-14
感谢分享 威武
我的资源博客http://blog.sina.com.cn/u/2993163994慢慢建设

发帖
2658
金钱
28594
威望
617
贡献值
34
交易币
299
只看该作者 2楼 发表于: 2016-09-14
非常感谢

离线thelma66

发帖
615
金钱
27879
威望
284
贡献值
253
交易币
808
只看该作者 3楼 发表于: 2016-09-14
感谢~
离线Mr灬W

发帖
1156
金钱
12819
威望
161
贡献值
56
交易币
1281
只看该作者 4楼 发表于: 2016-09-15
感谢分享~
Heal The World
离线小李

发帖
218
金钱
132
威望
98
贡献值
7
交易币
186
只看该作者 5楼 发表于: 2016-09-15
跟大陆版本比较一下
离线wannam

发帖
2697
金钱
86877
威望
382
贡献值
189
交易币
3340
只看该作者 6楼 发表于: 2016-09-15
谢谢分享,中秋节快乐
离线lifan_npl

发帖
2117
金钱
17682
威望
787
贡献值
347
交易币
2470
只看该作者 7楼 发表于: 2016-09-17
谢谢分享 很不错哦
我的淘宝:
http://shop63152617.taobao.com  
离线mjnet

发帖
368
金钱
30511
威望
104
贡献值
54
交易币
545
只看该作者 8楼 发表于: 03-04
看來我的也該整理了!!
离线mjbad25

发帖
134
金钱
6006
威望
0
贡献值
1
交易币
139
只看该作者 9楼 发表于: 04-02
这个版本也不错的,谢谢
快速回复
限100 字节
 
上一个 下一个