论坛风格切换切换到宽版
  • 1003阅读
  • 14回复

[亲传][Album] 2001 Off The Wall [Special Edition] (US - EK 66070) - WAV整轨 ♬by幽灵 [复制链接]

上一主题 下一主题
离线mjghosts
 

发帖
8240
金钱
216247
威望
9172
贡献值
2721
交易币
4743
只看楼主 倒序阅读 楼主  发表于: 2016-09-14
— 本帖被 mjghosts 执行加亮操作(2016-09-14) —
*2001年重编码优化版,加录一些采访录音和DEMO歌曲等。完美精确校准抓轨! @Yb8CB  
@+M1M 2@Xz  
注:独家整理,转载请注明出处!EAC无损整轨(压缩包内含CD图片) GBg  
zBTxM  
解压密码:www.mjsunny.com
U%1M?vT/  
m|?1HCRXRI  
Tracklist 1M_6X7PH  
1 Don't Stop 'Til You Get Enough 6:04 M9VAs~&S  
2 Rock With You 3:40 I L&PN`#  
3 Workin' Day And Night 5:14 c2gZ<[~  
4 Get On The Floor 4:38 qvh8~[  
5 Off The Wall 4:05 oC!z+<  
6 Girlfriend 3:05 +I.{y  
7 She's Out Of My Life    3:38 <{HV|B7  
8 I Can't Help It 4:29 r;zG  
9 It's The Falling In Love 3:48 cEPqcy *  
10 Burn This Disco Out 3:43 7}fT7tsN  
Special Edition Bonus Material h}GzQry1  
11 Quincy Jones Commentary #1 0:37 lMb&F[KJ7  
12 Don't Stop 'Til You Get Enough (Intro) 0:13 z~RE}k  
13 Don't Stop 'Til You Get Enough (Original Demo Recording From 1978) 4:48 t$ 3/ZTx  
14 Quincy Jones Commentary #2 0:30 <2fgao&-n  
15 Workin' Day And Night (Intro) 0:10 R2f^dt^  
16 Workin' Day And Night (Original Demo Recording From 1978) 4:20 |sPUb;&~  
17 Quincy Jones Commentary #3 0:49 t`E e/L%  
18 Rod Temperton Commentary 4:57 -s9()K(vZG  
19 Quincy Jones Commentary #4 1:28
Tx|y!uHh  
I9*BT T]  
L"}tJM.d  
$+$4W\-=X  
yX/{eX5dr  
DhXV=Qw  
Exact Audio Copy V1.0 beta 6 from 9. April 2015 nf1O8FwRb  
hbEqb{#}@  
EAC 抓取日志文件从7. 九月 2016, 13:46 ae" o|Q  
>~_z#2PA  
Michael Jackson / Off The Wall (Special Edition) HJBGxy w  
t2Jf+t_B7  
使用驱动器  :MATSHITADVD-RAM UJ890AS   Adapter: 1  ID: 1 p3Ozfk  
pL!,1D!  
读取模式      : 可靠Secure d3 i(UN]  
使用精确流     : 是 dNY'uv&Y  
清空音频缓存    : 否 _'1 7C /  
使用 C2 指示器 : 是 8_w6% md  
qoH:_o8ClO  
读取偏移校正:               : 102 2;*G!rE&*`  
读取 Lead-In 和 Lead-Out : 否 l3u+fE,;_  
用静音填充抓取中丢失偏移的采样       : 是 lH`c&LL-=!  
去除首尾静音块               : 否 Iurz?dt4w  
在CRC 计算中使用了空样本       : 是 R+He6c!?9  
已用接口                  : Win NT 及 2000 本地 Win32 接口 G.iQ\'1_h  
Ekrpg^3qp"  
所用输出模式: : 内部 WAV 函数 _}']h^@ Z  
样本格式    : 44.100 Hz; 16 Bit; 立体声 #q0xlF@  
w8>bct3@  
hdM?Uoo(4a  
已抓取 CD 的 TOC Wk-. dJ  
S|@ Y !  
     音轨 |    起始    |    长度    |  起始扇区  |  结束扇区   iqXsD gkr  
    -------------------------------------------- /dVcNo3"  
      1 |  0:00.00 |  6:03.70 |      0 |  27294 JlH5 <:#PN  
      2 |  6:03.70 |  3:39.40 |  27295 |  43759 WOGMt T%  
      3 |  9:43.35 |  5:13.39 |  43760 |  67273 ds QGj&  
      4 | 14:56.74 |  4:38.00 |  67274 |  88123 9DmQ  
      5 | 19:34.74 |  4:05.35 |  88124 | 106533 /F @a@m|  
      6 | 23:40.34 |  3:04.58 | 106534 | 120391 T k>N4yq  
      7 | 26:45.17 |  3:37.64 | 120392 | 136730 qdVExO&  
      8 | 30:23.06 |  4:28.47 | 136731 | 156877 F%QVn .  
      9 | 34:51.53 |  3:47.58 | 156878 | 173960 BI6o@d;=4  
     10 | 38:39.36 |  3:42.46 | 173961 | 190656 qu/59D  
     11 | 42:22.07 |  0:37.33 | 190657 | 193464 "n@=.x  
     12 | 42:59.40 |  0:13.06 | 193465 | 194445 ~3z10IG  
     13 | 43:12.46 |  4:48.31 | 194446 | 216076 ~?{@0,$  
     14 | 48:01.02 |  0:29.70 | 216077 | 218321 a4! AvG  
     15 | 48:30.72 |  0:10.09 | 218322 | 219080 ]E)gMf   
     16 | 48:41.06 |  4:19.45 | 219081 | 238550  B9^@]  
     17 | 53:00.51 |  0:49.05 | 238551 | 242230 @4b"0ne}h  
     18 | 53:49.56 |  4:57.33 | 242231 | 264538 .)mw~3]  
     19 | 58:47.14 |  1:32.29 | 264539 | 271467 ([ xYOxcp5  
]pr;ME<M{  
6 9,;=  
范围状态及错误 jQ_j#_Vle  
\ey3i((L  
已选择范围 B}YB%P_CWs  
(J~n|hA2/D  
     文件名 J:\12 Music*音乐\CDImage.wav }0|,*BkI m  
V\WqA8  
     峰值电平 98.8 % X) xQKkL0  
     抓取速度 6.7 X -D0kp~AO4N  
     范围质量 100.0 % f 6Bx>lh  
     复制 CRC C245DA53 diGPTV-?$  
     复制成功 {?17Zth  
sME3s-  
没有错误发生 (u+3{Eb  
5\V>Sj(  
iVLfAN @  
AccurateRip 摘要 oQ1>*[e<u  
K2<"O qp_W  
音轨  1  精确地校准抓取  80)  [1A4AA5EB]  (AR v2) Ds? @ LE|  
音轨  2  精确地校准抓取  80)  [2FB74E7D]  (AR v2) OZ3iH%  
音轨  3  精确地校准抓取  80)  [64AB87C8]  (AR v2) *]NG@^y  
音轨  4  精确地校准抓取  76)  [DE0D6EA3]  (AR v2) d _ )5Ks}  
音轨  5  精确地校准抓取  78)  [FA73EDE5]  (AR v2) byoP1F%  
音轨  6  精确地校准抓取  79)  [DB402732]  (AR v2) \ :To\6\Ri  
音轨  7  精确地校准抓取  78)  [56199096]  (AR v2) Is1P,`*!  
音轨  8  精确地校准抓取  77)  [A82CCABC]  (AR v2) jYDpJ##Zb  
音轨  9  精确地校准抓取  74)  [909045E3]  (AR v2) _)-t#Ve  
音轨 10  精确地校准抓取  74)  [739C9FF2]  (AR v2) @+Ch2Lod  
音轨 11  精确地校准抓取  74)  [3B13E77D]  (AR v2) *\Z9=8yK  
音轨 12  精确地校准抓取  74)  [8703C01C]  (AR v2) 4Z8FLA+T,  
音轨 13  精确地校准抓取  72)  [1CCBC9F7]  (AR v2) o%3i(H  
音轨 14  精确地校准抓取  73)  [C4E8D2E5]  (AR v2) ) uM*`%  
音轨 15  精确地校准抓取  74)  [1AA329A4]  (AR v2) |5il5UP  
音轨 16  精确地校准抓取  69)  [18C7FEC7]  (AR v2) 1 S<E=7  
音轨 17  精确地校准抓取  72)  [2169085B]  (AR v2) X$r5KJU  
音轨 18  精确地校准抓取  66)  [C0E7367D]  (AR v2) qa-%j+  
音轨 19  精确地校准抓取  70)  [A5D7A88B]  (AR v2) d1jg3{pwA  
wjtFZGx&  
所有音轨精确校准抓取 GG &J  
\jmT#Gt`9  
状态报告结尾
]ZR}Pm/CA  
Vp$<@Y  
链接:http://pan.baidu.com/s/1pKBnjS3 密码: 9y'To JZ6  
此帖售价 15 金钱,已有 12 人购买 [记录] [购买]
购买后,将显示帖子中所有出售内容。
若发现会员采用欺骗的方法获取财富,请立刻举报,我们会对会员处以2-N倍的罚金,严重者封掉ID!
此段为出售的内容,购买后显示
离线mj1997

发帖
1479
金钱
6187
威望
216
贡献值
92
交易币
982
只看该作者 1楼 发表于: 2016-09-14
感谢分享 威武
我的资源博客http://blog.sina.com.cn/u/2993163994慢慢建设

发帖
2729
金钱
31485
威望
620
贡献值
37
交易币
382
只看该作者 2楼 发表于: 2016-09-14
非常感谢

离线thelma66

发帖
615
金钱
27879
威望
284
贡献值
253
交易币
808
只看该作者 3楼 发表于: 2016-09-14
感谢~
离线Mr灬W

发帖
1129
金钱
12950
威望
161
贡献值
56
交易币
1282
只看该作者 4楼 发表于: 2016-09-15
感谢分享~
Heal The World
离线小李

发帖
232
金钱
230
威望
99
贡献值
8
交易币
204
只看该作者 5楼 发表于: 2016-09-15
跟大陆版本比较一下
离线wannam

发帖
2701
金钱
86995
威望
382
贡献值
189
交易币
3344
只看该作者 6楼 发表于: 2016-09-15
谢谢分享,中秋节快乐
离线lifan_npl

发帖
2173
金钱
16819
威望
782
贡献值
347
交易币
2526
只看该作者 7楼 发表于: 2016-09-17
谢谢分享 很不错哦
我的淘宝:
http://shop63152617.taobao.com  
离线mjnet

发帖
380
金钱
30464
威望
104
贡献值
54
交易币
557
只看该作者 8楼 发表于: 2017-03-04
看來我的也該整理了!!
离线mjbad25

发帖
134
金钱
6006
威望
0
贡献值
1
交易币
139
只看该作者 9楼 发表于: 2017-04-02
这个版本也不错的,谢谢
快速回复
限100 字节
 
上一个 下一个