论坛风格切换切换到宽版
  • 783阅读
  • 11回复

[亲传][Album] 2001 Off The Wall [Special Edition] (US - EK 66070) - WAV整轨 ♬by幽灵 [复制链接]

上一主题 下一主题
离线mjghosts
 

发帖
8258
金钱
212473
威望
9166
贡献值
2715
交易币
4709
只看楼主 倒序阅读 楼主  发表于: 2016-09-14
— 本帖被 mjghosts 执行加亮操作(2016-09-14) —
*2001年重编码优化版,加录一些采访录音和DEMO歌曲等。完美精确校准抓轨! hVoNw6fE  
3{raKM6F  
注:独家整理,转载请注明出处!EAC无损整轨(压缩包内含CD图片) =Cf ]  
U SOKDDm  
解压密码:www.mjsunny.com
MlO-+}`_+  
BW[5o3 i  
Tracklist uq7T{7~<  
1 Don't Stop 'Til You Get Enough 6:04 `{<frB@  
2 Rock With You 3:40 }Ag|gF!_  
3 Workin' Day And Night 5:14 g#^|oYuH6  
4 Get On The Floor 4:38 c,5n, i  
5 Off The Wall 4:05 nnCug  
6 Girlfriend 3:05 M=!i>(yG  
7 She's Out Of My Life    3:38 0Oxz3r%}r  
8 I Can't Help It 4:29 TQ9'76INb  
9 It's The Falling In Love 3:48 (Pi-uL<[a  
10 Burn This Disco Out 3:43 :EHQ .^  
Special Edition Bonus Material ,seFkG@1  
11 Quincy Jones Commentary #1 0:37 y4F^|kS) [  
12 Don't Stop 'Til You Get Enough (Intro) 0:13 pCt}66k}  
13 Don't Stop 'Til You Get Enough (Original Demo Recording From 1978) 4:48 MW@DXbKVl  
14 Quincy Jones Commentary #2 0:30 b=LF%P  
15 Workin' Day And Night (Intro) 0:10 nFXAF!,jj  
16 Workin' Day And Night (Original Demo Recording From 1978) 4:20 Z{}+)Q*Q  
17 Quincy Jones Commentary #3 0:49 Kym:J \}9B  
18 Rod Temperton Commentary 4:57 WEC-<fN|Y\  
19 Quincy Jones Commentary #4 1:28
\{>eOD_  
,k%8yK  
-A@U0=o  
jr1Se9u D  
yHw!#gWM  
N[{]iQ  
Exact Audio Copy V1.0 beta 6 from 9. April 2015 7eH@n <]Y2  
%>NRna  
EAC 抓取日志文件从7. 九月 2016, 13:46 sp,(&Y]US  
~l4Q~'  
Michael Jackson / Off The Wall (Special Edition) 2X +7b M  
L/%xbm~  
使用驱动器  :MATSHITADVD-RAM UJ890AS   Adapter: 1  ID: 1 )S"o{N3B  
6UtG-WHHt  
读取模式      : 可靠Secure PK9Qm'W b  
使用精确流     : 是 i@%L_[MtA  
清空音频缓存    : 否 fG^7@J w:G  
使用 C2 指示器 : 是 + >Fv*lux  
Z7ZWf'o  
读取偏移校正:               : 102 ggzAU6J  
读取 Lead-In 和 Lead-Out : 否 30:HRF(:  
用静音填充抓取中丢失偏移的采样       : 是 qLU15cOM  
去除首尾静音块               : 否 t>fA!K%{  
在CRC 计算中使用了空样本       : 是 j TGS6{E  
已用接口                  : Win NT 及 2000 本地 Win32 接口 i|:: v l  
CYY X\^hA  
所用输出模式: : 内部 WAV 函数 6Vu}k K)  
样本格式    : 44.100 Hz; 16 Bit; 立体声 x(T!I&i={  
o)$Q]N##  
!kjr> :)x  
已抓取 CD 的 TOC X8NO;w@z#  
@8x6#|D  
     音轨 |    起始    |    长度    |  起始扇区  |  结束扇区   R-0_226  
    -------------------------------------------- Oujlm|  
      1 |  0:00.00 |  6:03.70 |      0 |  27294 {O3oUE+  
      2 |  6:03.70 |  3:39.40 |  27295 |  43759 g}s-v?+  
      3 |  9:43.35 |  5:13.39 |  43760 |  67273 WEY97_@  
      4 | 14:56.74 |  4:38.00 |  67274 |  88123 }G:uzud10  
      5 | 19:34.74 |  4:05.35 |  88124 | 106533 @{$Cv"6769  
      6 | 23:40.34 |  3:04.58 | 106534 | 120391 (w@MlMk  
      7 | 26:45.17 |  3:37.64 | 120392 | 136730 +e3WwUx  
      8 | 30:23.06 |  4:28.47 | 136731 | 156877 r{N{! "G  
      9 | 34:51.53 |  3:47.58 | 156878 | 173960 j*Wh;I+h  
     10 | 38:39.36 |  3:42.46 | 173961 | 190656 6L`+ z  
     11 | 42:22.07 |  0:37.33 | 190657 | 193464 zt>_)&b  
     12 | 42:59.40 |  0:13.06 | 193465 | 194445 j?KB8oY`TP  
     13 | 43:12.46 |  4:48.31 | 194446 | 216076 cZX&itVc:  
     14 | 48:01.02 |  0:29.70 | 216077 | 218321 9xS`@ "`  
     15 | 48:30.72 |  0:10.09 | 218322 | 219080 Jc#)T;# 6  
     16 | 48:41.06 |  4:19.45 | 219081 | 238550 ![D,8]GD  
     17 | 53:00.51 |  0:49.05 | 238551 | 242230 {F9Qy0.*u  
     18 | 53:49.56 |  4:57.33 | 242231 | 264538 D.Cs nfJ  
     19 | 58:47.14 |  1:32.29 | 264539 | 271467 Oi&w_ Z0  
h+u|MdOY\  
-:p1gg&  
范围状态及错误 1Y"qQp  
O|TwG:!  
已选择范围 mb`}sTU).  
" /-v 9  
     文件名 J:\12 Music*音乐\CDImage.wav  k*6eZ7  
<).qe Z  
     峰值电平 98.8 % Q>g$)-8  
     抓取速度 6.7 X |Qm%G\oB?  
     范围质量 100.0 % SFNd,(kB*z  
     复制 CRC C245DA53 :2gO) 'cD  
     复制成功 iL' ]du<wk  
 :!FwF65  
没有错误发生 t ?'/KL  
dj**,*s  
"g[UX{L  
AccurateRip 摘要 Hf|:A(vCx  
kO"aE~  
音轨  1  精确地校准抓取  80)  [1A4AA5EB]  (AR v2) VH65=9z  
音轨  2  精确地校准抓取  80)  [2FB74E7D]  (AR v2) &p/k VM  
音轨  3  精确地校准抓取  80)  [64AB87C8]  (AR v2) wyM3|%RZ  
音轨  4  精确地校准抓取  76)  [DE0D6EA3]  (AR v2) =p$Wo  
音轨  5  精确地校准抓取  78)  [FA73EDE5]  (AR v2) SBt: `,  
音轨  6  精确地校准抓取  79)  [DB402732]  (AR v2) 1tc9STYR}  
音轨  7  精确地校准抓取  78)  [56199096]  (AR v2) k/O&,T77}J  
音轨  8  精确地校准抓取  77)  [A82CCABC]  (AR v2) *^ BE1-  
音轨  9  精确地校准抓取  74)  [909045E3]  (AR v2) :8g \B{  
音轨 10  精确地校准抓取  74)  [739C9FF2]  (AR v2) gE~31:a^  
音轨 11  精确地校准抓取  74)  [3B13E77D]  (AR v2) &-A 7%"  
音轨 12  精确地校准抓取  74)  [8703C01C]  (AR v2) $? Rod;  
音轨 13  精确地校准抓取  72)  [1CCBC9F7]  (AR v2) XijQ)}'C3  
音轨 14  精确地校准抓取  73)  [C4E8D2E5]  (AR v2) $oEDyC  
音轨 15  精确地校准抓取  74)  [1AA329A4]  (AR v2) zoU.\]#C  
音轨 16  精确地校准抓取  69)  [18C7FEC7]  (AR v2) <4Fd ~  
音轨 17  精确地校准抓取  72)  [2169085B]  (AR v2) Y~6pJNR  
音轨 18  精确地校准抓取  66)  [C0E7367D]  (AR v2) ~oI49Q&{  
音轨 19  精确地校准抓取  70)  [A5D7A88B]  (AR v2) WBGYk);  
,Xw/ t>  
所有音轨精确校准抓取 Z7v~;JzC#  
=cQw R:):  
状态报告结尾
3O.-'U1K  
Qmrcng}P  
链接:http://pan.baidu.com/s/1pKBnjS3 密码: bMZ0%(q  
此帖售价 15 金钱,已有 9 人购买 [记录] [购买]
购买后,将显示帖子中所有出售内容。
若发现会员采用欺骗的方法获取财富,请立刻举报,我们会对会员处以2-N倍的罚金,严重者封掉ID!
此段为出售的内容,购买后显示
离线mj1997

发帖
1479
金钱
6172
威望
216
贡献值
92
交易币
982
只看该作者 1楼 发表于: 2016-09-14
感谢分享 威武
我的资源博客http://blog.sina.com.cn/u/2993163994慢慢建设

发帖
2708
金钱
28329
威望
619
贡献值
36
交易币
357
只看该作者 2楼 发表于: 2016-09-14
非常感谢

离线thelma66

发帖
615
金钱
27879
威望
284
贡献值
253
交易币
808
只看该作者 3楼 发表于: 2016-09-14
感谢~
离线Mr灬W

发帖
1129
金钱
12894
威望
161
贡献值
56
交易币
1282
只看该作者 4楼 发表于: 2016-09-15
感谢分享~
Heal The World
离线小李

发帖
225
金钱
150
威望
99
贡献值
8
交易币
197
只看该作者 5楼 发表于: 2016-09-15
跟大陆版本比较一下
离线wannam

发帖
2698
金钱
86901
威望
382
贡献值
189
交易币
3341
只看该作者 6楼 发表于: 2016-09-15
谢谢分享,中秋节快乐
离线lifan_npl

发帖
2156
金钱
17106
威望
782
贡献值
347
交易币
2509
只看该作者 7楼 发表于: 2016-09-17
谢谢分享 很不错哦
我的淘宝:
http://shop63152617.taobao.com  
离线mjnet

发帖
375
金钱
30482
威望
104
贡献值
54
交易币
552
只看该作者 8楼 发表于: 03-04
看來我的也該整理了!!
离线mjbad25

发帖
134
金钱
6006
威望
0
贡献值
1
交易币
139
只看该作者 9楼 发表于: 04-02
这个版本也不错的,谢谢
快速回复
限100 字节
 
上一个 下一个