论坛风格切换切换到宽版
  • 1160阅读
  • 14回复

[亲传][Album] 2001 Off The Wall [Special Edition] (US - EK 66070) - WAV整轨 ♬by幽灵 [复制链接]

上一主题 下一主题
离线mjghosts
 

发帖
8244
金钱
217720
威望
9174
贡献值
2723
交易币
4755
只看楼主 倒序阅读 楼主  发表于: 2016-09-14
— 本帖被 mjghosts 执行加亮操作(2016-09-14) —
*2001年重编码优化版,加录一些采访录音和DEMO歌曲等。完美精确校准抓轨! j@z IJ  
%}9tU>?F#  
注:独家整理,转载请注明出处!EAC无损整轨(压缩包内含CD图片) Ia#!T"]@W6  
.<`)`:n+B  
解压密码:www.mjsunny.com
kPs?  
Qi`3$<W>  
Tracklist f $Agcy  
1 Don't Stop 'Til You Get Enough 6:04 F0U %m   
2 Rock With You 3:40 A{zqr^/h  
3 Workin' Day And Night 5:14 -iDs:J4Iq  
4 Get On The Floor 4:38 YP02/*'  
5 Off The Wall 4:05 lz0-5z+\  
6 Girlfriend 3:05 b\(f>g[  
7 She's Out Of My Life    3:38 &gXL{cK'%  
8 I Can't Help It 4:29 .z,-ThTH@\  
9 It's The Falling In Love 3:48 %HG+ |)b  
10 Burn This Disco Out 3:43 (10t,n$  
Special Edition Bonus Material HKJCiQ|k  
11 Quincy Jones Commentary #1 0:37 ompr})c  
12 Don't Stop 'Til You Get Enough (Intro) 0:13 PL= v,NB  
13 Don't Stop 'Til You Get Enough (Original Demo Recording From 1978) 4:48 E^rBs2;9  
14 Quincy Jones Commentary #2 0:30 VjWJx^ZL#  
15 Workin' Day And Night (Intro) 0:10 Ja3#W K  
16 Workin' Day And Night (Original Demo Recording From 1978) 4:20 js"Yh  
17 Quincy Jones Commentary #3 0:49 =r/K#hOR\J  
18 Rod Temperton Commentary 4:57 _(f@b1O~  
19 Quincy Jones Commentary #4 1:28
AIOGa<^  
L?u {vX  
C3 "EZe[R  
D?E VzG  
MMa`}wSs  
|u`YT;`!"-  
Exact Audio Copy V1.0 beta 6 from 9. April 2015 jR1^e$  
rMG[,:V  
EAC 抓取日志文件从7. 九月 2016, 13:46 u^C\aujg  
VKXi*F9  
Michael Jackson / Off The Wall (Special Edition) CNuE9|W(vI  
G8F;fG N  
使用驱动器  :MATSHITADVD-RAM UJ890AS   Adapter: 1  ID: 1 LU*mR{B  
+Rd\*b  
读取模式      : 可靠Secure zGO_S\  
使用精确流     : 是 S% ptG$Z  
清空音频缓存    : 否 HU +271A8  
使用 C2 指示器 : 是 ctgH/SU  
w0>5#j q#r  
读取偏移校正:               : 102 ('_S1?y  
读取 Lead-In 和 Lead-Out : 否 UBwYwm0  
用静音填充抓取中丢失偏移的采样       : 是 iee`Yg!EOH  
去除首尾静音块               : 否 up3m um  
在CRC 计算中使用了空样本       : 是 s;[64ca]Q  
已用接口                  : Win NT 及 2000 本地 Win32 接口 k"`^vV[{F  
<dY{@Cgw=  
所用输出模式: : 内部 WAV 函数 sMw"C~XL  
样本格式    : 44.100 Hz; 16 Bit; 立体声 w4&-9[@Y  
~qW"v^<  
6[1lK8o  
已抓取 CD 的 TOC 3D rW[\  
W QyMM@#  
     音轨 |    起始    |    长度    |  起始扇区  |  结束扇区   cA B^]j  
    -------------------------------------------- oO,"B8a  
      1 |  0:00.00 |  6:03.70 |      0 |  27294 :sb+jk  
      2 |  6:03.70 |  3:39.40 |  27295 |  43759 N Y~y:*:Q  
      3 |  9:43.35 |  5:13.39 |  43760 |  67273 c:G0=5  
      4 | 14:56.74 |  4:38.00 |  67274 |  88123 qeZ*!H6-  
      5 | 19:34.74 |  4:05.35 |  88124 | 106533 DC%H(2  
      6 | 23:40.34 |  3:04.58 | 106534 | 120391 nHi6$ } I  
      7 | 26:45.17 |  3:37.64 | 120392 | 136730 lvZ:Aw r  
      8 | 30:23.06 |  4:28.47 | 136731 | 156877 8a4&}^|  
      9 | 34:51.53 |  3:47.58 | 156878 | 173960 ['n;e:*  
     10 | 38:39.36 |  3:42.46 | 173961 | 190656 %phv<AW  
     11 | 42:22.07 |  0:37.33 | 190657 | 193464 Z}'"c9oB  
     12 | 42:59.40 |  0:13.06 | 193465 | 194445 wsNM'~(  
     13 | 43:12.46 |  4:48.31 | 194446 | 216076 C|A:^6d3=  
     14 | 48:01.02 |  0:29.70 | 216077 | 218321 $w$4RQk3n  
     15 | 48:30.72 |  0:10.09 | 218322 | 219080 (7g1eEK%  
     16 | 48:41.06 |  4:19.45 | 219081 | 238550 &ii3Vlyzg  
     17 | 53:00.51 |  0:49.05 | 238551 | 242230 oLXQ#{([  
     18 | 53:49.56 |  4:57.33 | 242231 | 264538 ,4wZ/r> d  
     19 | 58:47.14 |  1:32.29 | 264539 | 271467 )'RLK4l  
yU(k;A-  
t3 q0|S  
范围状态及错误 7='M&Za  
'%>$\Lv  
已选择范围 By 8C-jD  
,OLN%2Sq  
     文件名 J:\12 Music*音乐\CDImage.wav wL2d.$?TEg  
rBP!RSl1  
     峰值电平 98.8 % hIw<gb4J%  
     抓取速度 6.7 X :Q\b$=,:  
     范围质量 100.0 % e jwFQ'wTx  
     复制 CRC C245DA53 EeKEw Sg  
     复制成功 S*:b\{[f>  
zQ}:_  
没有错误发生 @R?S-*o  
8 @!/%"Kt2  
.8CR \-  
AccurateRip 摘要 qU#Gz7/  
RNiZ2:  
音轨  1  精确地校准抓取  80)  [1A4AA5EB]  (AR v2) )oa6;=go  
音轨  2  精确地校准抓取  80)  [2FB74E7D]  (AR v2) &D uvy#J  
音轨  3  精确地校准抓取  80)  [64AB87C8]  (AR v2) \A _g  
音轨  4  精确地校准抓取  76)  [DE0D6EA3]  (AR v2) NZ'S~Lr   
音轨  5  精确地校准抓取  78)  [FA73EDE5]  (AR v2) VLN=9  
音轨  6  精确地校准抓取  79)  [DB402732]  (AR v2) !SD?  
音轨  7  精确地校准抓取  78)  [56199096]  (AR v2) "kz``6C  
音轨  8  精确地校准抓取  77)  [A82CCABC]  (AR v2) %.BbPR7?h  
音轨  9  精确地校准抓取  74)  [909045E3]  (AR v2) V(A6>0s$|  
音轨 10  精确地校准抓取  74)  [739C9FF2]  (AR v2) &|IY=$-  
音轨 11  精确地校准抓取  74)  [3B13E77D]  (AR v2) gpe^G64c`  
音轨 12  精确地校准抓取  74)  [8703C01C]  (AR v2) M&~3fRb 4  
音轨 13  精确地校准抓取  72)  [1CCBC9F7]  (AR v2) f:GZb?Wyd  
音轨 14  精确地校准抓取  73)  [C4E8D2E5]  (AR v2) vAbMU  
音轨 15  精确地校准抓取  74)  [1AA329A4]  (AR v2) { ,/mQ3  
音轨 16  精确地校准抓取  69)  [18C7FEC7]  (AR v2) }xn\.M:ic  
音轨 17  精确地校准抓取  72)  [2169085B]  (AR v2) a?.hvI   
音轨 18  精确地校准抓取  66)  [C0E7367D]  (AR v2) K4YpE}]u  
音轨 19  精确地校准抓取  70)  [A5D7A88B]  (AR v2) )Ge.1B$8h  
MU4/arXy  
所有音轨精确校准抓取 r t@Jw]az  
LFvKF.  
状态报告结尾
fhw.A5Ck  
D::$YR ~R  
链接:http://pan.baidu.com/s/1pKBnjS3 密码: G=W!$(:  
此帖售价 15 金钱,已有 12 人购买 [记录] [购买]
购买后,将显示帖子中所有出售内容。
若发现会员采用欺骗的方法获取财富,请立刻举报,我们会对会员处以2-N倍的罚金,严重者封掉ID!
此段为出售的内容,购买后显示
离线mj1997

发帖
1479
金钱
6187
威望
216
贡献值
92
交易币
982
只看该作者 1楼 发表于: 2016-09-14
感谢分享 威武
我的资源博客http://blog.sina.com.cn/u/2993163994慢慢建设

发帖
2735
金钱
31355
威望
620
贡献值
37
交易币
388
只看该作者 2楼 发表于: 2016-09-14
非常感谢

离线thelma66

发帖
615
金钱
27879
威望
284
贡献值
253
交易币
808
只看该作者 3楼 发表于: 2016-09-14
感谢~
离线Mr灬W

发帖
1129
金钱
12950
威望
161
贡献值
56
交易币
1282
只看该作者 4楼 发表于: 2016-09-15
感谢分享~
Heal The World
离线小李

发帖
236
金钱
1405
威望
9
贡献值
8
交易币
208
只看该作者 5楼 发表于: 2016-09-15
跟大陆版本比较一下
离线wannam

发帖
2702
金钱
87012
威望
382
贡献值
189
交易币
3345
只看该作者 6楼 发表于: 2016-09-15
谢谢分享,中秋节快乐
离线lifan_npl

发帖
2189
金钱
19354
威望
816
贡献值
395
交易币
2550
只看该作者 7楼 发表于: 2016-09-17
谢谢分享 很不错哦
我的淘宝:
http://shop63152617.taobao.com  
离线mjnet

发帖
380
金钱
30479
威望
104
贡献值
54
交易币
557
只看该作者 8楼 发表于: 2017-03-04
看來我的也該整理了!!
离线mjbad25

发帖
160
金钱
5532
威望
0
贡献值
1
交易币
165
只看该作者 9楼 发表于: 2017-04-02
这个版本也不错的,谢谢
快速回复
限100 字节
 
上一个 下一个