论坛风格切换切换到宽版
  • 1155阅读
  • 12回复

[亲传][Single] 1995 Scream/Childhood (AU - 662072 2) - WAV整轨 ♬by幽灵 [复制链接]

上一主题 下一主题
离线mjghosts
 

发帖
8244
金钱
217720
威望
9174
贡献值
2723
交易币
4755
只看楼主 倒序阅读 楼主  发表于: 2016-09-14
— 本帖被 mjghosts 执行加亮操作(2016-09-14) —
*澳大利亚单曲,收录5首歌曲,曲目3是独占混音版。完美抓轨! v9"|VhZ  
[!ilcHE)  
注:独家整理,转载请注明出处!EAC无损整轨(压缩包内含CD图片) ;6}> Shs  
0`KR8# A@  
解压密码:www.mjsunny.com
!x[].Urj  
>UnLq:G  
Tracklist jp880}  
1 Scream (Clean Album Version) 4:40     *?rO@sQy]  
2 Scream (Single Edit) 4:02 'OI(MuSn  
3 Scream (David Morales R&B Extended Mix) 5:37 ijACfl{!:t  
4 Scream (Naughty Radio Edit With Rap) 4:30 $CDRIn50  
5 Childhood (Theme From "Free Willy 2") 4:30
"EBCf.3-  
GG %*d]  
d)kOW!5\  
C6A!JegU  
\Nj#1G  
:A+}fB IN  
Exact Audio Copy V1.0 beta 6 from 9. April 2015 y ~Fi  
SN]Na<P  
EAC 抓取日志文件从10. 十二月 2015, 20:10 1[!7xA0j  
pGr4b:N  
Michael Jackson / Scream W4(GI]`_+  
84coi  
使用驱动器  :MATSHITADVD-RAM UJ890AS   Adapter: 1  ID: 1 OHt^e7\  
!6hV|2aJy  
读取模式      : 可靠Secure Qe_C^ (P  
使用精确流     : 是 $xis4/2  
清空音频缓存    : 否 GI>(S  
使用 C2 指示器 : 是 ^$]iUb{\  
/qFY $vj  
读取偏移校正:               : 102 v]rbm}uU9  
读取 Lead-In 和 Lead-Out : 否 lMcO2006L  
用静音填充抓取中丢失偏移的采样       : 是 a^_W}gzzd  
去除首尾静音块               : 否 F6}YM|  
在CRC 计算中使用了空样本       : 是 mU"Am0Bdjq  
已用接口                  : Win NT 及 2000 本地 Win32 接口 bC98<if  
#9 Fk&Lx  
所用输出模式: : 内部 WAV 函数 !^s -~`'\~  
样本格式    : 44.100 Hz; 16 Bit; 立体声 Lusd kc7  
#I*{_|}=  
1P'A*`!K  
已抓取 CD 的 TOC  +a%D+  
\13Q>iAu  
     音轨 |    起始    |    长度    |  起始扇区  |  结束扇区   Di27=_J  
    -------------------------------------------- HFTeG4R  
      1 |  0:00.00 |  4:04.00 |      0 |  18299 ,4`Vl<6  
      2 |  4:04.00 |  4:28.45 |  18300 |  38444 C.":2F;-e  
      3 |  8:32.45 |  4:38.47 |  38445 |  59341 8 5)C7tJ-g  
KdYR?rY  
(n~fe-?}8  
范围状态及错误 =nc;~u|]  
K]Vp! G  
已选择范围 hmOGteAf-  
rNo/H<J%+j  
     文件名 J:\12 Music*音乐\[Single] 1995 Scream/Childhood (US Promo - ESK 78000) 3 TRACKS.wav ]+m 2pEO  
8Dtpb7\o  
     峰值电平 100.0 % hY%} x5ntU  
     抓取速度 4.9 X C96*,.j~'  
     范围质量 99.9 % <-b9 )>  
     复制 CRC EEB26E51 /3^XJb$Sa  
     复制成功 4vN:Kj  
",vK~m2W_  
没有错误发生 TI l 'Z7  
U_izKvEh  
kqj)&0|X  
AccurateRip 摘要 /@1YlxKF  
}i^|.VZZ  
音轨  1  在数据库中不存在 ^< cJ;u*0  
音轨  2  在数据库中不存在 n~\; +U  
音轨  3  在数据库中不存在 Z#N w[>NN*  
Q Kr/  
没有任何音轨在 AccurateRip 数据库中有记录 "p;tj74O9  
cf"&22TQ+Z  
状态报告结尾
8/tB?j  
#CI0G  
链接:http://pan.baidu.com/s/1i56VWqT 密码: _,(s  
此帖售价 15 金钱,已有 10 人购买 [记录] [购买]
购买后,将显示帖子中所有出售内容。
若发现会员采用欺骗的方法获取财富,请立刻举报,我们会对会员处以2-N倍的罚金,严重者封掉ID!
此段为出售的内容,购买后显示

发帖
2735
金钱
31355
威望
620
贡献值
37
交易币
388
只看该作者 1楼 发表于: 2016-09-14
感谢分享

离线小李

发帖
236
金钱
1405
威望
9
贡献值
8
交易币
208
只看该作者 2楼 发表于: 2016-09-15
听听曲目3 Lg#(?tMp,'  
离线wannam

发帖
2702
金钱
87012
威望
382
贡献值
189
交易币
3345
只看该作者 3楼 发表于: 2016-09-15
听听看
离线lifan_npl

发帖
2189
金钱
19354
威望
816
贡献值
395
交易币
2550
只看该作者 4楼 发表于: 2016-09-17
那个网站能找到这些cd的高质量扫面图啊?
我的淘宝:
http://shop63152617.taobao.com  
离线mjghosts

发帖
8244
金钱
217720
威望
9174
贡献值
2723
交易币
4755
只看该作者 5楼 发表于: 2016-09-17
回 lifan_npl 的帖子
lifan_npl:那个网站能找到这些cd的高质量扫面图啊? (2016-09-17 21:32)  =)XC"kU p  
Z <tJ+  
http://www.discogs.com/
离线mich008

发帖
832
金钱
5931
威望
24
贡献值
15
交易币
894
只看该作者 6楼 发表于: 2016-09-21
这版本必须有

发帖
481
金钱
13861
威望
35
贡献值
13
交易币
534
只看该作者 7楼 发表于: 2016-10-10
都是压缩包么?

发帖
481
金钱
13861
威望
35
贡献值
13
交易币
534
只看该作者 8楼 发表于: 2016-11-24
不错,很好
离线flash

发帖
236
金钱
0
威望
81
贡献值
0
交易币
236
只看该作者 9楼 发表于: 2016-11-30
不错,很好
不错,很好
快速回复
限100 字节
 
上一个 下一个