论坛风格切换切换到宽版
  • 895阅读
  • 12回复

[亲传][Single] 1995 Scream/Childhood (AU - 662072 2) - WAV整轨 ♬by幽灵 [复制链接]

上一主题 下一主题
离线mjghosts
 

发帖
8240
金钱
216247
威望
9172
贡献值
2721
交易币
4743
只看楼主 倒序阅读 楼主  发表于: 2016-09-14
— 本帖被 mjghosts 执行加亮操作(2016-09-14) —
*澳大利亚单曲,收录5首歌曲,曲目3是独占混音版。完美抓轨! *sTQ9 Kr  
8c9_=8vw  
注:独家整理,转载请注明出处!EAC无损整轨(压缩包内含CD图片) aF:I]]TfK~  
y!#1A?|k  
解压密码:www.mjsunny.com
Gi-tf<  
NS1[-ng  
Tracklist it.l;L_nW  
1 Scream (Clean Album Version) 4:40     eRGip2^cq+  
2 Scream (Single Edit) 4:02 8S0)_L#S  
3 Scream (David Morales R&B Extended Mix) 5:37 aAX 8m  
4 Scream (Naughty Radio Edit With Rap) 4:30 f.,-KIiF  
5 Childhood (Theme From "Free Willy 2") 4:30
QoqdPk#1  
*P_TG"^{W  
w}'E]y2.  
Xdjxt?*  
r+) A)a,  
iJq}tIk#2'  
Exact Audio Copy V1.0 beta 6 from 9. April 2015 t.]oLG22r  
eX}uZR  
EAC 抓取日志文件从10. 十二月 2015, 20:10 B&tl6?7h  
C,K P!B{  
Michael Jackson / Scream #S QFI;zj  
U{HJNftdpm  
使用驱动器  :MATSHITADVD-RAM UJ890AS   Adapter: 1  ID: 1 1[dza5  
9QZ;F4 r  
读取模式      : 可靠Secure w,D(zk$   
使用精确流     : 是 r\a9<nZ{  
清空音频缓存    : 否 l3-;z)SgH  
使用 C2 指示器 : 是 Ql!$e&A|l  
p-r}zc9@  
读取偏移校正:               : 102 _G,`s7Q,w  
读取 Lead-In 和 Lead-Out : 否 4)i/B99k  
用静音填充抓取中丢失偏移的采样       : 是 !ai, \  
去除首尾静音块               : 否 \XhzaM   
在CRC 计算中使用了空样本       : 是 +m]$P,yMt  
已用接口                  : Win NT 及 2000 本地 Win32 接口 AMGb6enl  
?`3` azfM  
所用输出模式: : 内部 WAV 函数 {YT!vD9.  
样本格式    : 44.100 Hz; 16 Bit; 立体声 udMDE=1~L  
oDXUa5x  
8A~5@  
已抓取 CD 的 TOC lED-Jo2  
/pt%*;H  
     音轨 |    起始    |    长度    |  起始扇区  |  结束扇区    |W];8  
    -------------------------------------------- v}q3_m]   
      1 |  0:00.00 |  4:04.00 |      0 |  18299 l*T> 9yC  
      2 |  4:04.00 |  4:28.45 |  18300 |  38444 Av:5v3%  
      3 |  8:32.45 |  4:38.47 |  38445 |  59341 vtM!?#  
X YO09#>&  
sS/#)/B  
范围状态及错误 Hg\+:}k&9  
bU9B2'%E  
已选择范围 =LEKFXqM  
P[6@1  
     文件名 J:\12 Music*音乐\[Single] 1995 Scream/Childhood (US Promo - ESK 78000) 3 TRACKS.wav  Cg[]y1Ne  
__<u!;f  
     峰值电平 100.0 % <$!^LKKzA  
     抓取速度 4.9 X o|#Mq"od  
     范围质量 99.9 % +76{S_CZ  
     复制 CRC EEB26E51 )X*?M?~\  
     复制成功 o!.\+[  
R? aE:\A  
没有错误发生 b=:$~N@Y  
eL)* K>T  
-rE_pV;  
AccurateRip 摘要 jO'+r'2B9  
V>#iR>w_4,  
音轨  1  在数据库中不存在 )tQG5.to  
音轨  2  在数据库中不存在 m35Blg34  
音轨  3  在数据库中不存在 &fBLPF%6  
5qco4@8  
没有任何音轨在 AccurateRip 数据库中有记录 4QWDuLu  
jIMaP T  
状态报告结尾
L>{E8qv>w  
VL"ZC:n)-  
链接:http://pan.baidu.com/s/1i56VWqT 密码: ,*0>CBJvv  
此帖售价 15 金钱,已有 10 人购买 [记录] [购买]
购买后,将显示帖子中所有出售内容。
若发现会员采用欺骗的方法获取财富,请立刻举报,我们会对会员处以2-N倍的罚金,严重者封掉ID!
此段为出售的内容,购买后显示

发帖
2729
金钱
31485
威望
620
贡献值
37
交易币
382
只看该作者 1楼 发表于: 2016-09-14
感谢分享

离线小李

发帖
232
金钱
230
威望
99
贡献值
8
交易币
204
只看该作者 2楼 发表于: 2016-09-15
听听曲目3 _`ot||J  
离线wannam

发帖
2701
金钱
86995
威望
382
贡献值
189
交易币
3344
只看该作者 3楼 发表于: 2016-09-15
听听看
离线lifan_npl

发帖
2173
金钱
16819
威望
782
贡献值
347
交易币
2526
只看该作者 4楼 发表于: 2016-09-17
那个网站能找到这些cd的高质量扫面图啊?
我的淘宝:
http://shop63152617.taobao.com  
离线mjghosts

发帖
8240
金钱
216247
威望
9172
贡献值
2721
交易币
4743
只看该作者 5楼 发表于: 2016-09-17
回 lifan_npl 的帖子
lifan_npl:那个网站能找到这些cd的高质量扫面图啊? (2016-09-17 21:32)  _W,?_"[R=  
LJ9#!r@H  
http://www.discogs.com/
离线mich008

发帖
824
金钱
5489
威望
24
贡献值
15
交易币
886
只看该作者 6楼 发表于: 2016-09-21
这版本必须有

发帖
477
金钱
13879
威望
35
贡献值
13
交易币
530
只看该作者 7楼 发表于: 2016-10-10
都是压缩包么?

发帖
477
金钱
13879
威望
35
贡献值
13
交易币
530
只看该作者 8楼 发表于: 2016-11-24
不错,很好
离线flash

发帖
236
金钱
9429
威望
81
贡献值
0
交易币
236
只看该作者 9楼 发表于: 2016-11-30
不错,很好
不错,很好
快速回复
限100 字节
 
上一个 下一个