论坛风格切换切换到宽版
  • 649阅读
  • 12回复

[亲传][Single] 1995 Scream/Childhood (AU - 662072 2) - WAV整轨 ♬by幽灵 [复制链接]

上一主题 下一主题
离线mjghosts
 

发帖
8258
金钱
212473
威望
9166
贡献值
2715
交易币
4709
只看楼主 倒序阅读 楼主  发表于: 2016-09-14
— 本帖被 mjghosts 执行加亮操作(2016-09-14) —
*澳大利亚单曲,收录5首歌曲,曲目3是独占混音版。完美抓轨! |3a1hCxt  
4GiHp7Y&A  
注:独家整理,转载请注明出处!EAC无损整轨(压缩包内含CD图片) IQ5H`o?[B  
T;4& ^5 n  
解压密码:www.mjsunny.com
7lC );  
$,mljJSQv  
Tracklist &gP/<!#  
1 Scream (Clean Album Version) 4:40     YqJ `eLu  
2 Scream (Single Edit) 4:02 ,y>%m;jL  
3 Scream (David Morales R&B Extended Mix) 5:37 jMpV c E#  
4 Scream (Naughty Radio Edit With Rap) 4:30 S4salpz  
5 Childhood (Theme From "Free Willy 2") 4:30
N084k}io  
1 m>x5Dbk!  
(FY<% .Pa  
){sn!5=  
l>J>?b=x"[  
f\zu7,GU  
Exact Audio Copy V1.0 beta 6 from 9. April 2015 ;r1.Uz(  
 yf/c  
EAC 抓取日志文件从10. 十二月 2015, 20:10 8#_"WzDw  
;V:Cf/@@R  
Michael Jackson / Scream |Ox !tvyr  
XY*KWO  
使用驱动器  :MATSHITADVD-RAM UJ890AS   Adapter: 1  ID: 1 w?db~"T  
w*3DIVlxL  
读取模式      : 可靠Secure SyWLPh  
使用精确流     : 是 $[NC$*N7  
清空音频缓存    : 否 -Jj"JN.  
使用 C2 指示器 : 是 )U':NV2  
= Nd &My  
读取偏移校正:               : 102 )Fo1[:_B '  
读取 Lead-In 和 Lead-Out : 否 6a=Y_fma  
用静音填充抓取中丢失偏移的采样       : 是 >;;tX3(  
去除首尾静音块               : 否 A|D]e)/6+B  
在CRC 计算中使用了空样本       : 是 PKx ewd  
已用接口                  : Win NT 及 2000 本地 Win32 接口 #()u=)  
G$5N8k[2  
所用输出模式: : 内部 WAV 函数 ohdWEU,  
样本格式    : 44.100 Hz; 16 Bit; 立体声 vu%:0p` K  
%G<!&E!0h  
7-oH >OF^  
已抓取 CD 的 TOC LiyEF&_u  
-$(,&qyk  
     音轨 |    起始    |    长度    |  起始扇区  |  结束扇区   \8uPHf_  
    -------------------------------------------- W^2Q"c#7F  
      1 |  0:00.00 |  4:04.00 |      0 |  18299 uf* sI  
      2 |  4:04.00 |  4:28.45 |  18300 |  38444 (Al.hEs'  
      3 |  8:32.45 |  4:38.47 |  38445 |  59341 5=g{%X  
0X\,!FL  
raGov`  
范围状态及错误 F;jl0)fBR=  
"])X0z yM  
已选择范围 L<Q1acoZm  
\$s<G|<P  
     文件名 J:\12 Music*音乐\[Single] 1995 Scream/Childhood (US Promo - ESK 78000) 3 TRACKS.wav +Ij>\;vM"  
"8VCXD  
     峰值电平 100.0 % !1!;}uzt  
     抓取速度 4.9 X "$PbpY  
     范围质量 99.9 % 83:m 7;  
     复制 CRC EEB26E51 P~iu|j  
     复制成功 =:v\}/  
]plg@  
没有错误发生 52/^>=t  
"]JE]n}Ulg  
[IF3 ,C  
AccurateRip 摘要 _OZrH(8  
\,!FL))yC  
音轨  1  在数据库中不存在 4M*UVdJ;  
音轨  2  在数据库中不存在 UaiDo"i  
音轨  3  在数据库中不存在 o )GNV  
Mc>]ZAzr  
没有任何音轨在 AccurateRip 数据库中有记录 _&FcHwRy  
,DqI> vx|  
状态报告结尾
{wih)XNY  
3kx/Q#  
链接:http://pan.baidu.com/s/1i56VWqT 密码: B4bC6$Lg  
此帖售价 15 金钱,已有 10 人购买 [记录] [购买]
购买后,将显示帖子中所有出售内容。
若发现会员采用欺骗的方法获取财富,请立刻举报,我们会对会员处以2-N倍的罚金,严重者封掉ID!
此段为出售的内容,购买后显示

发帖
2708
金钱
28329
威望
619
贡献值
36
交易币
357
只看该作者 1楼 发表于: 2016-09-14
感谢分享

离线小李

发帖
225
金钱
150
威望
99
贡献值
8
交易币
197
只看该作者 2楼 发表于: 2016-09-15
听听曲目3 QYWl`Yqf  
离线wannam

发帖
2698
金钱
86901
威望
382
贡献值
189
交易币
3341
只看该作者 3楼 发表于: 2016-09-15
听听看
离线lifan_npl

发帖
2156
金钱
17106
威望
782
贡献值
347
交易币
2509
只看该作者 4楼 发表于: 2016-09-17
那个网站能找到这些cd的高质量扫面图啊?
我的淘宝:
http://shop63152617.taobao.com  
离线mjghosts

发帖
8258
金钱
212473
威望
9166
贡献值
2715
交易币
4709
只看该作者 5楼 发表于: 2016-09-17
回 lifan_npl 的帖子
lifan_npl:那个网站能找到这些cd的高质量扫面图啊? (2016-09-17 21:32)  hrUm} @d  
ytuWT,u  
http://www.discogs.com/
离线mich008

发帖
811
金钱
5257
威望
24
贡献值
15
交易币
873
只看该作者 6楼 发表于: 2016-09-21
这版本必须有

发帖
475
金钱
13932
威望
35
贡献值
13
交易币
528
只看该作者 7楼 发表于: 2016-10-10
都是压缩包么?

发帖
475
金钱
13932
威望
35
贡献值
13
交易币
528
只看该作者 8楼 发表于: 2016-11-24
不错,很好
离线flash

发帖
231
金钱
78
威望
81
贡献值
0
交易币
231
只看该作者 9楼 发表于: 2016-11-30
不错,很好
不错,很好
快速回复
限100 字节
 
上一个 下一个