论坛风格切换切换到宽版
  • 562阅读
  • 11回复

[亲传][Single] 1995 Scream/Childhood (AU - 662072 2) - WAV整轨 ♬by幽灵 [复制链接]

上一主题 下一主题
离线mjghosts
 

发帖
8247
金钱
210534
威望
9164
贡献值
2715
交易币
4698
只看楼主 倒序阅读 楼主  发表于: 2016-09-14
— 本帖被 mjghosts 执行加亮操作(2016-09-14) —
*澳大利亚单曲,收录5首歌曲,曲目3是独占混音版。完美抓轨! ^. Pn)J  
%oN^1a'&)  
注:独家整理,转载请注明出处!EAC无损整轨(压缩包内含CD图片) ?|8H $1  
xp,H5 m%  
解压密码:www.mjsunny.com
wBmbn=>#S  
3HfT9  
Tracklist 8@Y@5)Oc  
1 Scream (Clean Album Version) 4:40     g=Qj9Z  
2 Scream (Single Edit) 4:02 y6G[-?"/Q  
3 Scream (David Morales R&B Extended Mix) 5:37 [c3hwogf:  
4 Scream (Naughty Radio Edit With Rap) 4:30 JbG+ysn  
5 Childhood (Theme From "Free Willy 2") 4:30
Y.&z$+  
{zg}KiNDZd  
<hS >L1ZSr  
R=PjLH&)  
=k0l>)  
*a\1*Jk  
Exact Audio Copy V1.0 beta 6 from 9. April 2015 Dwwh;B  
Tw|=;m  
EAC 抓取日志文件从10. 十二月 2015, 20:10 Z=wLNmH  
P^.L0T5g  
Michael Jackson / Scream 6kYn5:BhIi  
{fk'g(E8([  
使用驱动器  :MATSHITADVD-RAM UJ890AS   Adapter: 1  ID: 1 #O`n Q  
"EHwv2Hm>  
读取模式      : 可靠Secure s6!aGZ  
使用精确流     : 是 LLV:E{`p  
清空音频缓存    : 否 )*$'e<?`  
使用 C2 指示器 : 是 * UBU?  
aElEV e3  
读取偏移校正:               : 102 </Q<*@p?  
读取 Lead-In 和 Lead-Out : 否 beN0 ?G  
用静音填充抓取中丢失偏移的采样       : 是 (4x`/  
去除首尾静音块               : 否 ^Jsx^?  
在CRC 计算中使用了空样本       : 是 l]^uVOX  
已用接口                  : Win NT 及 2000 本地 Win32 接口 b&s"x? 7  
,o*x\jrGw  
所用输出模式: : 内部 WAV 函数 ?tV$o,11  
样本格式    : 44.100 Hz; 16 Bit; 立体声 7[.aAGTZ;  
\l"1Io=  
bb}|"m .  
已抓取 CD 的 TOC IlN9IF\9L  
*G7/  
     音轨 |    起始    |    长度    |  起始扇区  |  结束扇区   ~Uz,%zU#3  
    -------------------------------------------- h;u8{t"  
      1 |  0:00.00 |  4:04.00 |      0 |  18299 A9`& Wnw?  
      2 |  4:04.00 |  4:28.45 |  18300 |  38444 +fBbW::R^  
      3 |  8:32.45 |  4:38.47 |  38445 |  59341 p2cwW/^V  
dUegHBw_`R  
KzZ|{ !C  
范围状态及错误 7jPPN  
+ :4 F@R  
已选择范围 jrJ!A(<)  
YGFE(t;lPU  
     文件名 J:\12 Music*音乐\[Single] 1995 Scream/Childhood (US Promo - ESK 78000) 3 TRACKS.wav ]@LeyT'cY  
<~s{&cL!%#  
     峰值电平 100.0 % [[ {L#  
     抓取速度 4.9 X 2aj9:S  
     范围质量 99.9 % '$nm~z,V  
     复制 CRC EEB26E51 FLf< gz  
     复制成功 9W5~I9%  
*n]f)Jc  
没有错误发生 qK=uSL o\+  
IZ2(F,{o  
4{zz-4=  
AccurateRip 摘要 [T}Lq~  
}.DE521u  
音轨  1  在数据库中不存在 AT{rg/oSf  
音轨  2  在数据库中不存在 ./l^Iz&0  
音轨  3  在数据库中不存在 u2 a#qU5*  
NB^+Hcb$  
没有任何音轨在 AccurateRip 数据库中有记录 ; <NK  
fFe{oR   
状态报告结尾
KkJrh@lk  
c>b!{e@*  
链接:http://pan.baidu.com/s/1i56VWqT 密码: BB9+d"Sq  
此帖售价 15 金钱,已有 9 人购买 [记录] [购买]
购买后,将显示帖子中所有出售内容。
若发现会员采用欺骗的方法获取财富,请立刻举报,我们会对会员处以2-N倍的罚金,严重者封掉ID!
此段为出售的内容,购买后显示

发帖
2658
金钱
28594
威望
617
贡献值
34
交易币
299
只看该作者 1楼 发表于: 2016-09-14
感谢分享

离线小李

发帖
218
金钱
132
威望
98
贡献值
7
交易币
186
只看该作者 2楼 发表于: 2016-09-15
听听曲目3 P : L6Zo-J  
离线wannam

发帖
2697
金钱
86877
威望
382
贡献值
189
交易币
3340
只看该作者 3楼 发表于: 2016-09-15
听听看
离线lifan_npl

发帖
2117
金钱
17682
威望
787
贡献值
347
交易币
2470
只看该作者 4楼 发表于: 2016-09-17
那个网站能找到这些cd的高质量扫面图啊?
我的淘宝:
http://shop63152617.taobao.com  
离线mjghosts

发帖
8247
金钱
210534
威望
9164
贡献值
2715
交易币
4698
只看该作者 5楼 发表于: 2016-09-17
回 lifan_npl 的帖子
lifan_npl:那个网站能找到这些cd的高质量扫面图啊? (2016-09-17 21:32)  tKds|0,j|  
:B\ $7+$v  
http://www.discogs.com/
离线mich008

发帖
796
金钱
5102
威望
24
贡献值
15
交易币
858
只看该作者 6楼 发表于: 2016-09-21
这版本必须有

发帖
447
金钱
14029
威望
34
贡献值
13
交易币
500
只看该作者 7楼 发表于: 2016-10-10
都是压缩包么?

发帖
447
金钱
14029
威望
34
贡献值
13
交易币
500
只看该作者 8楼 发表于: 2016-11-24
不错,很好
离线flash

发帖
231
金钱
78
威望
81
贡献值
0
交易币
231
只看该作者 9楼 发表于: 2016-11-30
不错,很好
不错,很好
快速回复
限100 字节
 
上一个 下一个