论坛风格切换切换到宽版
  • 873阅读
  • 10回复

[亲传][Single] 1995 Earth Song (JP - ESCA 6360) - WAV整轨 ♬by幽灵 [复制链接]

上一主题 下一主题
离线mjghosts
 

发帖
8240
金钱
216247
威望
9172
贡献值
2721
交易币
4743
只看楼主 倒序阅读 楼主  发表于: 2016-09-14
— 本帖被 mjghosts 执行加亮操作(2016-09-14) —
*日本发行单曲,7首歌,混音曲目上乘,推荐!完美精确校准抓轨! Y]&H U) u  
#++MoW}'g  
注:独家整理,转载请注明出处!EAC无损整轨(压缩包内含CD图片) 7:mM`0g!  
MfCu\[qOz  
解压密码:www.mjsunny.com
9.#\GI ;  
I&Yu=v/_  
Tracklist /_26D0}UuF  
1 Earth Song 6:47 ]/bf#&@g`k  
2 Earth Song (Hani's Radio Experience) 3:35 + :iNoDz  
3 Earth Song (Hani's Around The World Experience) 14:49 H.|FEV@  
4 Earth Song (Radio Edit) 5:03 [=S@lURzm@  
5 Earth Song (Hani's Extended Radio Experience) 4:34 o_b j@X  
6 Wanna Be Startin' Somethin' (Tommy D's Main Mix) 7:40 zRL[.O9  
7 Wanna Be Startin' Somethin' (Brothers In Rhythm Mix) 7:37
NVcL9"ht*@  
RUlM""@b  
PfF7*}P  
hGcOk[m 4  
[`6|~E"F  
'2WYbcU  
: N>5{  
Exact Audio Copy V1.0 beta 6 from 9. April 2015 ZcYxH|Gn  
7;dV]N  
EAC 抓取日志文件从5. 九月 2016, 13:17 6w0/;8(_m  
NJ/6_e  
Michael Jackson / Earth Song 5)wz`OS  
u.ffZ]\7l  
使用驱动器  :MATSHITADVD-RAM UJ890AS   Adapter: 1  ID: 1 X2 c<.  
(|(#~o]40t  
读取模式      : 可靠Secure Ms ;:+JI  
使用精确流     : 是 _w/w~;7  
清空音频缓存    : 否 O~N0JK_>  
使用 C2 指示器 : 是 "q5Tw+KCfu  
I&^ B?"Y  
读取偏移校正:               : 102 N=]2vyh  
读取 Lead-In 和 Lead-Out : 否 MwMv[];I  
用静音填充抓取中丢失偏移的采样       : 是 VX0q!Q  
去除首尾静音块               : 否 }{/3yXk[G  
在CRC 计算中使用了空样本       : 是 faH113nc  
已用接口                  : Win NT 及 2000 本地 Win32 接口 vZ3/t8$*  
Ovu!G q  
所用输出模式: : 内部 WAV 函数 VE3,k'^v  
样本格式    : 44.100 Hz; 16 Bit; 立体声  5`];[M9  
+JQ/DNv  
cO}`PD$i  
已抓取 CD 的 TOC dS9L(&  
`` !BE"yN  
     音轨 |    起始    |    长度    |  起始扇区  |  结束扇区   c -1Hxd YD  
    -------------------------------------------- 4rpx  
      1 |  0:00.00 |  6:47.27 |      0 |  30551 uU+R,P0  
      2 |  6:47.27 |  3:35.25 |  30552 |  46701 M}jF-z  
      3 | 10:22.52 | 14:49.33 |  46702 | 113409 p_ H;|m9  
      4 | 25:12.10 |  5:03.47 | 113410 | 136181 x:Mh&dq?  
      5 | 30:15.57 |  4:34.28 | 136182 | 156759 BYh F?  
      6 | 34:50.10 |  7:40.72 | 156760 | 191331 U04TVQn`  
      7 | 42:31.07 |  7:37.13 | 191332 | 225619 o8PK,!Pl  
#o>~@.S#:0  
7? 1[sPM  
范围状态及错误 Za"m;+H<E  
FV 0x/)<z  
已选择范围 yA+ NRWWj  
?W27 h  
     文件名 J:\12 Music*音乐\1995 Earth Song (JP - ESCA 6360) 7''\CDImage.wav $ ;J:kd;<  
)j_Y9`R  
     峰值电平 97.6 % i&di}x  
     抓取速度 6.2 X ~d9@m#_T#~  
     范围质量 100.0 % yu.N>[=  
     复制 CRC 0DF7AFB3 N t-8[J  
     复制成功 xU LcS :Q  
d^:(-2l-  
没有错误发生 +wpQ$)\  
g+zfa.wQ  
iqAME%m  
AccurateRip 摘要 ^1jZwP;5eW  
[Fo" MeH?R  
音轨  1  精确地校准抓取  3)  [2C61EDE3]  (AR v1)  o8h1  
音轨  2  精确地校准抓取  3)  [622DB920]  (AR v1) cfrvx^,2&  
音轨  3  精确地校准抓取  3)  [FF12849F]  (AR v1) Tu9[byfrI  
音轨  4  精确地校准抓取  2)  [AB04B2BA]  (AR v2) ztG!NZL  
音轨  5  精确地校准抓取  3)  [F3C5A959]  (AR v1) Lr;PESV  
音轨  6  精确地校准抓取  3)  [E53D910F]  (AR v1) Ljq!\D  
音轨  7  精确地校准抓取  3)  [48955E69]  (AR v1) Eg;xj@S<2  
/`"&n1  
所有音轨精确校准抓取 )VoQ/ch<  
8ta`sNy9  
状态报告结尾
28rC>*+z  
MaX:o GF,  
链接:http://pan.baidu.com/s/1mi6PMdU 密码: PiTe/  
此帖售价 15 金钱,已有 10 人购买 [记录] [购买]
购买后,将显示帖子中所有出售内容。
若发现会员采用欺骗的方法获取财富,请立刻举报,我们会对会员处以2-N倍的罚金,严重者封掉ID!
此段为出售的内容,购买后显示
2条评分金钱+10威望+2
受伤的小伙 威望 +2 劳苦功高 2016-09-14
受伤的小伙 金钱 +10 劳苦功高 2016-09-14

发帖
2729
金钱
31485
威望
620
贡献值
37
交易币
382
只看该作者 1楼 发表于: 2016-09-14
劳苦功高
离线小李

发帖
232
金钱
230
威望
99
贡献值
8
交易币
204
只看该作者 2楼 发表于: 2016-09-15
听听,音色有没有不同
离线wannam

发帖
2701
金钱
86995
威望
382
贡献值
189
交易币
3344
只看该作者 3楼 发表于: 2016-09-15
辛苦楼主了
离线lifan_npl

发帖
2173
金钱
16819
威望
782
贡献值
347
交易币
2526
只看该作者 4楼 发表于: 2016-09-17
谢谢分享 很不错哦
我的淘宝:
http://shop63152617.taobao.com  
离线mich008

发帖
824
金钱
5489
威望
24
贡献值
15
交易币
886
只看该作者 5楼 发表于: 2016-09-21
来听听经典单曲
离线flash

发帖
236
金钱
9429
威望
81
贡献值
0
交易币
236
只看该作者 6楼 发表于: 2016-11-30
来听听经典单曲
来听听经典单曲
离线mjnet

发帖
380
金钱
30464
威望
104
贡献值
54
交易币
557
只看该作者 7楼 发表于: 2017-02-08
日盤壓片優!
离线肯尼

发帖
953
金钱
7175
威望
431
贡献值
228
交易币
1438
只看该作者 8楼 发表于: 2017-09-10
多谢分享!!!
顺势待发张元穹 Kenny Saxton @肯尼 & 齐奕同Michael Qi @迈颤我栗
2014年6月25日 合辑 火热制作中
2014 MJFantastics Music International Ltd.
离线mjlove98

发帖
2519
金钱
5963
威望
198
贡献值
122
交易币
2593
只看该作者 9楼 发表于: 2017-10-04
Re:[Single] 1995 Earth Song (JP - ESCA 6360) - WAV整轨 ?by幽灵
辛苦楼主了
快速回复
限100 字节
 
上一个 下一个