论坛风格切换切换到宽版
  • 668阅读
  • 9回复

[亲传][Single] 1995 Earth Song (JP - ESCA 6360) - WAV整轨 ♬by幽灵 [复制链接]

上一主题 下一主题
离线mjghosts
 

发帖
8258
金钱
212473
威望
9166
贡献值
2715
交易币
4709
只看楼主 倒序阅读 楼主  发表于: 2016-09-14
— 本帖被 mjghosts 执行加亮操作(2016-09-14) —
*日本发行单曲,7首歌,混音曲目上乘,推荐!完美精确校准抓轨! Ae;mU[MK/  
o;u~Yg  
注:独家整理,转载请注明出处!EAC无损整轨(压缩包内含CD图片) RBLOc$2  
bZ#5\L2  
解压密码:www.mjsunny.com
aP]h03sS  
HLCI  
Tracklist M6j~`KSE  
1 Earth Song 6:47 qFI19`?8E  
2 Earth Song (Hani's Radio Experience) 3:35 Fw8b^ew  
3 Earth Song (Hani's Around The World Experience) 14:49 - LB}=  
4 Earth Song (Radio Edit) 5:03 R7A:K]iJ5  
5 Earth Song (Hani's Extended Radio Experience) 4:34 e>P>DmlW  
6 Wanna Be Startin' Somethin' (Tommy D's Main Mix) 7:40 ltKMvGEF  
7 Wanna Be Startin' Somethin' (Brothers In Rhythm Mix) 7:37
czsnPmNEI  
p(fMM :  
.#Z"Sj  
c& K`t  
13 %: 3W(  
1vS-m x  
8A}<-?>  
Exact Audio Copy V1.0 beta 6 from 9. April 2015 C{+JrHV%h  
i5|)|x3  
EAC 抓取日志文件从5. 九月 2016, 13:17 ]u:_r)T  
]re}EB\Rs  
Michael Jackson / Earth Song ] g8z@r"b  
m77 !i>V)  
使用驱动器  :MATSHITADVD-RAM UJ890AS   Adapter: 1  ID: 1 =pTTXo  
H}q$6W E  
读取模式      : 可靠Secure nrX+  '  
使用精确流     : 是 o,S(;6pDJ  
清空音频缓存    : 否 V F b  
使用 C2 指示器 : 是 I$4>_D  
e}P@7e  h  
读取偏移校正:               : 102 UoUQ6Ij  
读取 Lead-In 和 Lead-Out : 否 )jt?X}  
用静音填充抓取中丢失偏移的采样       : 是 1o_6WU  
去除首尾静音块               : 否 2$`Y 4b3t  
在CRC 计算中使用了空样本       : 是 P2| +7D:  
已用接口                  : Win NT 及 2000 本地 Win32 接口 nR wf;K  
wA)n ryXV  
所用输出模式: : 内部 WAV 函数 ^HtB!Xc  
样本格式    : 44.100 Hz; 16 Bit; 立体声 ~jmI`X/  
pd & HC  
NV@$\ <  
已抓取 CD 的 TOC B7YE+  
zMBGpqdP  
     音轨 |    起始    |    长度    |  起始扇区  |  结束扇区   vy2"B ch  
    -------------------------------------------- i\gt @  
      1 |  0:00.00 |  6:47.27 |      0 |  30551 K[ S>EITr  
      2 |  6:47.27 |  3:35.25 |  30552 |  46701 t)g %9 k^  
      3 | 10:22.52 | 14:49.33 |  46702 | 113409 7~'%ThUb$-  
      4 | 25:12.10 |  5:03.47 | 113410 | 136181 [McqwU/Q  
      5 | 30:15.57 |  4:34.28 | 136182 | 156759 QnS#"hc\a  
      6 | 34:50.10 |  7:40.72 | 156760 | 191331 m}zXy\  
      7 | 42:31.07 |  7:37.13 | 191332 | 225619 VGu(HB8n#  
>i.$s  
ko'V8r `V  
范围状态及错误 -vk/z+-^!  
}1+2&Ps50  
已选择范围 !W0JT#0  
u|u)8;'9(  
     文件名 J:\12 Music*音乐\1995 Earth Song (JP - ESCA 6360) 7''\CDImage.wav .pm%qEh  
kApDD[ N  
     峰值电平 97.6 % -49I3&  
     抓取速度 6.2 X Fl{~#]  
     范围质量 100.0 % wc"~8Ah  
     复制 CRC 0DF7AFB3 D(dV{^} 9  
     复制成功 D@[#7:rHL  
REi"Aj=  
没有错误发生 R3)ccom  
^( 7l!  
BrzTOkeyG  
AccurateRip 摘要 #,})N*7  
N#R8ez`  
音轨  1  精确地校准抓取  3)  [2C61EDE3]  (AR v1) Nr]guC?rE  
音轨  2  精确地校准抓取  3)  [622DB920]  (AR v1) 4@a/k[,  
音轨  3  精确地校准抓取  3)  [FF12849F]  (AR v1) gssEdJ  
音轨  4  精确地校准抓取  2)  [AB04B2BA]  (AR v2) H,j_2JOY=  
音轨  5  精确地校准抓取  3)  [F3C5A959]  (AR v1) )QnsRW{D"  
音轨  6  精确地校准抓取  3)  [E53D910F]  (AR v1) ']OT7)_  
音轨  7  精确地校准抓取  3)  [48955E69]  (AR v1) ^ ~Tn[w W_  
>29c[O"[  
所有音轨精确校准抓取 ^ b=;  
Z  6][9o  
状态报告结尾
@bnw$U`+  
-|=)  
链接:http://pan.baidu.com/s/1mi6PMdU 密码: {q~N$"#  
此帖售价 15 金钱,已有 9 人购买 [记录] [购买]
购买后,将显示帖子中所有出售内容。
若发现会员采用欺骗的方法获取财富,请立刻举报,我们会对会员处以2-N倍的罚金,严重者封掉ID!
此段为出售的内容,购买后显示
2条评分金钱+10威望+2
受伤的小伙 威望 +2 劳苦功高 2016-09-14
受伤的小伙 金钱 +10 劳苦功高 2016-09-14

发帖
2708
金钱
28329
威望
619
贡献值
36
交易币
357
只看该作者 1楼 发表于: 2016-09-14
劳苦功高
离线小李

发帖
225
金钱
150
威望
99
贡献值
8
交易币
197
只看该作者 2楼 发表于: 2016-09-15
听听,音色有没有不同
离线wannam

发帖
2698
金钱
86901
威望
382
贡献值
189
交易币
3341
只看该作者 3楼 发表于: 2016-09-15
辛苦楼主了
离线lifan_npl

发帖
2156
金钱
17106
威望
782
贡献值
347
交易币
2509
只看该作者 4楼 发表于: 2016-09-17
谢谢分享 很不错哦
我的淘宝:
http://shop63152617.taobao.com  
离线mich008

发帖
811
金钱
5257
威望
24
贡献值
15
交易币
873
只看该作者 5楼 发表于: 2016-09-21
来听听经典单曲
离线flash

发帖
231
金钱
78
威望
81
贡献值
0
交易币
231
只看该作者 6楼 发表于: 2016-11-30
来听听经典单曲
来听听经典单曲
离线mjnet

发帖
375
金钱
30482
威望
104
贡献值
54
交易币
552
只看该作者 7楼 发表于: 02-08
日盤壓片優!
离线肯尼

发帖
953
金钱
6774
威望
431
贡献值
228
交易币
1438
只看该作者 8楼 发表于: 09-10
多谢分享!!!
顺势待发张元穹 Kenny Saxton @肯尼 & 齐奕同Michael Qi @迈颤我栗
2014年6月25日 合辑 火热制作中
2014 MJFantastics Music International Ltd.
离线mjlove98

发帖
2130
金钱
5008
威望
209
贡献值
62
交易币
1907
只看该作者 9楼 发表于: 10-04
Re:[Single] 1995 Earth Song (JP - ESCA 6360) - WAV整轨 ?by幽灵
辛苦楼主了
快速回复
限100 字节
 
上一个 下一个