论坛风格切换切换到宽版
  • 576阅读
  • 8回复

[亲传][Single] 1995 Earth Song (JP - ESCA 6360) - WAV整轨 ♬by幽灵 [复制链接]

上一主题 下一主题
离线mjghosts
 

发帖
8247
金钱
210534
威望
9164
贡献值
2715
交易币
4698
只看楼主 倒序阅读 楼主  发表于: 2016-09-14
— 本帖被 mjghosts 执行加亮操作(2016-09-14) —
*日本发行单曲,7首歌,混音曲目上乘,推荐!完美精确校准抓轨! MaZM%W8Z  
(2UW_l  
注:独家整理,转载请注明出处!EAC无损整轨(压缩包内含CD图片) 'eD J@4Xm  
^NXcLEaP*<  
解压密码:www.mjsunny.com
U4Z[!s$  
wMGk!N  
Tracklist  >1A*MP4  
1 Earth Song 6:47 oh6B3>>+  
2 Earth Song (Hani's Radio Experience) 3:35 ^(ScgoXva  
3 Earth Song (Hani's Around The World Experience) 14:49 =+Im*mgNn  
4 Earth Song (Radio Edit) 5:03 'B_\TU0 O  
5 Earth Song (Hani's Extended Radio Experience) 4:34 btH _HE  
6 Wanna Be Startin' Somethin' (Tommy D's Main Mix) 7:40 YzAFC11,  
7 Wanna Be Startin' Somethin' (Brothers In Rhythm Mix) 7:37
Gih[i\%Q  
|ETiLR=&  
/- 4$7qd  
jTb-;4 N'  
/qU>5;  
<YFY{VC(  
*1{S*`|cJy  
Exact Audio Copy V1.0 beta 6 from 9. April 2015 5,pSg  
\}_Yd8  
EAC 抓取日志文件从5. 九月 2016, 13:17 kforu!C  
,xI%A, (,;  
Michael Jackson / Earth Song tMp=-"  
{HOy_Fiih  
使用驱动器  :MATSHITADVD-RAM UJ890AS   Adapter: 1  ID: 1 &o3K%M;C?  
1w(JEqY3h:  
读取模式      : 可靠Secure l8h&|RY[  
使用精确流     : 是 v%{.A)  
清空音频缓存    : 否 ;Xvp6.:  
使用 C2 指示器 : 是 E\nv~Y?SG  
6x)$Dl  
读取偏移校正:               : 102 -u!FOD/  
读取 Lead-In 和 Lead-Out : 否 [+m?G4[  
用静音填充抓取中丢失偏移的采样       : 是 vsWHk7 9  
去除首尾静音块               : 否 0$+fkDf  
在CRC 计算中使用了空样本       : 是 !o=U19)  
已用接口                  : Win NT 及 2000 本地 Win32 接口 /2EHv.e `  
,lA.C%4au~  
所用输出模式: : 内部 WAV 函数 I):!`R.,  
样本格式    : 44.100 Hz; 16 Bit; 立体声 ay "'#[  
ydw)mT44K  
:1t~[-h^  
已抓取 CD 的 TOC 2C{H$ A,pW  
N]KxAttt  
     音轨 |    起始    |    长度    |  起始扇区  |  结束扇区   V=fEPM  
    -------------------------------------------- N2.AKH  
      1 |  0:00.00 |  6:47.27 |      0 |  30551 hx/N1 x  
      2 |  6:47.27 |  3:35.25 |  30552 |  46701 ~QvqG{bFB  
      3 | 10:22.52 | 14:49.33 |  46702 | 113409 gTA%uRBa  
      4 | 25:12.10 |  5:03.47 | 113410 | 136181 ~ek$C  
      5 | 30:15.57 |  4:34.28 | 136182 | 156759 @+atBmt  
      6 | 34:50.10 |  7:40.72 | 156760 | 191331 ^ bEc6`eE  
      7 | 42:31.07 |  7:37.13 | 191332 | 225619 $Y5)(  
[o F|s-"9!  
pZtu&R%GU  
范围状态及错误 XS$OyW_Q  
Q>n|^y6  
已选择范围 ezPz<iZ\N  
|g=="  
     文件名 J:\12 Music*音乐\1995 Earth Song (JP - ESCA 6360) 7''\CDImage.wav /% N r?V  
f%V4pzOc"  
     峰值电平 97.6 % U^Xm)lL  
     抓取速度 6.2 X A]XZnQ  
     范围质量 100.0 % x:nKfY5  
     复制 CRC 0DF7AFB3 9~l hsH  
     复制成功 /c,(8{(O  
$ibuWb"a  
没有错误发生 V =-WYu  
mdw7}%5V  
pZeE61c/  
AccurateRip 摘要 6qp%$>$Vt;  
##4GK08!  
音轨  1  精确地校准抓取  3)  [2C61EDE3]  (AR v1) 0)m(;>'70  
音轨  2  精确地校准抓取  3)  [622DB920]  (AR v1) _N@ro  
音轨  3  精确地校准抓取  3)  [FF12849F]  (AR v1) APO>y  
音轨  4  精确地校准抓取  2)  [AB04B2BA]  (AR v2) |gU(s  
音轨  5  精确地校准抓取  3)  [F3C5A959]  (AR v1) -*XCxU'  
音轨  6  精确地校准抓取  3)  [E53D910F]  (AR v1) V,G|k!!  
音轨  7  精确地校准抓取  3)  [48955E69]  (AR v1) /;utcc  
IzpZwx^3''  
所有音轨精确校准抓取 />9O R  
Yx>"bv  
状态报告结尾
<0PT"ij  
1Q. \s_2  
链接:http://pan.baidu.com/s/1mi6PMdU 密码: 1rDqa(7  
此帖售价 15 金钱,已有 8 人购买 [记录] [购买]
购买后,将显示帖子中所有出售内容。
若发现会员采用欺骗的方法获取财富,请立刻举报,我们会对会员处以2-N倍的罚金,严重者封掉ID!
此段为出售的内容,购买后显示
2条评分金钱+10威望+2
受伤的小伙 威望 +2 劳苦功高 2016-09-14
受伤的小伙 金钱 +10 劳苦功高 2016-09-14

发帖
2658
金钱
28594
威望
617
贡献值
34
交易币
299
只看该作者 1楼 发表于: 2016-09-14
劳苦功高
离线小李

发帖
218
金钱
132
威望
98
贡献值
7
交易币
186
只看该作者 2楼 发表于: 2016-09-15
听听,音色有没有不同
离线wannam

发帖
2697
金钱
86877
威望
382
贡献值
189
交易币
3340
只看该作者 3楼 发表于: 2016-09-15
辛苦楼主了
离线lifan_npl

发帖
2117
金钱
17682
威望
787
贡献值
347
交易币
2470
只看该作者 4楼 发表于: 2016-09-17
谢谢分享 很不错哦
我的淘宝:
http://shop63152617.taobao.com  
离线mich008

发帖
796
金钱
5102
威望
24
贡献值
15
交易币
858
只看该作者 5楼 发表于: 2016-09-21
来听听经典单曲
离线flash

发帖
231
金钱
78
威望
81
贡献值
0
交易币
231
只看该作者 6楼 发表于: 2016-11-30
来听听经典单曲
来听听经典单曲
离线mjnet

发帖
368
金钱
30511
威望
104
贡献值
54
交易币
545
只看该作者 7楼 发表于: 02-08
日盤壓片優!
离线肯尼

发帖
946
金钱
5833
威望
419
贡献值
222
交易币
1407
只看该作者 8楼 发表于: 09-10
多谢分享!!!
顺势待发张元穹 Kenny Saxton @肯尼 & 齐奕同Michael Qi @迈颤我栗
2014年6月25日 合辑 火热制作中
2014 MJFantastics Music International Ltd.
快速回复
限100 字节
 
上一个 下一个