论坛风格切换切换到宽版
  • 575阅读
  • 8回复

[亲传][Single] 1995 Earth Song (JP - ESCA 6360) - WAV整轨 ♬by幽灵 [复制链接]

上一主题 下一主题
离线mjghosts
 

发帖
8247
金钱
210534
威望
9164
贡献值
2715
交易币
4698
只看楼主 倒序阅读 楼主  发表于: 2016-09-14
— 本帖被 mjghosts 执行加亮操作(2016-09-14) —
*日本发行单曲,7首歌,混音曲目上乘,推荐!完美精确校准抓轨! d"78w-S  
\S;% "0!  
注:独家整理,转载请注明出处!EAC无损整轨(压缩包内含CD图片) HSx~Fs^J  
7|6tH@4Ub  
解压密码:www.mjsunny.com
pooi8" G  
SPsq][5eR  
Tracklist BmrP]3W?  
1 Earth Song 6:47 c i7;v9  
2 Earth Song (Hani's Radio Experience) 3:35 H'I|tPs  
3 Earth Song (Hani's Around The World Experience) 14:49 Nl_!%k:  
4 Earth Song (Radio Edit) 5:03 '*>LZo4  
5 Earth Song (Hani's Extended Radio Experience) 4:34 QY+#Vp<`  
6 Wanna Be Startin' Somethin' (Tommy D's Main Mix) 7:40 a\}|ikiE  
7 Wanna Be Startin' Somethin' (Brothers In Rhythm Mix) 7:37
/F;*[JZIb  
+7 F7Kh  
bwVv#Z\r  
1AE/ILGo  
,;+\!'lS  
ys#M* {?  
_9z/>e  
Exact Audio Copy V1.0 beta 6 from 9. April 2015 !FSraW2  
{t=Nnc15K  
EAC 抓取日志文件从5. 九月 2016, 13:17 `n5c|`6  
BB%(!O4Dl  
Michael Jackson / Earth Song l4/TJ%`MG  
("lcL2Bq  
使用驱动器  :MATSHITADVD-RAM UJ890AS   Adapter: 1  ID: 1 cEqh|Q  
:?UIyN?  
读取模式      : 可靠Secure .|aSGv E  
使用精确流     : 是 ky~x4_y5  
清空音频缓存    : 否 #KK(Z \;  
使用 C2 指示器 : 是 (mD]}{>  
gK<-*v  
读取偏移校正:               : 102 2"MI8EK  
读取 Lead-In 和 Lead-Out : 否 <R(2 9QN  
用静音填充抓取中丢失偏移的采样       : 是 M/DTD98'N  
去除首尾静音块               : 否 .UYpPuAkn  
在CRC 计算中使用了空样本       : 是 bT8UmR98  
已用接口                  : Win NT 及 2000 本地 Win32 接口 /trc&V  
q"Md)?5N  
所用输出模式: : 内部 WAV 函数 nKO&ffb'<  
样本格式    : 44.100 Hz; 16 Bit; 立体声 2T5xSpC  
}j?S?=;m=  
r$F]e]Ic\  
已抓取 CD 的 TOC vdm?d/0(^  
{K:Utdu($q  
     音轨 |    起始    |    长度    |  起始扇区  |  结束扇区   cDiz!n*.q  
    -------------------------------------------- -W_s]oBg  
      1 |  0:00.00 |  6:47.27 |      0 |  30551 qN[7zsaj  
      2 |  6:47.27 |  3:35.25 |  30552 |  46701 `t1$Ew<  
      3 | 10:22.52 | 14:49.33 |  46702 | 113409 Qu,k  
      4 | 25:12.10 |  5:03.47 | 113410 | 136181 n\-_i2yy  
      5 | 30:15.57 |  4:34.28 | 136182 | 156759 nb_^3K]r  
      6 | 34:50.10 |  7:40.72 | 156760 | 191331 c@-K  
      7 | 42:31.07 |  7:37.13 | 191332 | 225619 -FN6sNvIh  
ph?0I: eU  
*+j{9LK  
范围状态及错误 +M##mRD  
; Uqx&5P}  
已选择范围 |SP.S 0.y  
r\n h.}s  
     文件名 J:\12 Music*音乐\1995 Earth Song (JP - ESCA 6360) 7''\CDImage.wav jqGo-C~  
;Co[y=Z  
     峰值电平 97.6 % {1@4}R4  
     抓取速度 6.2 X &Ev]x2YC  
     范围质量 100.0 % `F2*o47|t  
     复制 CRC 0DF7AFB3 h#@4@x{  
     复制成功 GIC"-l1\  
nG},v%  
没有错误发生 3%[)!zKv  
t*Vao  
h{W$ fZc<  
AccurateRip 摘要 Iuu<2#gb8"  
0+K`pS'  
音轨  1  精确地校准抓取  3)  [2C61EDE3]  (AR v1) V6@*\+:3)  
音轨  2  精确地校准抓取  3)  [622DB920]  (AR v1) Vq3]7l  
音轨  3  精确地校准抓取  3)  [FF12849F]  (AR v1) .Bb$j=  
音轨  4  精确地校准抓取  2)  [AB04B2BA]  (AR v2) i7S>RB  
音轨  5  精确地校准抓取  3)  [F3C5A959]  (AR v1) 935-{h@k  
音轨  6  精确地校准抓取  3)  [E53D910F]  (AR v1) yxaT7Oqh%  
音轨  7  精确地校准抓取  3)  [48955E69]  (AR v1) %^a]J"Ydi8  
]$m#1Kj  
所有音轨精确校准抓取 A#v|@sul  
o2;(VSKhS  
状态报告结尾
%*$5!;  
C:]/8l  
链接:http://pan.baidu.com/s/1mi6PMdU 密码: *-?Wcz  
此帖售价 15 金钱,已有 8 人购买 [记录] [购买]
购买后,将显示帖子中所有出售内容。
若发现会员采用欺骗的方法获取财富,请立刻举报,我们会对会员处以2-N倍的罚金,严重者封掉ID!
此段为出售的内容,购买后显示
2条评分金钱+10威望+2
受伤的小伙 威望 +2 劳苦功高 2016-09-14
受伤的小伙 金钱 +10 劳苦功高 2016-09-14

发帖
2658
金钱
28594
威望
617
贡献值
34
交易币
299
只看该作者 1楼 发表于: 2016-09-14
劳苦功高
离线小李

发帖
218
金钱
132
威望
98
贡献值
7
交易币
186
只看该作者 2楼 发表于: 2016-09-15
听听,音色有没有不同
离线wannam

发帖
2697
金钱
86877
威望
382
贡献值
189
交易币
3340
只看该作者 3楼 发表于: 2016-09-15
辛苦楼主了
离线lifan_npl

发帖
2117
金钱
17682
威望
787
贡献值
347
交易币
2470
只看该作者 4楼 发表于: 2016-09-17
谢谢分享 很不错哦
我的淘宝:
http://shop63152617.taobao.com  
离线mich008

发帖
796
金钱
5102
威望
24
贡献值
15
交易币
858
只看该作者 5楼 发表于: 2016-09-21
来听听经典单曲
离线flash

发帖
231
金钱
78
威望
81
贡献值
0
交易币
231
只看该作者 6楼 发表于: 2016-11-30
来听听经典单曲
来听听经典单曲
离线mjnet

发帖
368
金钱
30511
威望
104
贡献值
54
交易币
545
只看该作者 7楼 发表于: 02-08
日盤壓片優!
离线肯尼

发帖
946
金钱
5833
威望
419
贡献值
222
交易币
1407
只看该作者 8楼 发表于: 09-10
多谢分享!!!
顺势待发张元穹 Kenny Saxton @肯尼 & 齐奕同Michael Qi @迈颤我栗
2014年6月25日 合辑 火热制作中
2014 MJFantastics Music International Ltd.
快速回复
限100 字节
 
上一个 下一个