论坛风格切换切换到宽版
  • 669阅读
  • 9回复

[亲传][Single] 1995 Earth Song (JP - ESCA 6360) - WAV整轨 ♬by幽灵 [复制链接]

上一主题 下一主题
离线mjghosts
 

发帖
8258
金钱
212473
威望
9166
贡献值
2715
交易币
4709
只看楼主 倒序阅读 楼主  发表于: 2016-09-14
— 本帖被 mjghosts 执行加亮操作(2016-09-14) —
*日本发行单曲,7首歌,混音曲目上乘,推荐!完美精确校准抓轨! ri"=)]  
#CeWk$)m  
注:独家整理,转载请注明出处!EAC无损整轨(压缩包内含CD图片) |9CPT%A#  
%I)*5M6  
解压密码:www.mjsunny.com
IU}g[O Cu  
P]4u`&  
Tracklist 7&|&y SCu  
1 Earth Song 6:47 W6 *5e{  
2 Earth Song (Hani's Radio Experience) 3:35 L|2WTyMU  
3 Earth Song (Hani's Around The World Experience) 14:49 98l-  
4 Earth Song (Radio Edit) 5:03 s)~H_,  
5 Earth Song (Hani's Extended Radio Experience) 4:34 6x_D0j%^]  
6 Wanna Be Startin' Somethin' (Tommy D's Main Mix) 7:40 V@ph.)z  
7 Wanna Be Startin' Somethin' (Brothers In Rhythm Mix) 7:37
];}7 %3  
2`/p V0  
F, p~O{ Q  
M$GZK'%  
ZzO.s$  
lMBXD?,,J  
GSu&Z/Jo  
Exact Audio Copy V1.0 beta 6 from 9. April 2015 Wd_KZ}lX  
T]Eg9Y:+v  
EAC 抓取日志文件从5. 九月 2016, 13:17 6o/!H  
VlQaT7Q  
Michael Jackson / Earth Song (>\w8]  
\.<V~d?  
使用驱动器  :MATSHITADVD-RAM UJ890AS   Adapter: 1  ID: 1 KoNJ;YiKtN  
u;qBW uO  
读取模式      : 可靠Secure !4f0VQI  
使用精确流     : 是 2& l~8,  
清空音频缓存    : 否 ^sp+ sr :  
使用 C2 指示器 : 是 Kf$%C"  
 S=o1k  
读取偏移校正:               : 102 RTW4r9~'  
读取 Lead-In 和 Lead-Out : 否 8_S<zE`Ha  
用静音填充抓取中丢失偏移的采样       : 是 Fx.hti  
去除首尾静音块               : 否 =!b<@41  
在CRC 计算中使用了空样本       : 是 Q}a 1P8?S  
已用接口                  : Win NT 及 2000 本地 Win32 接口 Ccw6,2`&  
a3wTcp "r  
所用输出模式: : 内部 WAV 函数 cvR|qHNX  
样本格式    : 44.100 Hz; 16 Bit; 立体声 OKU9v{  
%C_RBd  
Vu DSjh  
已抓取 CD 的 TOC ;F@N2j#  
85rXm*Df  
     音轨 |    起始    |    长度    |  起始扇区  |  结束扇区   (Yz EsY  
    -------------------------------------------- _ECWSfZ  
      1 |  0:00.00 |  6:47.27 |      0 |  30551 b{|Ha3;w  
      2 |  6:47.27 |  3:35.25 |  30552 |  46701 @B;2z_Y!l  
      3 | 10:22.52 | 14:49.33 |  46702 | 113409  <StyO[  
      4 | 25:12.10 |  5:03.47 | 113410 | 136181 &?m|PK)I  
      5 | 30:15.57 |  4:34.28 | 136182 | 156759 A)/ 8FYc  
      6 | 34:50.10 |  7:40.72 | 156760 | 191331 ?{W@TY@S  
      7 | 42:31.07 |  7:37.13 | 191332 | 225619 \2(Uqf#_  
xSFY8  
p._BG80  
范围状态及错误 >p4#AfGF  
zr~hGhfq  
已选择范围 '\qd{mM\r  
Fm(~Vt;%u  
     文件名 J:\12 Music*音乐\1995 Earth Song (JP - ESCA 6360) 7''\CDImage.wav r|t ;#  
qMT7g LB'1  
     峰值电平 97.6 % j0b?dKd  
     抓取速度 6.2 X `p`)D 6  
     范围质量 100.0 % S2nF13u  
     复制 CRC 0DF7AFB3 ~IvAnwQ'  
     复制成功 D<9FSxl6  
%Od?(m"&  
没有错误发生 jt|e?1:vF  
t,$4J6  
>r+Dl\R  
AccurateRip 摘要 S;#S3?G  
yRt]i>  
音轨  1  精确地校准抓取  3)  [2C61EDE3]  (AR v1) ;Awt:jF  
音轨  2  精确地校准抓取  3)  [622DB920]  (AR v1) 1fBj21zG  
音轨  3  精确地校准抓取  3)  [FF12849F]  (AR v1) [DS.@97n  
音轨  4  精确地校准抓取  2)  [AB04B2BA]  (AR v2) o HqBNTyH  
音轨  5  精确地校准抓取  3)  [F3C5A959]  (AR v1) )xgOl*D  
音轨  6  精确地校准抓取  3)  [E53D910F]  (AR v1) }F3}-5![  
音轨  7  精确地校准抓取  3)  [48955E69]  (AR v1) &AR@5M u  
^IgxzGD  
所有音轨精确校准抓取 $yG>=GN  
1?:/8l%V  
状态报告结尾
m x`QBJ  
X@l>mAk  
链接:http://pan.baidu.com/s/1mi6PMdU 密码: F@ Sw  
此帖售价 15 金钱,已有 9 人购买 [记录] [购买]
购买后,将显示帖子中所有出售内容。
若发现会员采用欺骗的方法获取财富,请立刻举报,我们会对会员处以2-N倍的罚金,严重者封掉ID!
此段为出售的内容,购买后显示
2条评分金钱+10威望+2
受伤的小伙 威望 +2 劳苦功高 2016-09-14
受伤的小伙 金钱 +10 劳苦功高 2016-09-14

发帖
2708
金钱
28329
威望
619
贡献值
36
交易币
357
只看该作者 1楼 发表于: 2016-09-14
劳苦功高
离线小李

发帖
225
金钱
150
威望
99
贡献值
8
交易币
197
只看该作者 2楼 发表于: 2016-09-15
听听,音色有没有不同
离线wannam

发帖
2698
金钱
86901
威望
382
贡献值
189
交易币
3341
只看该作者 3楼 发表于: 2016-09-15
辛苦楼主了
离线lifan_npl

发帖
2156
金钱
17106
威望
782
贡献值
347
交易币
2509
只看该作者 4楼 发表于: 2016-09-17
谢谢分享 很不错哦
我的淘宝:
http://shop63152617.taobao.com  
离线mich008

发帖
811
金钱
5257
威望
24
贡献值
15
交易币
873
只看该作者 5楼 发表于: 2016-09-21
来听听经典单曲
离线flash

发帖
231
金钱
78
威望
81
贡献值
0
交易币
231
只看该作者 6楼 发表于: 2016-11-30
来听听经典单曲
来听听经典单曲
离线mjnet

发帖
375
金钱
30482
威望
104
贡献值
54
交易币
552
只看该作者 7楼 发表于: 02-08
日盤壓片優!
离线肯尼

发帖
953
金钱
6774
威望
431
贡献值
228
交易币
1438
只看该作者 8楼 发表于: 09-10
多谢分享!!!
顺势待发张元穹 Kenny Saxton @肯尼 & 齐奕同Michael Qi @迈颤我栗
2014年6月25日 合辑 火热制作中
2014 MJFantastics Music International Ltd.
离线mjlove98

发帖
2130
金钱
5008
威望
209
贡献值
62
交易币
1907
只看该作者 9楼 发表于: 10-04
Re:[Single] 1995 Earth Song (JP - ESCA 6360) - WAV整轨 ?by幽灵
辛苦楼主了
快速回复
限100 字节
 
上一个 下一个