论坛风格切换切换到宽版
  • 1880阅读
  • 18回复

[亲传][Comp] 2008 The Essential [3.0] 3CD (US - 88697 30985 2) - WAV整轨 ♬by幽灵 [复制链接]

上一主题 下一主题
离线mjghosts
 

发帖
8261
金钱
219535
威望
9187
贡献值
2734
交易币
4796
只看楼主 倒序阅读 楼主  发表于: 2016-10-08
— 本帖被 mjghosts 执行加亮操作(2016-10-08) —
*美国2008年再版,比2005年的版本加了一碟,故称3.0版本。CD完美精确校准抓轨!* _$s> c!t,#  
j/!H$0PN  
注:独家整理,转载请注明出处!EAC无损整轨(压缩包内含CD图片) *>[3I}mM  
 Mps5Vv  
解压密码:www.mjsunny.com
l.+yn91%>  
s!B/WsK  
('[TLHP  
G }nO@  
+^|iZbZKx  
Tracklist: Ond'R'3\E  
1-01 The Jackson 5 I Want You Back 2:58 Af(WV>'  
1-02 The Jackson 5 ABC 2:57 8V/L:h#7  
1-03 The Jackson 5 The Love You Save 3:05 )Kd%\PP  
1-04 Got To Be There 3:25 ~NcQ1.  
1-05 Rockin' Robin 2:32 p9eRZVy/  
1-06 Ben 2:46 U9hS<}<Ki  
1-07 The Jacksons Enjoy Yourself 3:21 \}0-^(9zd  
1-08 The Jacksons Blame It On The Boogie 3:30 5\fCd|  
1-09 The Jacksons Shake Your Body (Down To The Ground) 3:44 %3r:s`{  
1-10 Don't Stop 'Til You Get Enough 5:51 XzIx:J6  
1-11 Rock With You 3:23 C~% 1w%nn  
1-12 Off The Wall 3:45 YX*x&5]lq  
1-13 She's Out Of My Life 3:37 wf.T3  
1-14 Can You Feel It 3:50 8jlLUG:g  
1-15 The Girl Is Mine 3:41 _l`e#XbG  
1-16 Billie Jean 4:52 5&Ts7& .  
1-17 Beat It 4:18 ),:c+~@@kT  
1-18 Wanna Be Startin' Somethin' 4:17 h&&6r\4/|  
1-19 Human Nature 3:45 "UFs~S|e  
1-20 P.Y.T. (Pretty Young Thing) 3:58 qy1F* kY  
1-21 Thriller 5:12 l\0w;:N3  
{y=W6uP  
2-01 Bad 4:07 ^ <`(lyph  
2-02 I Just Can't Stop Loving You 4:11 ZzGahtx)Y  
2-03 Leave Me Alone 4:40 75T_Dx(H  
2-04 The Way You Make Me Feel 4:26 uQ$^;Pr  
2-05 Man In The Mirror 5:18 F'}'(t+oAm  
2-06 Dirty Diana 4:40 h Ov={:  
2-07 Another Part Of Me 3:46 u|#>32kV  
2-08 Smooth Criminal 4:17 `A$!]&[~|  
2-09 Black Or White 3:22 ^g1f X1  
2-10 Heal The World 6:25 uP3_FX: e  
2-11 Remember The Time 3:59 1F'1>Bu~  
2-12 In The Closet 4:48 n"PJ,ao  
2-13 Who Is It 3:59 cLa]D[H  
2-14 Will You Be There 3:40 #m{{a]zm^  
2-15 Dangerous 6:59 d6{Gt"  
2-16 You Are Not Alone 4:55 r~-.nb"P  
2-17 You Rock My World 5:08 r[(xj n  
JCcZuwu[  
3-1 Can't Get Outta The Rain 4:06 ]?1Y e8>Y<  
3-2 Say, Say, Say 3:56 6Tw#^;q-  
3-3 Jam 5:38 <:/&&@2  
3-4 They Don't Care About Us 4:46 XfE?C:v   
3-5 Blood On The Dance Floor 4:14 @RFs/'  
3-6 Stranger In Moscow 5:45 f %lD08Sl  
3-7 Butterflies 4:41
H7U li]e3  
"vCM}F  
Exact Audio Copy V1.0 beta 6 from 9. April 2015 *%w6 9#D  
Tu{&v'!j6  
EAC 抓取日志文件从6. 十月 2016, 3:38 [XRCLi}  
CM)Q&:  
Michael Jackson / The Essential Michael Jackson I$NhXZ)KT  
Xtz-\v#0o'  
使用驱动器  :MATSHITADVD-RAM UJ890AS   Adapter: 1  ID: 1 jV#ahNq;  
!Fw?H3X!"q  
读取模式      : 可靠Secure YSJy`  
使用精确流     : 是 #j#_cImE  
清空音频缓存    : 否 7"7rmZ   
使用 C2 指示器 : 是 d_n7k g+  
72sD0)?A  
读取偏移校正:               : 102 ZKQ hbNT  
读取 Lead-In 和 Lead-Out : 否 l$K,#P<)  
用静音填充抓取中丢失偏移的采样       : 是 Q'+MFld   
去除首尾静音块               : 否 n .!Ym X4  
在CRC 计算中使用了空样本       : 是 7&`}~$>}>e  
已用接口                  : Win NT 及 2000 本地 Win32 接口 6:U$w7P0 e  
5Zmw} M  
所用输出模式: : 内部 WAV 函数 0JgL2ayIVI  
样本格式    : 44.100 Hz; 16 Bit; 立体声 O8|5KpXd@  
=X?\MVWB  
Xi?b]Z  
已抓取 CD 的 TOC ^qCkt1C-M  
ZpUCfS)|&  
     音轨 |    起始    |    长度    |  起始扇区  |  结束扇区   Q0Nyqhvi  
    -------------------------------------------- $Vc~/>  
      1 |  0:00.00 |  2:58.57 |      0 |  13406 mzQ`N}]T:  
      2 |  2:58.57 |  2:57.10 |  13407 |  26691  tvXW  
      3 |  5:55.67 |  3:05.08 |  26692 |  40574 Te2zK7:  
      4 |  9:01.00 |  3:25.02 |  40575 |  55951 :{NC-%4o0  
      5 | 12:26.02 |  2:32.62 |  55952 |  67413 )}TLC 2%  
      6 | 14:58.64 |  2:46.18 |  67414 |  79881 k{gLMl  
      7 | 17:45.07 |  3:21.35 |  79882 |  94991 Q]rD}Ckv-  
      8 | 21:06.42 |  3:30.40 |  94992 | 110781 i,13b e  
      9 | 24:37.07 |  3:44.67 | 110782 | 127648 1!pa;$L  
     10 | 28:21.74 |  5:51.26 | 127649 | 153999 >3awn*N  
     11 | 34:13.25 |  3:23.05 | 154000 | 169229 j)t+jcMUI  
     12 | 37:36.30 |  3:45.42 | 169230 | 186146 {pb>$G:gfx  
     13 | 41:21.72 |  3:37.21 | 186147 | 202442 R3k1RE2c&g  
     14 | 44:59.18 |  3:50.58 | 202443 | 219750 O]f/r,4@  
     15 | 48:50.01 |  3:41.68 | 219751 | 236393 yr#5k`&\_  
     16 | 52:31.69 |  4:52.72 | 236394 | 258365 X(jVRr_m9  
     17 | 57:24.66 |  4:18.03 | 258366 | 277718 [~:-&  
     18 | 61:42.69 |  4:17.32 | 277719 | 297025 IrMl:+t\  
     19 | 66:00.26 |  3:45.04 | 297026 | 313904 c9R 5w.t:  
     20 | 69:45.30 |  3:58.44 | 313905 | 331798 2oJb)CB  
     21 | 73:43.74 |  5:12.31 | 331799 | 355229 2MA]jT  
(M =Y&M'f  
$D31Q[p=+  
范围状态及错误 , @m@S ^  
2 xw6 5z  
已选择范围 jL)WPq!m+  
]pEV}@7  
     文件名 J:\12 Music*音乐\2008 The Essential Michael Jackson [3.0] 3CD (US - 88697 30985 2)\CD1\CDImage.wav /~4 "No@  
vpPl$ga5bY  
     峰值电平 100.0 % Y^%T}yTtq  
     抓取速度 7.1 X GRy-+#,b"  
     范围质量 100.0 % U|G|l|Bl  
     复制 CRC 072EEBE1 c`x7u}C  
     复制成功 %LXM+<N8  
>r &;3:"  
没有错误发生 TwyM\9l7  
K.gEj*@  
2!N8rHRt  
AccurateRip 摘要 ,(a5@H$f  
_w@qr\4i=  
音轨  1  精确地校准抓取  129)  [0D174C2C]  (AR v2) FZB~|3eq{  
音轨  2  精确地校准抓取  130)  [F24DE14C]  (AR v2) {;2i.m1  
音轨  3  精确地校准抓取  127)  [03B6B926]  (AR v2) (2?G:+C 7  
音轨  4  精确地校准抓取  128)  [FCF991F2]  (AR v2) k\Q ,h75  
音轨  5  精确地校准抓取  128)  [31F4CC55]  (AR v2) 7z_;t9Y  
音轨  6  精确地校准抓取  128)  [17493048]  (AR v2) ]E3U J!!  
音轨  7  精确地校准抓取  127)  [9A0F6376]  (AR v2) %tA57Pn>  
音轨  8  精确地校准抓取  129)  [D3288CC1]  (AR v2) BiE08,nj  
音轨  9  精确地校准抓取  128)  [553A6026]  (AR v2) l0*Gb  
音轨 10  精确地校准抓取  130)  [C69F12D6]  (AR v2) 0"pVT%b  
音轨 11  精确地校准抓取  131)  [26C97D8B]  (AR v2) +b;hBb]R  
音轨 12  精确地校准抓取  128)  [2E23951B]  (AR v2) wo5ZxM  
音轨 13  精确地校准抓取  124)  [C5FB2189]  (AR v2) x0a.!  
音轨 14  精确地校准抓取  124)  [35C427A0]  (AR v2) 6VD1cb\lF  
音轨 15  精确地校准抓取  127)  [FA5584D0]  (AR v2) C@o%J.9"#  
音轨 16  精确地校准抓取  127)  [245087A5]  (AR v2) o6"*4P|  
音轨 17  精确地校准抓取  125)  [753159C9]  (AR v2) a :SQ16_?  
音轨 18  精确地校准抓取  126)  [001F0FF6]  (AR v2) R)!`JKeO/  
音轨 19  精确地校准抓取  124)  [F2A3EF33]  (AR v2) h%d^Gq~  
音轨 20  精确地校准抓取  121)  [57493D9A]  (AR v2) G@S&1=nj3  
音轨 21  精确地校准抓取  122)  [C6D6A423]  (AR v2) O`FqD{@V  
JM0I(%Z%  
所有音轨精确校准抓取 {u7##Vrgt8  
%R_{1GrL'c  
状态报告结尾
8YY|;\F)J~  
B~r}c4R{7  
链接:http://pan.baidu.com/s/1jICuOpo 密码: jm>3bd  
此帖售价 20 金钱,已有 12 人购买 [记录] [购买]
购买后,将显示帖子中所有出售内容。
若发现会员采用欺骗的方法获取财富,请立刻举报,我们会对会员处以2-N倍的罚金,严重者封掉ID!
此段为出售的内容,购买后显示
离线lifan_npl

发帖
2221
金钱
31747
威望
853
贡献值
430
交易币
2602
只看该作者 1楼 发表于: 2016-10-08
谢谢分享
我的淘宝店:
http://shop63152617.taobao.com  
离线耶稣

发帖
7210
金钱
278339
威望
2544
贡献值
1685
交易币
11369
只看该作者 2楼 发表于: 2016-10-08
so good!! 82G lbd)  
thanks.




发帖
2765
金钱
30989
威望
622
贡献值
39
交易币
426
只看该作者 3楼 发表于: 2016-10-09
曲目众多

离线wannam

发帖
2703
金钱
87081
威望
382
贡献值
189
交易币
3346
只看该作者 4楼 发表于: 2016-10-09
谢谢楼主分享!太赞了!
离线魏聪

发帖
168
金钱
2713
威望
41
贡献值
21
交易币
103
只看该作者 5楼 发表于: 2016-10-09
楼主每次都能带来郑涵
离线小李

发帖
240
金钱
1125
威望
9
贡献值
8
交易币
212
只看该作者 6楼 发表于: 2016-10-09
仔细听听看

发帖
582
金钱
8935
威望
51
贡献值
44
交易币
759
只看该作者 7楼 发表于: 2016-10-11
楼主能做份MP3吗?
离线mjghosts

发帖
8261
金钱
219535
威望
9187
贡献值
2734
交易币
4796
只看该作者 8楼 发表于: 2016-10-11
回 迈迈世界2014 的帖子
迈迈世界2014:楼主能做份MP3吗? (2016-10-11 15:13)  ]+S QS^4  
I!bZ-16X  
MP3可以自己弄吧~
离线小李

发帖
240
金钱
1125
威望
9
贡献值
8
交易币
212
只看该作者 9楼 发表于: 2016-10-12
这个碟音质一般,都统一化了音量,均衡,强度等,有的歌曲不自然. ]MyWB<9M  
如SAY SAY SAY,听听这个,在对比2015那个版本,就会觉得15年的版本听起来舒服.
1条评分金钱+1
mjghosts 金钱 +1 同感   毕竟~歌曲年份跨度太大了  不统一化的话整碟下来听感也会怪 2016-10-15
快速回复
限100 字节
 
上一个 下一个