论坛风格切换切换到宽版
  • 1417阅读
  • 17回复

[亲传][Comp] 2008 The Essential [3.0] 3CD (US - 88697 30985 2) - WAV整轨 ♬by幽灵 [复制链接]

上一主题 下一主题
离线mjghosts
 

发帖
8252
金钱
218775
威望
9176
贡献值
2723
交易币
4763
只看楼主 倒序阅读 楼主  发表于: 2016-10-08
— 本帖被 mjghosts 执行加亮操作(2016-10-08) —
*美国2008年再版,比2005年的版本加了一碟,故称3.0版本。CD完美精确校准抓轨!* :BFecS&i5  
1muB* O  
注:独家整理,转载请注明出处!EAC无损整轨(压缩包内含CD图片) F)x^AJi e  
'5j$wr zt  
解压密码:www.mjsunny.com
UR;F W`  
/DPD,bA  
uzA"+cV5  
E;7vGGf]  
Vo*38c2  
Tracklist: <1~5l ~  
1-01 The Jackson 5 I Want You Back 2:58 FOz7W  
1-02 The Jackson 5 ABC 2:57 $`L!2  
1-03 The Jackson 5 The Love You Save 3:05 %hcn|-" F  
1-04 Got To Be There 3:25 +AVYypql8K  
1-05 Rockin' Robin 2:32 Ji<^s@8Zc  
1-06 Ben 2:46 58FjzW  
1-07 The Jacksons Enjoy Yourself 3:21 0"q^`@sZ  
1-08 The Jacksons Blame It On The Boogie 3:30 tz0_S7h  
1-09 The Jacksons Shake Your Body (Down To The Ground) 3:44 Sl@$  
1-10 Don't Stop 'Til You Get Enough 5:51 vMBF7Jfx  
1-11 Rock With You 3:23 b65V*Vbj  
1-12 Off The Wall 3:45 9|19ia@[\  
1-13 She's Out Of My Life 3:37 2u0C ~s  
1-14 Can You Feel It 3:50 %au2kG,  
1-15 The Girl Is Mine 3:41 Qs24b  
1-16 Billie Jean 4:52 US<bM@[  
1-17 Beat It 4:18 YKF5|;}  
1-18 Wanna Be Startin' Somethin' 4:17 iwJeV J  
1-19 Human Nature 3:45 ~&bn} M>W  
1-20 P.Y.T. (Pretty Young Thing) 3:58 }A@op+0E  
1-21 Thriller 5:12 )TNAgTmqK  
[T8BQn!  
2-01 Bad 4:07 F' eV%g  
2-02 I Just Can't Stop Loving You 4:11 Hggp*(AQK  
2-03 Leave Me Alone 4:40 yb)!jLnH  
2-04 The Way You Make Me Feel 4:26 ,^]yU?eU  
2-05 Man In The Mirror 5:18 tbbZGyg5b  
2-06 Dirty Diana 4:40 v[S>   
2-07 Another Part Of Me 3:46 udCum4  
2-08 Smooth Criminal 4:17 DI/yHs  
2-09 Black Or White 3:22 !U}dYB:O  
2-10 Heal The World 6:25 XE/K|o^Hp  
2-11 Remember The Time 3:59 <B,z)c  
2-12 In The Closet 4:48 lPA:aHcj  
2-13 Who Is It 3:59 & ,KxE(C  
2-14 Will You Be There 3:40 nJEm&"AI  
2-15 Dangerous 6:59 mGf@J6wGz  
2-16 You Are Not Alone 4:55 zq(R!a6  
2-17 You Rock My World 5:08 Yh=/?&*  
?V3kIb  
3-1 Can't Get Outta The Rain 4:06 J<[Hw g  
3-2 Say, Say, Say 3:56 V\C$/8v  
3-3 Jam 5:38 ?Q`u\G3.m  
3-4 They Don't Care About Us 4:46 FQc8j:'  
3-5 Blood On The Dance Floor 4:14 N~<H`  
3-6 Stranger In Moscow 5:45 6gUcoDD  
3-7 Butterflies 4:41
9eA2v{!S  
RgF5w<Vd.  
Exact Audio Copy V1.0 beta 6 from 9. April 2015 z%$,F9/  
Re`'dde=  
EAC 抓取日志文件从6. 十月 2016, 3:38 "mBX$t'gb  
L.5 /wg  
Michael Jackson / The Essential Michael Jackson Fo$kD(  
6jdNQC$#B  
使用驱动器  :MATSHITADVD-RAM UJ890AS   Adapter: 1  ID: 1 zjuU*$A4  
FZUN*5`  
读取模式      : 可靠Secure m[k@\xS4e  
使用精确流     : 是 @zz4,,]  
清空音频缓存    : 否 X>0$zE@0  
使用 C2 指示器 : 是 x<mHTh:-V  
zcn> 4E)  
读取偏移校正:               : 102 38I.1p9  
读取 Lead-In 和 Lead-Out : 否 aGUKpYF  
用静音填充抓取中丢失偏移的采样       : 是 -d|Q|zF^x  
去除首尾静音块               : 否 **].d;~[l  
在CRC 计算中使用了空样本       : 是 :n@j"-HA  
已用接口                  : Win NT 及 2000 本地 Win32 接口 3bCb_Y  
8$c_M   
所用输出模式: : 内部 WAV 函数 R]s\s[B  
样本格式    : 44.100 Hz; 16 Bit; 立体声 f&z@J,_=  
LF2@qvwD  
88K=jo))b  
已抓取 CD 的 TOC Y,?!"  
%syFHUBw  
     音轨 |    起始    |    长度    |  起始扇区  |  结束扇区   W .B>"u  
    -------------------------------------------- ~+JE l%  
      1 |  0:00.00 |  2:58.57 |      0 |  13406 ,-4SVj8$P  
      2 |  2:58.57 |  2:57.10 |  13407 |  26691 PYOU=R%o`8  
      3 |  5:55.67 |  3:05.08 |  26692 |  40574 2 /rDi  
      4 |  9:01.00 |  3:25.02 |  40575 |  55951 7tEK&+H`  
      5 | 12:26.02 |  2:32.62 |  55952 |  67413 HQpw2bdy  
      6 | 14:58.64 |  2:46.18 |  67414 |  79881 $& 0hpg  
      7 | 17:45.07 |  3:21.35 |  79882 |  94991 \Mi] !b|8  
      8 | 21:06.42 |  3:30.40 |  94992 | 110781 w2 L'j9  
      9 | 24:37.07 |  3:44.67 | 110782 | 127648 BW`)q/  
     10 | 28:21.74 |  5:51.26 | 127649 | 153999 /SXms'C  
     11 | 34:13.25 |  3:23.05 | 154000 | 169229 jK!Y-  
     12 | 37:36.30 |  3:45.42 | 169230 | 186146 t Q0vX@I<v  
     13 | 41:21.72 |  3:37.21 | 186147 | 202442 ?gq',F FDq  
     14 | 44:59.18 |  3:50.58 | 202443 | 219750 i8]2y  
     15 | 48:50.01 |  3:41.68 | 219751 | 236393 ?r`UBR+[  
     16 | 52:31.69 |  4:52.72 | 236394 | 258365 s+=JT+g  
     17 | 57:24.66 |  4:18.03 | 258366 | 277718 x[ sSM:  
     18 | 61:42.69 |  4:17.32 | 277719 | 297025 /c`s$h4-  
     19 | 66:00.26 |  3:45.04 | 297026 | 313904 O_f+#K)  
     20 | 69:45.30 |  3:58.44 | 313905 | 331798 }G:5P3f  
     21 | 73:43.74 |  5:12.31 | 331799 | 355229 k Xs&k8  
M"E ]r=1  
g_2m["6*  
范围状态及错误 2'R& K  
^G(/;c*=  
已选择范围 F(-1m A&-  
k 5<[N2D|!  
     文件名 J:\12 Music*音乐\2008 The Essential Michael Jackson [3.0] 3CD (US - 88697 30985 2)\CD1\CDImage.wav 6l{=[\.Xa  
l c<&f  
     峰值电平 100.0 % |;L%hIR[  
     抓取速度 7.1 X OT & mNE4  
     范围质量 100.0 % W|go*+`W%  
     复制 CRC 072EEBE1 L @b8,  
     复制成功 `7;I*|  
rA*"22v=  
没有错误发生 HxC_n h  
dM A"% R  
:QSCky*i  
AccurateRip 摘要 x*)@:W!  
Qi_De '@  
音轨  1  精确地校准抓取  129)  [0D174C2C]  (AR v2) hBSci|*f  
音轨  2  精确地校准抓取  130)  [F24DE14C]  (AR v2) Cq7EdK;x  
音轨  3  精确地校准抓取  127)  [03B6B926]  (AR v2) c8o $WyO  
音轨  4  精确地校准抓取  128)  [FCF991F2]  (AR v2) lgxG:zAC  
音轨  5  精确地校准抓取  128)  [31F4CC55]  (AR v2) }y-b<J ?H  
音轨  6  精确地校准抓取  128)  [17493048]  (AR v2) hL\gI(B  
音轨  7  精确地校准抓取  127)  [9A0F6376]  (AR v2) 29 +p|n  
音轨  8  精确地校准抓取  129)  [D3288CC1]  (AR v2) '`$US;5  
音轨  9  精确地校准抓取  128)  [553A6026]  (AR v2) 6J|Ee1Ez  
音轨 10  精确地校准抓取  130)  [C69F12D6]  (AR v2) \78w1Rkl  
音轨 11  精确地校准抓取  131)  [26C97D8B]  (AR v2) d83K;Ryd  
音轨 12  精确地校准抓取  128)  [2E23951B]  (AR v2) VQ{.Ls2`Z  
音轨 13  精确地校准抓取  124)  [C5FB2189]  (AR v2) Kn]c4h}@b5  
音轨 14  精确地校准抓取  124)  [35C427A0]  (AR v2) e ;4y5i  
音轨 15  精确地校准抓取  127)  [FA5584D0]  (AR v2) ~W q[H  
音轨 16  精确地校准抓取  127)  [245087A5]  (AR v2) @v1f)(N  
音轨 17  精确地校准抓取  125)  [753159C9]  (AR v2) 8:j8>K*6  
音轨 18  精确地校准抓取  126)  [001F0FF6]  (AR v2) /f!CX|U  
音轨 19  精确地校准抓取  124)  [F2A3EF33]  (AR v2) >?b9Xh  
音轨 20  精确地校准抓取  121)  [57493D9A]  (AR v2) OUY 65K  
音轨 21  精确地校准抓取  122)  [C6D6A423]  (AR v2) O -a`A.  
mWUo:(U  
所有音轨精确校准抓取 1* _wJ  
l$%mZl  
状态报告结尾
Bc {#ia  
7` ^]:t  
链接:http://pan.baidu.com/s/1jICuOpo 密码: ,!"\L~6  
此帖售价 20 金钱,已有 11 人购买 [记录] [购买]
购买后,将显示帖子中所有出售内容。
若发现会员采用欺骗的方法获取财富,请立刻举报,我们会对会员处以2-N倍的罚金,严重者封掉ID!
此段为出售的内容,购买后显示
离线lifan_npl

发帖
2196
金钱
31917
威望
851
贡献值
428
交易币
2569
只看该作者 1楼 发表于: 2016-10-08
谢谢分享
我的淘宝:
http://shop63152617.taobao.com  
离线耶稣

发帖
7171
金钱
274007
威望
2497
贡献值
1661
交易币
11266
只看该作者 2楼 发表于: 2016-10-08
so good!! .z4 fJx  
thanks.





发帖
2740
金钱
30927
威望
620
贡献值
37
交易币
393
只看该作者 3楼 发表于: 2016-10-09
曲目众多

离线wannam

发帖
2702
金钱
87018
威望
382
贡献值
189
交易币
3345
只看该作者 4楼 发表于: 2016-10-09
谢谢楼主分享!太赞了!
离线魏聪

发帖
168
金钱
2713
威望
41
贡献值
21
交易币
103
只看该作者 5楼 发表于: 2016-10-09
楼主每次都能带来郑涵
离线小李

发帖
238
金钱
1115
威望
9
贡献值
8
交易币
210
只看该作者 6楼 发表于: 2016-10-09
仔细听听看

发帖
556
金钱
9442
威望
51
贡献值
44
交易币
733
只看该作者 7楼 发表于: 2016-10-11
楼主能做份MP3吗?
离线mjghosts

发帖
8252
金钱
218775
威望
9176
贡献值
2723
交易币
4763
只看该作者 8楼 发表于: 2016-10-11
回 迈迈世界2014 的帖子
迈迈世界2014:楼主能做份MP3吗? (2016-10-11 15:13)  ?)|}gr  
,_u7@Ix  
MP3可以自己弄吧~
离线小李

发帖
238
金钱
1115
威望
9
贡献值
8
交易币
210
只看该作者 9楼 发表于: 2016-10-12
这个碟音质一般,都统一化了音量,均衡,强度等,有的歌曲不自然. V O:4wC"7  
如SAY SAY SAY,听听这个,在对比2015那个版本,就会觉得15年的版本听起来舒服.
1条评分金钱+1
mjghosts 金钱 +1 同感   毕竟~歌曲年份跨度太大了  不统一化的话整碟下来听感也会怪 2016-10-15
快速回复
限100 字节
 
上一个 下一个