论坛风格切换切换到宽版
  • 1996阅读
  • 18回复

[亲传][Comp] 2008 The Essential [3.0] 3CD (US - 88697 30985 2) - WAV整轨 ♬by幽灵 [复制链接]

上一主题 下一主题
离线mjghosts
 

发帖
8263
金钱
219674
威望
9187
贡献值
2734
交易币
4798
只看楼主 倒序阅读 楼主  发表于: 2016-10-08
— 本帖被 mjghosts 执行加亮操作(2016-10-08) —
*美国2008年再版,比2005年的版本加了一碟,故称3.0版本。CD完美精确校准抓轨!* gjQ=8&i  
;*.(.  
注:独家整理,转载请注明出处!EAC无损整轨(压缩包内含CD图片) /<6ywLD  
m; 1'u;  
解压密码:www.mjsunny.com
V;H d)v( j  
Z@;jIH4 (  
1% asx'^  
NY.}uZ  
Y||yzJdC  
Tracklist: fL(':W&n-  
1-01 The Jackson 5 I Want You Back 2:58 +fC#2%VnU  
1-02 The Jackson 5 ABC 2:57 >]:N?[Y_~}  
1-03 The Jackson 5 The Love You Save 3:05 #=`FM:WH  
1-04 Got To Be There 3:25 J ZVr&KZN  
1-05 Rockin' Robin 2:32 H @_eFlT t  
1-06 Ben 2:46 66I|0_  
1-07 The Jacksons Enjoy Yourself 3:21 b}ySZlmy  
1-08 The Jacksons Blame It On The Boogie 3:30 ) 1lJ<g#  
1-09 The Jacksons Shake Your Body (Down To The Ground) 3:44 MILIu;[{#r  
1-10 Don't Stop 'Til You Get Enough 5:51 "wT ~$I"  
1-11 Rock With You 3:23 [47K7~9p  
1-12 Off The Wall 3:45 {ED(O -W  
1-13 She's Out Of My Life 3:37 ]C}u- B746  
1-14 Can You Feel It 3:50 uPv;y!Lsa@  
1-15 The Girl Is Mine 3:41 ch5`fm  
1-16 Billie Jean 4:52 877EKvsiC  
1-17 Beat It 4:18 D&z'tf5  
1-18 Wanna Be Startin' Somethin' 4:17 ,E*a$cCw  
1-19 Human Nature 3:45 Y2=Brtc[@  
1-20 P.Y.T. (Pretty Young Thing) 3:58 Uf7F8JZmM  
1-21 Thriller 5:12 g9([3pV,  
=& Tu`m  
2-01 Bad 4:07 9h3~;Q  
2-02 I Just Can't Stop Loving You 4:11 k[r./xEv+t  
2-03 Leave Me Alone 4:40 o%4&1^ Vg  
2-04 The Way You Make Me Feel 4:26 ~G{$P'[  
2-05 Man In The Mirror 5:18 M|Dwk3#  
2-06 Dirty Diana 4:40 {o5K?Pb  
2-07 Another Part Of Me 3:46  ,3@15j  
2-08 Smooth Criminal 4:17 P2 K>|r  
2-09 Black Or White 3:22 ZTBFV/{  
2-10 Heal The World 6:25 i3kI2\bd/  
2-11 Remember The Time 3:59 l>5]Wd{/  
2-12 In The Closet 4:48 VU+s7L0  
2-13 Who Is It 3:59 FUqhSW  
2-14 Will You Be There 3:40 }rMpp[  
2-15 Dangerous 6:59 ^SSOh#  
2-16 You Are Not Alone 4:55 fddbXs0Sn  
2-17 You Rock My World 5:08 E=_B@VJknW  
\PMKmJ X0O  
3-1 Can't Get Outta The Rain 4:06 O<d?'{  
3-2 Say, Say, Say 3:56 89- 8v^ Pq  
3-3 Jam 5:38 1> @|  
3-4 They Don't Care About Us 4:46 nTy,Jml  
3-5 Blood On The Dance Floor 4:14 i~s9Ot  
3-6 Stranger In Moscow 5:45 V #\ZS{'J  
3-7 Butterflies 4:41
hsVJ&-#  
% ih7Jt  
Exact Audio Copy V1.0 beta 6 from 9. April 2015 -j=&J8Za  
U\ E{-7  
EAC 抓取日志文件从6. 十月 2016, 3:38 : It W|  
]`H.qV  
Michael Jackson / The Essential Michael Jackson rw0lXs#K<E  
PR6uw  
使用驱动器  :MATSHITADVD-RAM UJ890AS   Adapter: 1  ID: 1 LK/V]YG  
)nxIxr0d-  
读取模式      : 可靠Secure 7lPk~0  
使用精确流     : 是 K -1~K  
清空音频缓存    : 否 :"IH*7xp  
使用 C2 指示器 : 是 Jo+C!kc  
d's`~HOU2  
读取偏移校正:               : 102 @sO.g_yM  
读取 Lead-In 和 Lead-Out : 否 S @($c'  
用静音填充抓取中丢失偏移的采样       : 是 h(sKGCG  
去除首尾静音块               : 否 GefgOlg5"  
在CRC 计算中使用了空样本       : 是 Big-)7?  
已用接口                  : Win NT 及 2000 本地 Win32 接口 J1t?Qj;f3  
&>{L"{  
所用输出模式: : 内部 WAV 函数 %SXqJW^:  
样本格式    : 44.100 Hz; 16 Bit; 立体声 ' ?t{-z,  
v<4zcMv  
-xlI'gNg7  
已抓取 CD 的 TOC d1N&J`R\1  
:T2K\@  
     音轨 |    起始    |    长度    |  起始扇区  |  结束扇区   Lm/^ 8V+  
    -------------------------------------------- j*nCIxF  
      1 |  0:00.00 |  2:58.57 |      0 |  13406 UHHe~L  
      2 |  2:58.57 |  2:57.10 |  13407 |  26691 [z?XVl<  
      3 |  5:55.67 |  3:05.08 |  26692 |  40574 4Y'qo M;  
      4 |  9:01.00 |  3:25.02 |  40575 |  55951 -95 `.o  
      5 | 12:26.02 |  2:32.62 |  55952 |  67413 wTLHg2'y^  
      6 | 14:58.64 |  2:46.18 |  67414 |  79881 a)xN(xp##  
      7 | 17:45.07 |  3:21.35 |  79882 |  94991 NWf!c-':  
      8 | 21:06.42 |  3:30.40 |  94992 | 110781 {3?g8e]zr  
      9 | 24:37.07 |  3:44.67 | 110782 | 127648 mu*wX'.'  
     10 | 28:21.74 |  5:51.26 | 127649 | 153999 ?g!py[CrE  
     11 | 34:13.25 |  3:23.05 | 154000 | 169229 /QG8\wXE2  
     12 | 37:36.30 |  3:45.42 | 169230 | 186146 D\>CEBt  
     13 | 41:21.72 |  3:37.21 | 186147 | 202442 8J Gt|,  
     14 | 44:59.18 |  3:50.58 | 202443 | 219750 + 6O5hZ  
     15 | 48:50.01 |  3:41.68 | 219751 | 236393 {3'z}q  
     16 | 52:31.69 |  4:52.72 | 236394 | 258365 ,qyH B2v  
     17 | 57:24.66 |  4:18.03 | 258366 | 277718 }_Jr[iaB  
     18 | 61:42.69 |  4:17.32 | 277719 | 297025 {!@Pho)Q  
     19 | 66:00.26 |  3:45.04 | 297026 | 313904 noV]+1#"V  
     20 | 69:45.30 |  3:58.44 | 313905 | 331798 Y]Td+ Zi  
     21 | 73:43.74 |  5:12.31 | 331799 | 355229 ojni+}>_  
C A VqjT7  
"z8L}IC!e5  
范围状态及错误 tT>~;l%'  
E`}KVi57  
已选择范围 ~&8ag`  
(sSMH6iCif  
     文件名 J:\12 Music*音乐\2008 The Essential Michael Jackson [3.0] 3CD (US - 88697 30985 2)\CD1\CDImage.wav  Gqvj  
of!Bz  
     峰值电平 100.0 %  [R:\  
     抓取速度 7.1 X Uv?s<  
     范围质量 100.0 % :d\ne  
     复制 CRC 072EEBE1 h.+{cOA;n  
     复制成功 @y?<Kv}s  
)bN|*Bw3  
没有错误发生 7 $AEh+f  
"BSSA%u?c  
oj\av~cI  
AccurateRip 摘要 =D88jkQe"  
f44b=,Lry5  
音轨  1  精确地校准抓取  129)  [0D174C2C]  (AR v2) ` @.  
音轨  2  精确地校准抓取  130)  [F24DE14C]  (AR v2) $x_6 .AOZ,  
音轨  3  精确地校准抓取  127)  [03B6B926]  (AR v2) w#V{'{DKp  
音轨  4  精确地校准抓取  128)  [FCF991F2]  (AR v2) +)8,$1[p|  
音轨  5  精确地校准抓取  128)  [31F4CC55]  (AR v2) ~3p :jEM.[  
音轨  6  精确地校准抓取  128)  [17493048]  (AR v2) BLc&q)  
音轨  7  精确地校准抓取  127)  [9A0F6376]  (AR v2) I_vPGafMx  
音轨  8  精确地校准抓取  129)  [D3288CC1]  (AR v2) ;^QG>OP$  
音轨  9  精确地校准抓取  128)  [553A6026]  (AR v2) _Ju@<V$  
音轨 10  精确地校准抓取  130)  [C69F12D6]  (AR v2) 8<cD+Jtj  
音轨 11  精确地校准抓取  131)  [26C97D8B]  (AR v2) HS1Gy/6'  
音轨 12  精确地校准抓取  128)  [2E23951B]  (AR v2) M>Y ge~3  
音轨 13  精确地校准抓取  124)  [C5FB2189]  (AR v2) d'1 L#`?  
音轨 14  精确地校准抓取  124)  [35C427A0]  (AR v2) 3Q-i%7l  
音轨 15  精确地校准抓取  127)  [FA5584D0]  (AR v2) vo'=d"zm  
音轨 16  精确地校准抓取  127)  [245087A5]  (AR v2) y1DP`Ro  
音轨 17  精确地校准抓取  125)  [753159C9]  (AR v2) W/dl`UDY  
音轨 18  精确地校准抓取  126)  [001F0FF6]  (AR v2) CTu#KJ?j  
音轨 19  精确地校准抓取  124)  [F2A3EF33]  (AR v2) qMD!No  
音轨 20  精确地校准抓取  121)  [57493D9A]  (AR v2) AF5$U8jf  
音轨 21  精确地校准抓取  122)  [C6D6A423]  (AR v2) )9sRDNr  
QN=a{  
所有音轨精确校准抓取 S4RvWTtQV  
@WIcH:_w-  
状态报告结尾
2ye^mJ17  
[jl'5ld  
链接:http://pan.baidu.com/s/1jICuOpo 密码: b-e3i;T!}~  
此帖售价 20 金钱,已有 12 人购买 [记录] [购买]
购买后,将显示帖子中所有出售内容。
若发现会员采用欺骗的方法获取财富,请立刻举报,我们会对会员处以2-N倍的罚金,严重者封掉ID!
此段为出售的内容,购买后显示
离线lifan_npl

发帖
2225
金钱
31745
威望
853
贡献值
430
交易币
2606
只看该作者 1楼 发表于: 2016-10-08
谢谢分享
我的淘宝店:
http://shop63152617.taobao.com  
离线耶稣

发帖
7218
金钱
278966
威望
2546
贡献值
1687
交易币
11385
只看该作者 2楼 发表于: 2016-10-08
so good!! Dp4\rps  
thanks.




发帖
2769
金钱
30922
威望
622
贡献值
39
交易币
430
只看该作者 3楼 发表于: 2016-10-09
曲目众多

离线wannam

发帖
2703
金钱
87101
威望
382
贡献值
189
交易币
3346
只看该作者 4楼 发表于: 2016-10-09
谢谢楼主分享!太赞了!
离线魏聪

发帖
168
金钱
2713
威望
41
贡献值
21
交易币
103
只看该作者 5楼 发表于: 2016-10-09
楼主每次都能带来郑涵
离线小李

发帖
240
金钱
1125
威望
9
贡献值
8
交易币
212
只看该作者 6楼 发表于: 2016-10-09
仔细听听看

发帖
592
金钱
9140
威望
51
贡献值
44
交易币
769
只看该作者 7楼 发表于: 2016-10-11
楼主能做份MP3吗?
离线mjghosts

发帖
8263
金钱
219674
威望
9187
贡献值
2734
交易币
4798
只看该作者 8楼 发表于: 2016-10-11
回 迈迈世界2014 的帖子
迈迈世界2014:楼主能做份MP3吗? (2016-10-11 15:13)  wo7N7R5  
E<D+)A  
MP3可以自己弄吧~
离线小李

发帖
240
金钱
1125
威望
9
贡献值
8
交易币
212
只看该作者 9楼 发表于: 2016-10-12
这个碟音质一般,都统一化了音量,均衡,强度等,有的歌曲不自然. UB a-  
如SAY SAY SAY,听听这个,在对比2015那个版本,就会觉得15年的版本听起来舒服.
1条评分金钱+1
mjghosts 金钱 +1 同感   毕竟~歌曲年份跨度太大了  不统一化的话整碟下来听感也会怪 2016-10-15
快速回复
限100 字节
 
上一个 下一个