论坛风格切换切换到宽版
  • 1542阅读
  • 17回复

[亲传][Comp] 2008 The Essential [3.0] 3CD (US - 88697 30985 2) - WAV整轨 ♬by幽灵 [复制链接]

上一主题 下一主题
离线mjghosts
 

发帖
8256
金钱
219309
威望
9187
贡献值
2734
交易币
4791
只看楼主 倒序阅读 楼主  发表于: 2016-10-08
— 本帖被 mjghosts 执行加亮操作(2016-10-08) —
*美国2008年再版,比2005年的版本加了一碟,故称3.0版本。CD完美精确校准抓轨!* \@n/L{}(@  
V'?nS&,i  
注:独家整理,转载请注明出处!EAC无损整轨(压缩包内含CD图片) )'<zC  
%F/tbXy{  
解压密码:www.mjsunny.com
=XS'V*  
9VY_gi=vL  
UX9o  
O&0R ~<n  
n(+:l'#HJ  
Tracklist: Vqr&)i"b$  
1-01 The Jackson 5 I Want You Back 2:58 \3/9lE|gh  
1-02 The Jackson 5 ABC 2:57 -wt2ydzos  
1-03 The Jackson 5 The Love You Save 3:05 H6eGLg={  
1-04 Got To Be There 3:25 \v_C7R;&  
1-05 Rockin' Robin 2:32 EUkNh>U?  
1-06 Ben 2:46 nz\fN?q  
1-07 The Jacksons Enjoy Yourself 3:21 F{ ,O+\  
1-08 The Jacksons Blame It On The Boogie 3:30 p/~kw:I  
1-09 The Jacksons Shake Your Body (Down To The Ground) 3:44 k;5}@3iQ  
1-10 Don't Stop 'Til You Get Enough 5:51 [ )~@NN  
1-11 Rock With You 3:23 1,'^BgI,  
1-12 Off The Wall 3:45 |"w<CK lQ  
1-13 She's Out Of My Life 3:37 d/rz0L  
1-14 Can You Feel It 3:50 "IJMvTmj  
1-15 The Girl Is Mine 3:41 ^) ^|;C\`  
1-16 Billie Jean 4:52 ]Wt6V^M'@  
1-17 Beat It 4:18 N%|Vzc  
1-18 Wanna Be Startin' Somethin' 4:17 ur,"K' w  
1-19 Human Nature 3:45 -L3 |9k  
1-20 P.Y.T. (Pretty Young Thing) 3:58 m<,G:?RM  
1-21 Thriller 5:12 <Dj$0g  
} .H Fm'p  
2-01 Bad 4:07 "kBqY+:Cn  
2-02 I Just Can't Stop Loving You 4:11 @+\S!o3m  
2-03 Leave Me Alone 4:40 M$]O=2h+2  
2-04 The Way You Make Me Feel 4:26 !,6v=n[Nz  
2-05 Man In The Mirror 5:18 x'@32gv  
2-06 Dirty Diana 4:40 ra9cD"/J &  
2-07 Another Part Of Me 3:46 %7NsBR!y  
2-08 Smooth Criminal 4:17 C?w <$DU  
2-09 Black Or White 3:22 q6C6PPc  
2-10 Heal The World 6:25 +9CEC1-l  
2-11 Remember The Time 3:59 SUH mBo"}  
2-12 In The Closet 4:48 Si?$\H*:  
2-13 Who Is It 3:59 w=f0*$ue+w  
2-14 Will You Be There 3:40 DE*MdfP0  
2-15 Dangerous 6:59 mD9STuA$H  
2-16 You Are Not Alone 4:55 BJ~ ivT<  
2-17 You Rock My World 5:08 ?n!lUr$:y  
31WZJm^  
3-1 Can't Get Outta The Rain 4:06 XJe/tR  
3-2 Say, Say, Say 3:56 yL.^ =  
3-3 Jam 5:38 8$ic~eJ  
3-4 They Don't Care About Us 4:46 _74UdD{^o  
3-5 Blood On The Dance Floor 4:14 %VWp&a8  
3-6 Stranger In Moscow 5:45 RK-x?ZYH'  
3-7 Butterflies 4:41
FuuS"G,S  
Wab.|\c  
Exact Audio Copy V1.0 beta 6 from 9. April 2015 Ihg~Q4t  
Ff<)4`J  
EAC 抓取日志文件从6. 十月 2016, 3:38 IBET'!j4"  
SKR;wu  
Michael Jackson / The Essential Michael Jackson <HF-2?`  
Q]#Z9H  
使用驱动器  :MATSHITADVD-RAM UJ890AS   Adapter: 1  ID: 1 r6t&E%b  
jNc<~{/  
读取模式      : 可靠Secure tU:FX[&?R  
使用精确流     : 是 zfjw;sUX  
清空音频缓存    : 否 2Va4i7"X\  
使用 C2 指示器 : 是 YwAnqAg  
uRQ_'l  
读取偏移校正:               : 102 c_1/W{  
读取 Lead-In 和 Lead-Out : 否 Nn#u%xvJt  
用静音填充抓取中丢失偏移的采样       : 是 9;KJr[FQV  
去除首尾静音块               : 否 /cY^]VLe  
在CRC 计算中使用了空样本       : 是 r4;Bu<PQN1  
已用接口                  : Win NT 及 2000 本地 Win32 接口 O9]\Q@M.  
h~miP7,c<u  
所用输出模式: : 内部 WAV 函数 n Ga1a  
样本格式    : 44.100 Hz; 16 Bit; 立体声 . U/k<v<)6  
SrZ50Se  
-g~~]K%  
已抓取 CD 的 TOC gX*K&*q   
ZvH{wt   
     音轨 |    起始    |    长度    |  起始扇区  |  结束扇区   7a<_BJXx  
    -------------------------------------------- RWikJ   
      1 |  0:00.00 |  2:58.57 |      0 |  13406 ZQ[~*)  
      2 |  2:58.57 |  2:57.10 |  13407 |  26691 k7Oy5$##  
      3 |  5:55.67 |  3:05.08 |  26692 |  40574 |nm2Uy/0  
      4 |  9:01.00 |  3:25.02 |  40575 |  55951 IMaYEO[  
      5 | 12:26.02 |  2:32.62 |  55952 |  67413 [; @):28"  
      6 | 14:58.64 |  2:46.18 |  67414 |  79881 A'~#9@l<  
      7 | 17:45.07 |  3:21.35 |  79882 |  94991 xgs@gw7!n0  
      8 | 21:06.42 |  3:30.40 |  94992 | 110781 p z @km  
      9 | 24:37.07 |  3:44.67 | 110782 | 127648 SS0_P jKz  
     10 | 28:21.74 |  5:51.26 | 127649 | 153999 1b+h>.gWar  
     11 | 34:13.25 |  3:23.05 | 154000 | 169229 6Wb!J>93  
     12 | 37:36.30 |  3:45.42 | 169230 | 186146 u ]SZ{[ e  
     13 | 41:21.72 |  3:37.21 | 186147 | 202442 c l9$g7  
     14 | 44:59.18 |  3:50.58 | 202443 | 219750 CMFC"eS e  
     15 | 48:50.01 |  3:41.68 | 219751 | 236393 +2El  
     16 | 52:31.69 |  4:52.72 | 236394 | 258365 c|+y9(0|y  
     17 | 57:24.66 |  4:18.03 | 258366 | 277718 JLml#Pu4  
     18 | 61:42.69 |  4:17.32 | 277719 | 297025 y _6r/z^  
     19 | 66:00.26 |  3:45.04 | 297026 | 313904 1+S g"?8  
     20 | 69:45.30 |  3:58.44 | 313905 | 331798 /\nJ  
     21 | 73:43.74 |  5:12.31 | 331799 | 355229 ^kc>m$HY  
',:3>{9  
+Kxe ymwr2  
范围状态及错误 @?'t@P:4  
EI[e+@J  
已选择范围  Oz"@yL}  
)^*9oqQ  
     文件名 J:\12 Music*音乐\2008 The Essential Michael Jackson [3.0] 3CD (US - 88697 30985 2)\CD1\CDImage.wav D#vn {^c8O  
N7RG5?  
     峰值电平 100.0 % ,H#qgnp  
     抓取速度 7.1 X #T gz,e9  
     范围质量 100.0 % g%fJyk'  
     复制 CRC 072EEBE1 R%]9y]HQ  
     复制成功 4}r\E,`*X  
Z+`{JE#  
没有错误发生 o?Tp=Ge  
:}3qZX  
 8H%I|fm  
AccurateRip 摘要 G4iLCcjY  
< jocfTBk  
音轨  1  精确地校准抓取  129)  [0D174C2C]  (AR v2) EBL,E:_)  
音轨  2  精确地校准抓取  130)  [F24DE14C]  (AR v2) neY=:9  
音轨  3  精确地校准抓取  127)  [03B6B926]  (AR v2) J&U0y  
音轨  4  精确地校准抓取  128)  [FCF991F2]  (AR v2) Z"%O&O  
音轨  5  精确地校准抓取  128)  [31F4CC55]  (AR v2) `=l{kBZT|  
音轨  6  精确地校准抓取  128)  [17493048]  (AR v2) ONe!'a0  
音轨  7  精确地校准抓取  127)  [9A0F6376]  (AR v2) >=W#z  
音轨  8  精确地校准抓取  129)  [D3288CC1]  (AR v2) >/`c mNmb  
音轨  9  精确地校准抓取  128)  [553A6026]  (AR v2) )~mc1 U`b  
音轨 10  精确地校准抓取  130)  [C69F12D6]  (AR v2) jv=f@:[`I  
音轨 11  精确地校准抓取  131)  [26C97D8B]  (AR v2) =yhfL2`aw  
音轨 12  精确地校准抓取  128)  [2E23951B]  (AR v2) &r5%WRzpYT  
音轨 13  精确地校准抓取  124)  [C5FB2189]  (AR v2) 'L59\y8H  
音轨 14  精确地校准抓取  124)  [35C427A0]  (AR v2) -t'oW*kdL  
音轨 15  精确地校准抓取  127)  [FA5584D0]  (AR v2) H08YM P>dc  
音轨 16  精确地校准抓取  127)  [245087A5]  (AR v2) Q09~vFBg  
音轨 17  精确地校准抓取  125)  [753159C9]  (AR v2) >,vW  
音轨 18  精确地校准抓取  126)  [001F0FF6]  (AR v2) ^F9zS `Yz2  
音轨 19  精确地校准抓取  124)  [F2A3EF33]  (AR v2) &-Er n/[  
音轨 20  精确地校准抓取  121)  [57493D9A]  (AR v2) c}s3c >`d  
音轨 21  精确地校准抓取  122)  [C6D6A423]  (AR v2) v~QZO4[ '  
n:kxG  
所有音轨精确校准抓取 hmk5 1  
1uzfV)  
状态报告结尾
\?}.+v  
aW5~z^I  
链接:http://pan.baidu.com/s/1jICuOpo 密码: EB,>k1IJ  
此帖售价 20 金钱,已有 11 人购买 [记录] [购买]
购买后,将显示帖子中所有出售内容。
若发现会员采用欺骗的方法获取财富,请立刻举报,我们会对会员处以2-N倍的罚金,严重者封掉ID!
此段为出售的内容,购买后显示
离线lifan_npl

发帖
2212
金钱
31692
威望
853
贡献值
430
交易币
2593
只看该作者 1楼 发表于: 2016-10-08
谢谢分享
我的淘宝店:
http://shop63152617.taobao.com  
离线耶稣

发帖
7193
金钱
276356
威望
2517
贡献值
1670
交易币
11324
只看该作者 2楼 发表于: 2016-10-08
so good!! E ekX|*  
thanks.




发帖
2751
金钱
30829
威望
621
贡献值
38
交易币
408
只看该作者 3楼 发表于: 2016-10-09
曲目众多

离线wannam

发帖
2703
金钱
87033
威望
382
贡献值
189
交易币
3346
只看该作者 4楼 发表于: 2016-10-09
谢谢楼主分享!太赞了!
离线魏聪

发帖
168
金钱
2713
威望
41
贡献值
21
交易币
103
只看该作者 5楼 发表于: 2016-10-09
楼主每次都能带来郑涵
离线小李

发帖
240
金钱
1125
威望
9
贡献值
8
交易币
212
只看该作者 6楼 发表于: 2016-10-09
仔细听听看

发帖
562
金钱
9466
威望
51
贡献值
44
交易币
739
只看该作者 7楼 发表于: 2016-10-11
楼主能做份MP3吗?
离线mjghosts

发帖
8256
金钱
219309
威望
9187
贡献值
2734
交易币
4791
只看该作者 8楼 发表于: 2016-10-11
回 迈迈世界2014 的帖子
迈迈世界2014:楼主能做份MP3吗? (2016-10-11 15:13)  Oufdi3h  
LsV?b*^(p  
MP3可以自己弄吧~
离线小李

发帖
240
金钱
1125
威望
9
贡献值
8
交易币
212
只看该作者 9楼 发表于: 2016-10-12
这个碟音质一般,都统一化了音量,均衡,强度等,有的歌曲不自然. x<'(b7{U0  
如SAY SAY SAY,听听这个,在对比2015那个版本,就会觉得15年的版本听起来舒服.
1条评分金钱+1
mjghosts 金钱 +1 同感   毕竟~歌曲年份跨度太大了  不统一化的话整碟下来听感也会怪 2016-10-15
快速回复
限100 字节
 
上一个 下一个