论坛风格切换切换到宽版
  • 911阅读
  • 15回复

[亲传][Comp] 2008 The Essential [3.0] 3CD (US - 88697 30985 2) - WAV整轨 ♬by幽灵 [复制链接]

上一主题 下一主题
离线mjghosts
 

发帖
8258
金钱
212473
威望
9166
贡献值
2715
交易币
4709
只看楼主 倒序阅读 楼主  发表于: 2016-10-08
— 本帖被 mjghosts 执行加亮操作(2016-10-08) —
*美国2008年再版,比2005年的版本加了一碟,故称3.0版本。CD完美精确校准抓轨!* SQ,?N XZ  
?;YC'bF  
注:独家整理,转载请注明出处!EAC无损整轨(压缩包内含CD图片) p47S^gW  
-5>-%13  
解压密码:www.mjsunny.com
g>d;|sK  
E+"dqSI/v  
{u!)y?}I-  
D47R  
y~ G.V,0  
Tracklist: LAx4Xp/  
1-01 The Jackson 5 I Want You Back 2:58 M L7 \BT  
1-02 The Jackson 5 ABC 2:57 .0u/|Yx  
1-03 The Jackson 5 The Love You Save 3:05 ~Au,#7X)  
1-04 Got To Be There 3:25 <?D[9Mk$  
1-05 Rockin' Robin 2:32 Vh3Ijn  
1-06 Ben 2:46 'B83m#HR#  
1-07 The Jacksons Enjoy Yourself 3:21 ,1q_pep~?%  
1-08 The Jacksons Blame It On The Boogie 3:30 hA 3HVP_  
1-09 The Jacksons Shake Your Body (Down To The Ground) 3:44 5`~mmAUk;`  
1-10 Don't Stop 'Til You Get Enough 5:51 $&|y<Y=  
1-11 Rock With You 3:23 G{aT2c  
1-12 Off The Wall 3:45 NT%W;)6m9  
1-13 She's Out Of My Life 3:37 Z'pQ^MO  
1-14 Can You Feel It 3:50 ^n#1<K[E  
1-15 The Girl Is Mine 3:41 )T907I|  
1-16 Billie Jean 4:52 A6<C-1 N}j  
1-17 Beat It 4:18 v,NHQyk  
1-18 Wanna Be Startin' Somethin' 4:17 Y9SGRV(  
1-19 Human Nature 3:45 fBBa4"OK=  
1-20 P.Y.T. (Pretty Young Thing) 3:58 gOT+%Ab{_  
1-21 Thriller 5:12 ;S$Ll*f>D  
>Sk[vI0Y  
2-01 Bad 4:07 3HG;!D~m;  
2-02 I Just Can't Stop Loving You 4:11 1,2EhfX|s  
2-03 Leave Me Alone 4:40 J.*XXM- V  
2-04 The Way You Make Me Feel 4:26 Hyk'c't_O  
2-05 Man In The Mirror 5:18 oqkVYlE  
2-06 Dirty Diana 4:40 cl[!`Z  
2-07 Another Part Of Me 3:46 hPm>tV2X  
2-08 Smooth Criminal 4:17 ZU'!iU|8  
2-09 Black Or White 3:22 ,a|@d} U  
2-10 Heal The World 6:25 <~Q i67I  
2-11 Remember The Time 3:59 4|J[Jdj  
2-12 In The Closet 4:48 =y ]Jl,_.  
2-13 Who Is It 3:59 8 ,}ikOZ?  
2-14 Will You Be There 3:40 _]#klL  
2-15 Dangerous 6:59 {g F0Xm%  
2-16 You Are Not Alone 4:55 w*LbH]l<-  
2-17 You Rock My World 5:08 W*T{,M@Y  
_+QwREP  
3-1 Can't Get Outta The Rain 4:06 J%v5d*$.  
3-2 Say, Say, Say 3:56 =G>(~+EA  
3-3 Jam 5:38 -zfoRU v  
3-4 They Don't Care About Us 4:46 8[5|_Eh+  
3-5 Blood On The Dance Floor 4:14 u}jrfKd E  
3-6 Stranger In Moscow 5:45 UmP'L!  
3-7 Butterflies 4:41
cdp0!W4Gi  
}B)jq`a?|\  
Exact Audio Copy V1.0 beta 6 from 9. April 2015 qi=3L  
%g^" ]  
EAC 抓取日志文件从6. 十月 2016, 3:38 RO oE%%8I  
h~ha  
Michael Jackson / The Essential Michael Jackson XZO<dhZX:  
|R~;&x:  
使用驱动器  :MATSHITADVD-RAM UJ890AS   Adapter: 1  ID: 1 Nmf#`+7gCI  
kPJ~X0Fr{t  
读取模式      : 可靠Secure '3%*U*I  
使用精确流     : 是 1UyH0`&  
清空音频缓存    : 否 bX{PSjD  
使用 C2 指示器 : 是 Ph\F'xROe  
Ap,q `S  
读取偏移校正:               : 102 +2(Pc JR~  
读取 Lead-In 和 Lead-Out : 否 2^ kn5  
用静音填充抓取中丢失偏移的采样       : 是 GD/nR4$  
去除首尾静音块               : 否 lMPbLF%_  
在CRC 计算中使用了空样本       : 是 Xa6qvg7/  
已用接口                  : Win NT 及 2000 本地 Win32 接口 -*5yY#fw}  
)%1&/uN)  
所用输出模式: : 内部 WAV 函数 n/:Z{  
样本格式    : 44.100 Hz; 16 Bit; 立体声 OQ 0b$qw  
*,_2hvlz  
!vi4* @:  
已抓取 CD 的 TOC + >Fv*lux  
y0lLFe~  
     音轨 |    起始    |    长度    |  起始扇区  |  结束扇区   uV#-8a5!  
    -------------------------------------------- 4 {uJ||!  
      1 |  0:00.00 |  2:58.57 |      0 |  13406 oKZ[0(4<  
      2 |  2:58.57 |  2:57.10 |  13407 |  26691 MX%|hIOpr  
      3 |  5:55.67 |  3:05.08 |  26692 |  40574 vWZ>Hf]`L  
      4 |  9:01.00 |  3:25.02 |  40575 |  55951 8JFnB(3xU  
      5 | 12:26.02 |  2:32.62 |  55952 |  67413 @*AYm-k  
      6 | 14:58.64 |  2:46.18 |  67414 |  79881 zSX'  
      7 | 17:45.07 |  3:21.35 |  79882 |  94991 T(t <Ay?c  
      8 | 21:06.42 |  3:30.40 |  94992 | 110781 #w[q.+A  
      9 | 24:37.07 |  3:44.67 | 110782 | 127648 woC FN1W  
     10 | 28:21.74 |  5:51.26 | 127649 | 153999 Il tg0`  
     11 | 34:13.25 |  3:23.05 | 154000 | 169229 4rGO8R  
     12 | 37:36.30 |  3:45.42 | 169230 | 186146 FN8=YUYK%  
     13 | 41:21.72 |  3:37.21 | 186147 | 202442 _ cHV3cz  
     14 | 44:59.18 |  3:50.58 | 202443 | 219750 V8|q"UX  
     15 | 48:50.01 |  3:41.68 | 219751 | 236393 J_((o  
     16 | 52:31.69 |  4:52.72 | 236394 | 258365 r5fz6"  
     17 | 57:24.66 |  4:18.03 | 258366 | 277718 bl+@}+A  
     18 | 61:42.69 |  4:17.32 | 277719 | 297025 )b:~kuHi  
     19 | 66:00.26 |  3:45.04 | 297026 | 313904 aZ`_W|  
     20 | 69:45.30 |  3:58.44 | 313905 | 331798 U{:(j5m  
     21 | 73:43.74 |  5:12.31 | 331799 | 355229 { "@b`  
&j~|3  
?}lpo; $  
范围状态及错误 (gJ )]/n  
94k)a8-!  
已选择范围 hhgz=7Y  
6+f>XL#w  
     文件名 J:\12 Music*音乐\2008 The Essential Michael Jackson [3.0] 3CD (US - 88697 30985 2)\CD1\CDImage.wav sz2SWk^&  
?e|:6a+[f  
     峰值电平 100.0 % :iOHc-x  
     抓取速度 7.1 X eYX_V6c  
     范围质量 100.0 % iYQy#kO  
     复制 CRC 072EEBE1 a4qpnr]0  
     复制成功 l|tp0[  
yc4f\0B/  
没有错误发生 `L[32B9  
>W]"a3E  
H_f2:Za  
AccurateRip 摘要 Q pc^qP^-  
n.UM+2G  
音轨  1  精确地校准抓取  129)  [0D174C2C]  (AR v2) @!NHeH=pR  
音轨  2  精确地校准抓取  130)  [F24DE14C]  (AR v2) {QkH%jj  
音轨  3  精确地校准抓取  127)  [03B6B926]  (AR v2) }'v ?Qq  
音轨  4  精确地校准抓取  128)  [FCF991F2]  (AR v2) %9)J-B  
音轨  5  精确地校准抓取  128)  [31F4CC55]  (AR v2) TmAb! Y|F  
音轨  6  精确地校准抓取  128)  [17493048]  (AR v2) vrx3O  
音轨  7  精确地校准抓取  127)  [9A0F6376]  (AR v2) zb)SlR  
音轨  8  精确地校准抓取  129)  [D3288CC1]  (AR v2) I;Y`rGj  
音轨  9  精确地校准抓取  128)  [553A6026]  (AR v2) [+7X&B  
音轨 10  精确地校准抓取  130)  [C69F12D6]  (AR v2) u#|Jl|aT  
音轨 11  精确地校准抓取  131)  [26C97D8B]  (AR v2) >maz t=,  
音轨 12  精确地校准抓取  128)  [2E23951B]  (AR v2) >9|+F [Fc  
音轨 13  精确地校准抓取  124)  [C5FB2189]  (AR v2) P*sCrGO%  
音轨 14  精确地校准抓取  124)  [35C427A0]  (AR v2) 6E4L4Vb  
音轨 15  精确地校准抓取  127)  [FA5584D0]  (AR v2) j`l K}  
音轨 16  精确地校准抓取  127)  [245087A5]  (AR v2) 'J$NW  
音轨 17  精确地校准抓取  125)  [753159C9]  (AR v2) aQ\O ]gCE  
音轨 18  精确地校准抓取  126)  [001F0FF6]  (AR v2) Q)&Ztw<  
音轨 19  精确地校准抓取  124)  [F2A3EF33]  (AR v2) H;E{Fnarv  
音轨 20  精确地校准抓取  121)  [57493D9A]  (AR v2) +__Rk1CVh  
音轨 21  精确地校准抓取  122)  [C6D6A423]  (AR v2) !^\/ 1^  
ZS]e}]Zwp  
所有音轨精确校准抓取 [XK"$C]jHJ  
H++rwVwj#h  
状态报告结尾
^xrR3m*d  
EzaOg|  
链接:http://pan.baidu.com/s/1jICuOpo 密码: EC0auB7G  
此帖售价 20 金钱,已有 9 人购买 [记录] [购买]
购买后,将显示帖子中所有出售内容。
若发现会员采用欺骗的方法获取财富,请立刻举报,我们会对会员处以2-N倍的罚金,严重者封掉ID!
此段为出售的内容,购买后显示
离线lifan_npl

发帖
2156
金钱
17106
威望
782
贡献值
347
交易币
2509
只看该作者 1楼 发表于: 2016-10-08
谢谢分享
我的淘宝:
http://shop63152617.taobao.com  
在线耶稣

发帖
7066
金钱
246535
威望
2439
贡献值
1613
交易币
11009
只看该作者 2楼 发表于: 2016-10-08
so good!! 'i%Azzv  
thanks.





发帖
2708
金钱
28329
威望
619
贡献值
36
交易币
357
只看该作者 3楼 发表于: 2016-10-09
曲目众多

离线wannam

发帖
2698
金钱
86901
威望
382
贡献值
189
交易币
3341
只看该作者 4楼 发表于: 2016-10-09
谢谢楼主分享!太赞了!
离线魏聪

发帖
168
金钱
2713
威望
41
贡献值
21
交易币
103
只看该作者 5楼 发表于: 2016-10-09
楼主每次都能带来郑涵
离线小李

发帖
225
金钱
150
威望
99
贡献值
8
交易币
197
只看该作者 6楼 发表于: 2016-10-09
仔细听听看

发帖
530
金钱
9099
威望
49
贡献值
42
交易币
699
只看该作者 7楼 发表于: 2016-10-11
楼主能做份MP3吗?
离线mjghosts

发帖
8258
金钱
212473
威望
9166
贡献值
2715
交易币
4709
只看该作者 8楼 发表于: 2016-10-11
回 迈迈世界2014 的帖子
迈迈世界2014:楼主能做份MP3吗? (2016-10-11 15:13)   10DS  
qD9B[s8  
MP3可以自己弄吧~
离线小李

发帖
225
金钱
150
威望
99
贡献值
8
交易币
197
只看该作者 9楼 发表于: 2016-10-12
这个碟音质一般,都统一化了音量,均衡,强度等,有的歌曲不自然. hIw*dob  
如SAY SAY SAY,听听这个,在对比2015那个版本,就会觉得15年的版本听起来舒服.
1条评分金钱+1
mjghosts 金钱 +1 同感   毕竟~歌曲年份跨度太大了  不统一化的话整碟下来听感也会怪 2016-10-15
快速回复
限100 字节
 
上一个 下一个