论坛风格切换切换到宽版
  • 1332阅读
  • 16回复

[亲传][Comp] 2008 The Essential [3.0] 3CD (US - 88697 30985 2) - WAV整轨 ♬by幽灵 [复制链接]

上一主题 下一主题
离线mjghosts
 

发帖
8244
金钱
217720
威望
9174
贡献值
2723
交易币
4755
只看楼主 倒序阅读 楼主  发表于: 2016-10-08
— 本帖被 mjghosts 执行加亮操作(2016-10-08) —
*美国2008年再版,比2005年的版本加了一碟,故称3.0版本。CD完美精确校准抓轨!* N,9~J"z  
#H~$^L   
注:独家整理,转载请注明出处!EAC无损整轨(压缩包内含CD图片) ~qL/P 5*+  
L?8OWLjRy  
解压密码:www.mjsunny.com
6yYd~|T.Fl  
6=Q6J  
+",`Mb  
EX W?)_pg  
"<&o ;x<  
Tracklist: Pq-@waH3  
1-01 The Jackson 5 I Want You Back 2:58 vu*{+YpH  
1-02 The Jackson 5 ABC 2:57 l9y%@7  
1-03 The Jackson 5 The Love You Save 3:05 P6v@ Sn  
1-04 Got To Be There 3:25 [>j.x2=  
1-05 Rockin' Robin 2:32 Mcd K!V  
1-06 Ben 2:46 iN@|08  
1-07 The Jacksons Enjoy Yourself 3:21 >Ij# +=  
1-08 The Jacksons Blame It On The Boogie 3:30 e5ww~%,  
1-09 The Jacksons Shake Your Body (Down To The Ground) 3:44 hGUQdTNP  
1-10 Don't Stop 'Til You Get Enough 5:51 4tapQgj24  
1-11 Rock With You 3:23 .e S* F  
1-12 Off The Wall 3:45 }L5;=A']S  
1-13 She's Out Of My Life 3:37 z7*mT}Q  
1-14 Can You Feel It 3:50 rV I-Yb  
1-15 The Girl Is Mine 3:41 Oo%%f+  
1-16 Billie Jean 4:52 _1\H{x  
1-17 Beat It 4:18 C2J@]&  
1-18 Wanna Be Startin' Somethin' 4:17 q +c~Bd  
1-19 Human Nature 3:45 qI\B;&hr(  
1-20 P.Y.T. (Pretty Young Thing) 3:58 O@KAh5EB  
1-21 Thriller 5:12 \OF"hPq  
t*!Q9GC_  
2-01 Bad 4:07 _&F*4t!n_  
2-02 I Just Can't Stop Loving You 4:11 xV5eKV  
2-03 Leave Me Alone 4:40 &#[6a&9#[A  
2-04 The Way You Make Me Feel 4:26 3sBu`R*hk  
2-05 Man In The Mirror 5:18 x-s]3'!L  
2-06 Dirty Diana 4:40 &r !*Y&  
2-07 Another Part Of Me 3:46 k:kx=K5=4  
2-08 Smooth Criminal 4:17 c27A)`   
2-09 Black Or White 3:22 =P<7tsSuoK  
2-10 Heal The World 6:25 iOzY8M+N(  
2-11 Remember The Time 3:59 72>/@  
2-12 In The Closet 4:48 s@vHU4  
2-13 Who Is It 3:59 vEIDf{  
2-14 Will You Be There 3:40 RZV6\ j  
2-15 Dangerous 6:59 c~a:i=y67  
2-16 You Are Not Alone 4:55 t  Tky  
2-17 You Rock My World 5:08 ')Drv)L  
2}P?N  
3-1 Can't Get Outta The Rain 4:06 &nk[gb o\  
3-2 Say, Say, Say 3:56 s6|Ev IVM  
3-3 Jam 5:38 rG _T!']~  
3-4 They Don't Care About Us 4:46 9K\A4F}  
3-5 Blood On The Dance Floor 4:14 7n,*3;I  
3-6 Stranger In Moscow 5:45 8%qHy1  
3-7 Butterflies 4:41
}6;v`1Hr  
2cy: l03  
Exact Audio Copy V1.0 beta 6 from 9. April 2015 "Cz8nG  
y6 bl&_  
EAC 抓取日志文件从6. 十月 2016, 3:38 a9hK8e  
k?%?EsR  
Michael Jackson / The Essential Michael Jackson .Du-~N4\  
TC7Rw}jF  
使用驱动器  :MATSHITADVD-RAM UJ890AS   Adapter: 1  ID: 1 W$g<nhLK  
3oH.1M/  
读取模式      : 可靠Secure Z2HH&3HA  
使用精确流     : 是 8.9Z0  
清空音频缓存    : 否 6Qo YX] .  
使用 C2 指示器 : 是 ;L <D-=  
e XB'>#&s  
读取偏移校正:               : 102 cPFs K*w  
读取 Lead-In 和 Lead-Out : 否 P!c.!8C$  
用静音填充抓取中丢失偏移的采样       : 是 Rm i4ZPb.  
去除首尾静音块               : 否 Pv- i.  
在CRC 计算中使用了空样本       : 是 NNOemTh  
已用接口                  : Win NT 及 2000 本地 Win32 接口 /6K9? /  
3} Xf  
所用输出模式: : 内部 WAV 函数 yYdow.b!  
样本格式    : 44.100 Hz; 16 Bit; 立体声 dH5 Go9`~R  
5_H`6-q  
[>IV#6$  
已抓取 CD 的 TOC sGAOK%28  
h4 X=d5qd  
     音轨 |    起始    |    长度    |  起始扇区  |  结束扇区   rf ?\s/#OY  
    -------------------------------------------- H;1_"  
      1 |  0:00.00 |  2:58.57 |      0 |  13406 e|-%-juI  
      2 |  2:58.57 |  2:57.10 |  13407 |  26691 }wIF$v?M  
      3 |  5:55.67 |  3:05.08 |  26692 |  40574 >WcOY7  
      4 |  9:01.00 |  3:25.02 |  40575 |  55951 1(diG&  
      5 | 12:26.02 |  2:32.62 |  55952 |  67413 pXhN?joe  
      6 | 14:58.64 |  2:46.18 |  67414 |  79881 Clo}kdkd_  
      7 | 17:45.07 |  3:21.35 |  79882 |  94991 H "; !A=0  
      8 | 21:06.42 |  3:30.40 |  94992 | 110781 .gJv})Vi  
      9 | 24:37.07 |  3:44.67 | 110782 | 127648 N?{.}-Q  
     10 | 28:21.74 |  5:51.26 | 127649 | 153999 \gW6E^  
     11 | 34:13.25 |  3:23.05 | 154000 | 169229 .5E6 MF  
     12 | 37:36.30 |  3:45.42 | 169230 | 186146 ZWb\^N  
     13 | 41:21.72 |  3:37.21 | 186147 | 202442 KLpFW}  
     14 | 44:59.18 |  3:50.58 | 202443 | 219750 G@4n]c_  
     15 | 48:50.01 |  3:41.68 | 219751 | 236393 ,ieew`  
     16 | 52:31.69 |  4:52.72 | 236394 | 258365 wu;^fL  
     17 | 57:24.66 |  4:18.03 | 258366 | 277718 J93@\b  
     18 | 61:42.69 |  4:17.32 | 277719 | 297025 N+zR7`AG8  
     19 | 66:00.26 |  3:45.04 | 297026 | 313904 /y3Lc.-  
     20 | 69:45.30 |  3:58.44 | 313905 | 331798  bE%*ZB  
     21 | 73:43.74 |  5:12.31 | 331799 | 355229 >l=;6QL  
3a?dNwM@  
~kOXMLRg  
范围状态及错误 uC5W1LyI  
/MbWS(RT  
已选择范围 7xfN}iHG  
#RWmP$+#=  
     文件名 J:\12 Music*音乐\2008 The Essential Michael Jackson [3.0] 3CD (US - 88697 30985 2)\CD1\CDImage.wav <(x!P=NM-  
S!g0J}.z  
     峰值电平 100.0 % |K'7BK_^J  
     抓取速度 7.1 X BF(Kaf;<t.  
     范围质量 100.0 % ke5_lr(  
     复制 CRC 072EEBE1 Q_FL8w9D~8  
     复制成功 OYY_@'D  
z{G@t0q  
没有错误发生 ziG]BZ  
k4BiH5\hA  
gpe-)hD@R  
AccurateRip 摘要 U66zm9 3&  
#{Gojg`5O  
音轨  1  精确地校准抓取  129)  [0D174C2C]  (AR v2) f*GdHUZ*  
音轨  2  精确地校准抓取  130)  [F24DE14C]  (AR v2) #>(h!lT_  
音轨  3  精确地校准抓取  127)  [03B6B926]  (AR v2) * 57y.](w  
音轨  4  精确地校准抓取  128)  [FCF991F2]  (AR v2) 4 n\dh<uY  
音轨  5  精确地校准抓取  128)  [31F4CC55]  (AR v2) Q.`O;D}x  
音轨  6  精确地校准抓取  128)  [17493048]  (AR v2) Z|dng6ck  
音轨  7  精确地校准抓取  127)  [9A0F6376]  (AR v2) ziBg'  
音轨  8  精确地校准抓取  129)  [D3288CC1]  (AR v2) vW:XM0  
音轨  9  精确地校准抓取  128)  [553A6026]  (AR v2) ]@UJ 8hDy  
音轨 10  精确地校准抓取  130)  [C69F12D6]  (AR v2) 8I*WVa$l  
音轨 11  精确地校准抓取  131)  [26C97D8B]  (AR v2) v3{[rK}  
音轨 12  精确地校准抓取  128)  [2E23951B]  (AR v2) B)cVbjTn  
音轨 13  精确地校准抓取  124)  [C5FB2189]  (AR v2) GMO|A.bzzN  
音轨 14  精确地校准抓取  124)  [35C427A0]  (AR v2) (e$/@3*  
音轨 15  精确地校准抓取  127)  [FA5584D0]  (AR v2) b#<@&0KE  
音轨 16  精确地校准抓取  127)  [245087A5]  (AR v2) [rt+KA  
音轨 17  精确地校准抓取  125)  [753159C9]  (AR v2) yIdM2#`u  
音轨 18  精确地校准抓取  126)  [001F0FF6]  (AR v2) z<rYh96uA  
音轨 19  精确地校准抓取  124)  [F2A3EF33]  (AR v2) u*NU MT2  
音轨 20  精确地校准抓取  121)  [57493D9A]  (AR v2) &E>zvRBQ  
音轨 21  精确地校准抓取  122)  [C6D6A423]  (AR v2) faVR %  
/}Z0\ ,  
所有音轨精确校准抓取 ;-koMD!2F  
y ~ A]  
状态报告结尾
{bUd"Tu  
*1L;%u| [  
链接:http://pan.baidu.com/s/1jICuOpo 密码: # Z*nc0C  
此帖售价 20 金钱,已有 10 人购买 [记录] [购买]
购买后,将显示帖子中所有出售内容。
若发现会员采用欺骗的方法获取财富,请立刻举报,我们会对会员处以2-N倍的罚金,严重者封掉ID!
此段为出售的内容,购买后显示
离线lifan_npl

发帖
2189
金钱
19354
威望
816
贡献值
395
交易币
2550
只看该作者 1楼 发表于: 2016-10-08
谢谢分享
我的淘宝:
http://shop63152617.taobao.com  
离线耶稣

发帖
7147
金钱
272109
威望
2491
贡献值
1655
交易币
11218
只看该作者 2楼 发表于: 2016-10-08
so good!! yjs5=\@  
thanks.





发帖
2735
金钱
31355
威望
620
贡献值
37
交易币
388
只看该作者 3楼 发表于: 2016-10-09
曲目众多

离线wannam

发帖
2702
金钱
87012
威望
382
贡献值
189
交易币
3345
只看该作者 4楼 发表于: 2016-10-09
谢谢楼主分享!太赞了!
离线魏聪

发帖
168
金钱
2713
威望
41
贡献值
21
交易币
103
只看该作者 5楼 发表于: 2016-10-09
楼主每次都能带来郑涵
离线小李

发帖
236
金钱
1405
威望
9
贡献值
8
交易币
208
只看该作者 6楼 发表于: 2016-10-09
仔细听听看

发帖
556
金钱
9437
威望
51
贡献值
44
交易币
733
只看该作者 7楼 发表于: 2016-10-11
楼主能做份MP3吗?
离线mjghosts

发帖
8244
金钱
217720
威望
9174
贡献值
2723
交易币
4755
只看该作者 8楼 发表于: 2016-10-11
回 迈迈世界2014 的帖子
迈迈世界2014:楼主能做份MP3吗? (2016-10-11 15:13)  iI5+P`sE&J  
T~BA)![  
MP3可以自己弄吧~
离线小李

发帖
236
金钱
1405
威望
9
贡献值
8
交易币
208
只看该作者 9楼 发表于: 2016-10-12
这个碟音质一般,都统一化了音量,均衡,强度等,有的歌曲不自然. -d+aV1n  
如SAY SAY SAY,听听这个,在对比2015那个版本,就会觉得15年的版本听起来舒服.
1条评分金钱+1
mjghosts 金钱 +1 同感   毕竟~歌曲年份跨度太大了  不统一化的话整碟下来听感也会怪 2016-10-15
快速回复
限100 字节
 
上一个 下一个