论坛风格切换切换到宽版
  • 512阅读
  • 10回复

[亲传][Single] 1988 3inch CD SPECIAL (JP - 15·8P-8017) - WAV整轨 ♬by幽灵 [复制链接]

上一主题 下一主题
在线mjghosts
 

发帖
8228
金钱
208462
威望
9161
贡献值
2712
交易币
4667
只看楼主 倒序阅读 楼主  发表于: 01-03
— 本帖被 mjghosts 执行加亮操作(2017-01-03) —
*88年日本特别企划3寸碟,收录加长版Billie Jean等罕见曲目!完美精确校准抓轨! h7NS9CgO  
a a=GW%  
注:独家整理,转载请注明出处!EAC无损整轨(压缩包内含CD图片) P {x`eD0  
c(. 2D  
解压密码:www.mjsunny.com
RU3:[ (7  
xJtblZ1sr  
Tracklist q~68)D(  
1 Billie Jean (Long Version) 6:21 j+He8w-4  
2 Bad (Dance Remix Radio Edit) 4:56 k%|7H,7  
3 Another Part Of Me (Radio Edit) 4:26 ?.t naE  
4 Todo Mi Amor Eres Tu (I Just Can't Stop Loving You) 4:06
~d]X@(G&  
9u6GeK~G  
Er /:iO)_  
vmEbk/Vy  
l9Xz,H   
CuT~ Bj  
Exact Audio Copy V1.0 beta 6 from 9. April 2015 {"rYlN7,  
p.%lE! v  
EAC 抓取日志文件从31. 十二月 2016, 22:18 c]Z@L~WW  
0&21'K)pW  
Michael Jackson / 3inch CD Special K?J?]VCw  
iJaA&z5sr  
使用驱动器  :MATSHITADVD-RAM UJ890AS   Adapter: 1  ID: 1 ^Mc zumG[  
_/pdZM,V  
读取模式      : 可靠Secure ^2<nn op  
使用精确流     : 是 :G/.h[\R|  
清空音频缓存    : 否 <&87aDYz  
使用 C2 指示器 : 是 R) 'AI[la  
V+dFL9  
读取偏移校正:               : 102 3`^NaQ  
读取 Lead-In 和 Lead-Out : 否 /sa\Ze;E  
用静音填充抓取中丢失偏移的采样       : 是 1Zi(5S)  
去除首尾静音块               : 否 +`$[h2Z=:  
在CRC 计算中使用了空样本       : 是 BdYl sYp  
已用接口                  : Win NT 及 2000 本地 Win32 接口 ;DN:AgXP  
O,A}p:Pgs  
所用输出模式: : 内部 WAV 函数 "RG #e +  
样本格式    : 44.100 Hz; 16 Bit; 立体声 f8X/kz  
9'S~zG%{  
DJ#z0)3<p  
已抓取 CD 的 TOC {cF >, T  
oL 69w1  
     音轨 |    起始    |    长度    |  起始扇区  |  结束扇区   $={WtR  
    -------------------------------------------- >5|;8v-r  
      1 |  0:00.00 |  6:22.00 |      0 |  28649 0- 'f1 1S  
      2 |  6:22.00 |  4:57.00 |  28650 |  50924 `xO&!DN  
      3 | 11:19.00 |  4:27.25 |  50925 |  70974 \I4*|6kA  
      4 | 15:46.25 |  4:06.40 |  70975 |  89464 m )2t<  
wPl!}HNf  
AjQ^ {P  
范围状态及错误 Bkn- OG  
(zFUC]  
已选择范围 Ge|& H]W  
~[i,f0O,  
     文件名 J:\12 Music*音乐\1988 3inch CD SPECIAL (JP - 15·8P-8017) 4''\CDImage.wav U=C8gVb{Hq  
] =jnt  
     峰值电平 96.9 % yT42u|xZA  
     抓取速度 30.7 X =*q:R9V  
     范围质量 100.0 % T[=XGAJ  
     复制 CRC 2ACF8761 xXK7i\ny  
     复制成功 0>-l {4srs  
c7IgndVAV  
没有错误发生 ?x@BZe  
"HVwm>qEi  
VVJhQbP  
AccurateRip 摘要 #l-,2C~  
'E0{zk  
音轨  1  精确地校准抓取  3)  [854141E4]  (AR v2) QA.B.U7!  
音轨  2  精确地校准抓取  3)  [BD640CC7]  (AR v2)  iTbmD  
音轨  3  精确地校准抓取  3)  [4A0720CD]  (AR v2) 622mNY  
音轨  4  精确地校准抓取  2)  [22874363]  (AR v2) #>~$`Sg  
Bi kCjP[b  
所有音轨精确校准抓取 d&?B/E^  
PpU : 4;en  
状态报告结尾
v_5DeaMF'  
{(7. X4\x  
链接:http://pan.baidu.com/s/1cmrsy6 密码: Q6%m}R  
此帖售价 40 金钱,已有 10 人购买 [记录] [购买]
购买后,将显示帖子中所有出售内容。
若发现会员采用欺骗的方法获取财富,请立刻举报,我们会对会员处以2-N倍的罚金,严重者封掉ID!
此段为出售的内容,购买后显示
离线wannam

发帖
2666
金钱
80618
威望
382
贡献值
189
交易币
3309
只看该作者 1楼 发表于: 01-03
这几首歌都很爱。
离线魏聪

发帖
159
金钱
2897
威望
41
贡献值
21
交易币
94
只看该作者 2楼 发表于: 01-03
楼主你实在太棒了
离线marlene55555

发帖
1161
金钱
34311
威望
293
贡献值
98
交易币
1337
只看该作者 3楼 发表于: 01-04
完美 小CD
离线mich008

发帖
777
金钱
5053
威望
24
贡献值
15
交易币
839
只看该作者 4楼 发表于: 01-04
没见过的小CD 很是感谢

发帖
2645
金钱
28240
威望
616
贡献值
33
交易币
282
只看该作者 5楼 发表于: 01-05
感谢分享

离线lifan_npl

发帖
2076
金钱
18269
威望
787
贡献值
347
交易币
2429
只看该作者 6楼 发表于: 01-05
谢谢幽灵分享,辛苦了
我的淘宝:
http://shop63152617.taobao.com  
离线Mr灬W

发帖
1156
金钱
12831
威望
161
贡献值
56
交易币
1281
只看该作者 7楼 发表于: 01-08
感谢分享~
Heal The World
在线mjnet

发帖
345
金钱
30692
威望
103
贡献值
53
交易币
518
只看该作者 8楼 发表于: 02-07
相當罕見
离线mjbad25

发帖
134
金钱
6006
威望
0
贡献值
1
交易币
139
只看该作者 9楼 发表于: 04-06
冲着第一首来的,最爱之一
快速回复
限100 字节
 
上一个 下一个