论坛风格切换切换到宽版
  • 942阅读
  • 15回复

[亲传][Single] 1988 3inch CD SPECIAL (JP - 15·8P-8017) - WAV整轨 ♬by幽灵 [复制链接]

上一主题 下一主题
离线mjghosts
 

发帖
8232
金钱
213145
威望
9167
贡献值
2716
交易币
4715
只看楼主 倒序阅读 楼主  发表于: 01-03
— 本帖被 mjghosts 执行加亮操作(2017-01-03) —
*88年日本特别企划3寸碟,收录加长版Billie Jean等罕见曲目!完美精确校准抓轨! ,ZZ5A;)  
`Bb32L   
注:独家整理,转载请注明出处!EAC无损整轨(压缩包内含CD图片) [M#(su0fv  
L/)eNZ  
解压密码:www.mjsunny.com
xg4wtfAbS  
Y=/;7T  
Tracklist 1I%niQv5t  
1 Billie Jean (Long Version) 6:21 ) >N=B2P  
2 Bad (Dance Remix Radio Edit) 4:56 id)J;!^;J  
3 Another Part Of Me (Radio Edit) 4:26 AgWG4C=  
4 Todo Mi Amor Eres Tu (I Just Can't Stop Loving You) 4:06
Uo JMOw[  
'<h@h*R  
h: zi8;(  
ROj=XM:+  
{'G u@l  
w*AXD!}  
Exact Audio Copy V1.0 beta 6 from 9. April 2015 #~[mn_C  
r<.*:]L  
EAC 抓取日志文件从31. 十二月 2016, 22:18 !n5s/"'H  
k N$L8U8f  
Michael Jackson / 3inch CD Special .g6(07TyV  
h>K%Ox R  
使用驱动器  :MATSHITADVD-RAM UJ890AS   Adapter: 1  ID: 1 JY@x.?N5$  
;hp?wb  
读取模式      : 可靠Secure :n<<hR0d  
使用精确流     : 是 ~0@+8%^>;  
清空音频缓存    : 否 KwuNHK)-  
使用 C2 指示器 : 是 ZN?UkFnE  
L1E\^)  
读取偏移校正:               : 102 .J3Dk=/  
读取 Lead-In 和 Lead-Out : 否 Wc)f:]7  
用静音填充抓取中丢失偏移的采样       : 是 e RjpR?!\  
去除首尾静音块               : 否 5? s$(Lt~  
在CRC 计算中使用了空样本       : 是 bG0t7~!{E  
已用接口                  : Win NT 及 2000 本地 Win32 接口 e/m ,PE  
<;.Zms${@  
所用输出模式: : 内部 WAV 函数 bO: Ei  
样本格式    : 44.100 Hz; 16 Bit; 立体声 0EYK3<k9!  
a'ViyTBo  
8ltHR]v  
已抓取 CD 的 TOC A:1O:LB=!  
sD.bBz  
     音轨 |    起始    |    长度    |  起始扇区  |  结束扇区   4em7PmT  
    -------------------------------------------- s@f4f__(]  
      1 |  0:00.00 |  6:22.00 |      0 |  28649 !J[3U   
      2 |  6:22.00 |  4:57.00 |  28650 |  50924 *"0Yr`)S  
      3 | 11:19.00 |  4:27.25 |  50925 |  70974 er^z:1'  
      4 | 15:46.25 |  4:06.40 |  70975 |  89464 Y*3qH]  
";9cYoKRY  
{.z2n>1J{T  
范围状态及错误 `,aPK/  
x'; 6  
已选择范围 !k||-Q &  
\S}&QV  
     文件名 J:\12 Music*音乐\1988 3inch CD SPECIAL (JP - 15·8P-8017) 4''\CDImage.wav De4UGX  
p< '#f,o  
     峰值电平 96.9 % @YMef `T:  
     抓取速度 30.7 X X + *@  
     范围质量 100.0 % V z8o  
     复制 CRC 2ACF8761 Av^{$9yl  
     复制成功 7qA0bUee5  
5CueD]  
没有错误发生 Ha@'%<gFe  
YxlV2hcX;  
lt|\$Iy(  
AccurateRip 摘要 sD7Qt  
,3.E]_3 xX  
音轨  1  精确地校准抓取  3)  [854141E4]  (AR v2) S 3Tp__  
音轨  2  精确地校准抓取  3)  [BD640CC7]  (AR v2)  iE=Yh  
音轨  3  精确地校准抓取  3)  [4A0720CD]  (AR v2) jGl8y!aM  
音轨  4  精确地校准抓取  2)  [22874363]  (AR v2) ((Ak/qz  
a|SgGtBtT4  
所有音轨精确校准抓取 <vJPKQ`=:  
RbzSQr>a\  
状态报告结尾
U`N|pPe:w  
SNV~;@(h  
链接:http://pan.baidu.com/s/1cmrsy6 密码: GmP)"@O](;  
此帖售价 40 金钱,已有 15 人购买 [记录] [购买]
购买后,将显示帖子中所有出售内容。
若发现会员采用欺骗的方法获取财富,请立刻举报,我们会对会员处以2-N倍的罚金,严重者封掉ID!
此段为出售的内容,购买后显示
离线wannam

发帖
2699
金钱
86933
威望
382
贡献值
189
交易币
3342
只看该作者 1楼 发表于: 01-03
这几首歌都很爱。
离线魏聪

发帖
168
金钱
2713
威望
41
贡献值
21
交易币
103
只看该作者 2楼 发表于: 01-03
楼主你实在太棒了
离线marlene55555

发帖
1164
金钱
34253
威望
293
贡献值
98
交易币
1340
只看该作者 3楼 发表于: 01-04
完美 小CD
离线mich008

发帖
814
金钱
5332
威望
24
贡献值
15
交易币
876
只看该作者 4楼 发表于: 01-04
没见过的小CD 很是感谢

发帖
2715
金钱
31507
威望
620
贡献值
37
交易币
368
只看该作者 5楼 发表于: 01-05
感谢分享

离线lifan_npl

发帖
2165
金钱
16955
威望
782
贡献值
347
交易币
2518
只看该作者 6楼 发表于: 01-05
谢谢幽灵分享,辛苦了
我的淘宝:
http://shop63152617.taobao.com  
离线Mr灬W

发帖
1129
金钱
12894
威望
161
贡献值
56
交易币
1282
只看该作者 7楼 发表于: 01-08
感谢分享~
Heal The World
离线mjnet

发帖
375
金钱
30607
威望
104
贡献值
54
交易币
552
只看该作者 8楼 发表于: 02-07
相當罕見
离线mjbad25

发帖
134
金钱
6006
威望
0
贡献值
1
交易币
139
只看该作者 9楼 发表于: 04-06
冲着第一首来的,最爱之一
快速回复
限100 字节
 
上一个 下一个