论坛风格切换切换到宽版
  • 473阅读
  • 10回复

[亲传][Single] 1988 3inch CD SPECIAL (JP - 15·8P-8017) - WAV整轨 ♬by幽灵 [复制链接]

上一主题 下一主题
离线mjghosts
 

发帖
8194
金钱
205392
威望
9035
贡献值
2641
交易币
4553
只看楼主 倒序阅读 楼主  发表于: 01-03
— 本帖被 mjghosts 执行加亮操作(2017-01-03) —
*88年日本特别企划3寸碟,收录加长版Billie Jean等罕见曲目!完美精确校准抓轨! ^o,P>u!9  
U; JZN  
注:独家整理,转载请注明出处!EAC无损整轨(压缩包内含CD图片) H{VVxj  
-M2c8P:.b  
解压密码:www.mjsunny.com
8~YhT]R=  
m Y*JNx  
Tracklist }b)7gd=  
1 Billie Jean (Long Version) 6:21 |k1(|)%G  
2 Bad (Dance Remix Radio Edit) 4:56 % 3d59O  
3 Another Part Of Me (Radio Edit) 4:26 8fRk8  
4 Todo Mi Amor Eres Tu (I Just Can't Stop Loving You) 4:06
FpN>T  
0Mpc#:a%1  
ZFpi'u.&  
M:K5r7Q!yv  
= i9|lU"Va  
u}Kc>/AF  
Exact Audio Copy V1.0 beta 6 from 9. April 2015 +)YU/41W  
v d A 3  
EAC 抓取日志文件从31. 十二月 2016, 22:18 j0P+<@y  
K6 D3  
Michael Jackson / 3inch CD Special l@C39VP  
v:.`~h/b  
使用驱动器  :MATSHITADVD-RAM UJ890AS   Adapter: 1  ID: 1 DVC<P}/  
|Iq#Q3w  
读取模式      : 可靠Secure ?VM4_dugf  
使用精确流     : 是 $ /Rr|<  
清空音频缓存    : 否 cHr.7 w  
使用 C2 指示器 : 是 *.g@6IkAQ  
Gh.@l\|tf  
读取偏移校正:               : 102 @ckOLtxE>  
读取 Lead-In 和 Lead-Out : 否 85fv])\y  
用静音填充抓取中丢失偏移的采样       : 是 L~Hgf/%5  
去除首尾静音块               : 否 0qdgt  
在CRC 计算中使用了空样本       : 是 qYi<GI*|@  
已用接口                  : Win NT 及 2000 本地 Win32 接口 w =MZi=p  
fD>0  
所用输出模式: : 内部 WAV 函数 (l~3~n  
样本格式    : 44.100 Hz; 16 Bit; 立体声 Ku W$  
eqFOPK5q  
~w>Z !RuhT  
已抓取 CD 的 TOC >Za66<:  
wG&+*,}  
     音轨 |    起始    |    长度    |  起始扇区  |  结束扇区   -6()$cl}0  
    -------------------------------------------- e$wbYByW  
      1 |  0:00.00 |  6:22.00 |      0 |  28649 F[ Itq  
      2 |  6:22.00 |  4:57.00 |  28650 |  50924 OoFQ@zE7%  
      3 | 11:19.00 |  4:27.25 |  50925 |  70974 B) 81mcy  
      4 | 15:46.25 |  4:06.40 |  70975 |  89464 `P`n qn  
=](c7HEQf  
!(!BW9Zt+  
范围状态及错误 D&WXa|EOK  
ifu "e_^  
已选择范围 xNNoB/DR  
Ih}I`wY-  
     文件名 J:\12 Music*音乐\1988 3inch CD SPECIAL (JP - 15·8P-8017) 4''\CDImage.wav 'aB0abr|  
S,5>g07-`  
     峰值电平 96.9 % +q]  
     抓取速度 30.7 X s,^?|Eo;0  
     范围质量 100.0 % do{#y*B/g!  
     复制 CRC 2ACF8761 ,_T,B'a:  
     复制成功 _QtqQ~f  
q*A2>0O  
没有错误发生 v,RLN`CID  
i~z:Fe{  
JBE'B Q@  
AccurateRip 摘要 q y y.3-(  
X3]E8)645N  
音轨  1  精确地校准抓取  3)  [854141E4]  (AR v2) @V] Wm1g  
音轨  2  精确地校准抓取  3)  [BD640CC7]  (AR v2) N)  {  
音轨  3  精确地校准抓取  3)  [4A0720CD]  (AR v2) X >%2\S  
音轨  4  精确地校准抓取  2)  [22874363]  (AR v2) lIzJO$8cM  
[X^JV/R  
所有音轨精确校准抓取  e^&YQl  
h#]}J}si  
状态报告结尾
~8pf.^,fi  
5Tu#o ()  
链接:http://pan.baidu.com/s/1cmrsy6 密码: XN=<s;U  
此帖售价 40 金钱,已有 10 人购买 [记录] [购买]
购买后,将显示帖子中所有出售内容。
若发现会员采用欺骗的方法获取财富,请立刻举报,我们会对会员处以2-N倍的罚金,严重者封掉ID!
此段为出售的内容,购买后显示
离线wannam

发帖
2603
金钱
80583
威望
363
贡献值
169
交易币
3246
只看该作者 1楼 发表于: 01-03
这几首歌都很爱。
离线魏聪

发帖
159
金钱
2897
威望
41
贡献值
21
交易币
94
只看该作者 2楼 发表于: 01-03
楼主你实在太棒了
离线marlene55555

发帖
1161
金钱
34311
威望
293
贡献值
98
交易币
1337
只看该作者 3楼 发表于: 01-04
完美 小CD
离线mich008

发帖
760
金钱
4996
威望
24
贡献值
15
交易币
822
只看该作者 4楼 发表于: 01-04
没见过的小CD 很是感谢

发帖
2632
金钱
28148
威望
616
贡献值
33
交易币
269
只看该作者 5楼 发表于: 01-05
感谢分享

离线lifan_npl

发帖
2063
金钱
18206
威望
777
贡献值
337
交易币
2416
只看该作者 6楼 发表于: 01-05
谢谢幽灵分享,辛苦了
我的淘宝:
http://shop63152617.taobao.com  
离线Mr灬W

发帖
1147
金钱
12942
威望
151
贡献值
46
交易币
1272
只看该作者 7楼 发表于: 01-08
感谢分享~
Heal The World
离线mjnet

发帖
322
金钱
30298
威望
101
贡献值
51
交易币
487
只看该作者 8楼 发表于: 02-07
相當罕見
离线mjbad25

发帖
134
金钱
6006
威望
0
贡献值
1
交易币
139
只看该作者 9楼 发表于: 04-06
冲着第一首来的,最爱之一
快速回复
限100 字节
 
上一个 下一个