论坛风格切换切换到宽版
  • 596阅读
  • 10回复

[亲传][Single] 1988 3inch CD SPECIAL (JP - 15·8P-8017) - WAV整轨 ♬by幽灵 [复制链接]

上一主题 下一主题
离线mjghosts
 

发帖
8235
金钱
209029
威望
9162
贡献值
2713
交易币
4678
只看楼主 倒序阅读 楼主  发表于: 01-03
— 本帖被 mjghosts 执行加亮操作(2017-01-03) —
*88年日本特别企划3寸碟,收录加长版Billie Jean等罕见曲目!完美精确校准抓轨! [l^XqD D4  
!f(A9V  
注:独家整理,转载请注明出处!EAC无损整轨(压缩包内含CD图片) (DvPdOT+3  
SHYekX  
解压密码:www.mjsunny.com
QswPga(-  
UZt3Ua&J  
Tracklist Ydsnu  
1 Billie Jean (Long Version) 6:21 b [HnhAI  
2 Bad (Dance Remix Radio Edit) 4:56 !Yo2P"  
3 Another Part Of Me (Radio Edit) 4:26 < k(n%  
4 Todo Mi Amor Eres Tu (I Just Can't Stop Loving You) 4:06
Vfd_nD^8oZ  
]gHrqi%  
)%Xp?H_  
lz0dt<8eP  
@QJPcF"  
M&Q&be84  
Exact Audio Copy V1.0 beta 6 from 9. April 2015 %QDAog  
2bXCFv7}  
EAC 抓取日志文件从31. 十二月 2016, 22:18 \RVfgfe  
Xa}y.qH  
Michael Jackson / 3inch CD Special 2sBYy 8.r  
J=t}N+:F`b  
使用驱动器  :MATSHITADVD-RAM UJ890AS   Adapter: 1  ID: 1 yF XPY=EQ  
FGMYpapc~  
读取模式      : 可靠Secure 0oyZlv*  
使用精确流     : 是 zW95qxXg  
清空音频缓存    : 否 #=fd8}9  
使用 C2 指示器 : 是 xtS0D^  
rYA4(rYq  
读取偏移校正:               : 102 BjUz"69  
读取 Lead-In 和 Lead-Out : 否 IPh_QE2g  
用静音填充抓取中丢失偏移的采样       : 是 "(y|iS$^T  
去除首尾静音块               : 否 cd*F;h  
在CRC 计算中使用了空样本       : 是 DadlCEZv  
已用接口                  : Win NT 及 2000 本地 Win32 接口 xyTjK.N  
{p(.ck ze+  
所用输出模式: : 内部 WAV 函数 pVm'XP  
样本格式    : 44.100 Hz; 16 Bit; 立体声 j_*#"}Lcp  
!j?2HlIK+  
_(s|@UT#  
已抓取 CD 的 TOC  Ju#t^P  
[,TuNd  
     音轨 |    起始    |    长度    |  起始扇区  |  结束扇区   v(/T<^{cuk  
    -------------------------------------------- C&m[/PJ~l  
      1 |  0:00.00 |  6:22.00 |      0 |  28649 g9`z]qGWS:  
      2 |  6:22.00 |  4:57.00 |  28650 |  50924 Z!P7mH\c}  
      3 | 11:19.00 |  4:27.25 |  50925 |  70974 %(,Kj ~0  
      4 | 15:46.25 |  4:06.40 |  70975 |  89464 c|%.B2  
%o4ZD7@ '  
-lL(:drn  
范围状态及错误 I5l5fx  
|UN0jR  
已选择范围 2HNKq<  
UMN3.-4K#  
     文件名 J:\12 Music*音乐\1988 3inch CD SPECIAL (JP - 15·8P-8017) 4''\CDImage.wav 1&JPyW  
&DQyJJ`k  
     峰值电平 96.9 % ^=f<WKn  
     抓取速度 30.7 X s&UuB1   
     范围质量 100.0 % y:t@X~  
     复制 CRC 2ACF8761 5G$N  
     复制成功  .dA_}  
!=(OvX_<  
没有错误发生 Gw!VPFV>W  
* 0vq+C  
j<"@ Y7  
AccurateRip 摘要 kq| r6uE  
#mT\B[4h  
音轨  1  精确地校准抓取  3)  [854141E4]  (AR v2) eILdq*  
音轨  2  精确地校准抓取  3)  [BD640CC7]  (AR v2) [3K& cX}B  
音轨  3  精确地校准抓取  3)  [4A0720CD]  (AR v2) ^(+ X|t  
音轨  4  精确地校准抓取  2)  [22874363]  (AR v2) Wi U-syNh  
1k)31GEQw  
所有音轨精确校准抓取 *A&A V||q  
|*fi!nvk@  
状态报告结尾
O*SJx.  
/wi*OZ7R  
链接:http://pan.baidu.com/s/1cmrsy6 密码: @ ^q}.u`  
此帖售价 40 金钱,已有 10 人购买 [记录] [购买]
购买后,将显示帖子中所有出售内容。
若发现会员采用欺骗的方法获取财富,请立刻举报,我们会对会员处以2-N倍的罚金,严重者封掉ID!
此段为出售的内容,购买后显示
离线wannam

发帖
2680
金钱
86748
威望
382
贡献值
189
交易币
3323
只看该作者 1楼 发表于: 01-03
这几首歌都很爱。
离线魏聪

发帖
159
金钱
2897
威望
41
贡献值
21
交易币
94
只看该作者 2楼 发表于: 01-03
楼主你实在太棒了
离线marlene55555

发帖
1161
金钱
34314
威望
293
贡献值
98
交易币
1337
只看该作者 3楼 发表于: 01-04
完美 小CD
在线mich008

发帖
793
金钱
4967
威望
24
贡献值
15
交易币
855
只看该作者 4楼 发表于: 01-04
没见过的小CD 很是感谢

发帖
2650
金钱
28573
威望
617
贡献值
34
交易币
291
只看该作者 5楼 发表于: 01-05
感谢分享

离线lifan_npl

发帖
2093
金钱
18000
威望
787
贡献值
347
交易币
2446
只看该作者 6楼 发表于: 01-05
谢谢幽灵分享,辛苦了
我的淘宝:
http://shop63152617.taobao.com  
在线Mr灬W

发帖
1156
金钱
12831
威望
161
贡献值
56
交易币
1281
只看该作者 7楼 发表于: 01-08
感谢分享~
Heal The World
离线mjnet

发帖
354
金钱
30856
威望
104
贡献值
54
交易币
531
只看该作者 8楼 发表于: 02-07
相當罕見
离线mjbad25

发帖
134
金钱
6006
威望
0
贡献值
1
交易币
139
只看该作者 9楼 发表于: 04-06
冲着第一首来的,最爱之一
快速回复
限100 字节
 
上一个 下一个