论坛风格切换切换到宽版
  • 777阅读
  • 14回复

[亲传][Single] 1988 3inch CD SPECIAL (JP - 15·8P-8017) - WAV整轨 ♬by幽灵 [复制链接]

上一主题 下一主题
离线mjghosts
 

发帖
8256
金钱
212030
威望
9166
贡献值
2715
交易币
4707
只看楼主 倒序阅读 楼主  发表于: 01-03
— 本帖被 mjghosts 执行加亮操作(2017-01-03) —
*88年日本特别企划3寸碟,收录加长版Billie Jean等罕见曲目!完美精确校准抓轨! kg I=0W>  
#)mkD4  
注:独家整理,转载请注明出处!EAC无损整轨(压缩包内含CD图片) ( ssH=a  
/-{O\7-D  
解压密码:www.mjsunny.com
7 Mki?EG  
im \ YL<  
Tracklist _UBJPb@=U  
1 Billie Jean (Long Version) 6:21 TtwJ,&b  
2 Bad (Dance Remix Radio Edit) 4:56 ;%rs{XO9  
3 Another Part Of Me (Radio Edit) 4:26 "`jZ(+  
4 Todo Mi Amor Eres Tu (I Just Can't Stop Loving You) 4:06
C*{15!d:G  
1FD7~S|  
@dE 3  
7dufY }}  
%qNj{<&  
oz\{9Lwc  
Exact Audio Copy V1.0 beta 6 from 9. April 2015 PUQ_w  
K)9j je  
EAC 抓取日志文件从31. 十二月 2016, 22:18 t3  uB  
@wYQLZ  
Michael Jackson / 3inch CD Special ?;:9 W  
Jo7fxWO_g  
使用驱动器  :MATSHITADVD-RAM UJ890AS   Adapter: 1  ID: 1 eEWro F  
,-cpsN  
读取模式      : 可靠Secure <O,'5+zG%  
使用精确流     : 是 dp"<KcP_  
清空音频缓存    : 否 L?3VyBE  
使用 C2 指示器 : 是 ')AByD}Hi]  
U7nsMD  
读取偏移校正:               : 102 'sm[CNzS  
读取 Lead-In 和 Lead-Out : 否 ~hS .\h  
用静音填充抓取中丢失偏移的采样       : 是 IT8B~I\OY  
去除首尾静音块               : 否 qJ\X~5{  
在CRC 计算中使用了空样本       : 是 5T!&r  
已用接口                  : Win NT 及 2000 本地 Win32 接口 5\uNEs$T  
G!AICcP^  
所用输出模式: : 内部 WAV 函数 x*:n4FZ7b  
样本格式    : 44.100 Hz; 16 Bit; 立体声 )URwIe{  
t$aVe"uM  
$B<~0'6}  
已抓取 CD 的 TOC {PL,VY)Z  
^GN5vT+:'  
     音轨 |    起始    |    长度    |  起始扇区  |  结束扇区   EH(tUwY%{  
    -------------------------------------------- ,Ie<'>hd  
      1 |  0:00.00 |  6:22.00 |      0 |  28649 }Bd_:#.mw  
      2 |  6:22.00 |  4:57.00 |  28650 |  50924 .Xi2G@D  
      3 | 11:19.00 |  4:27.25 |  50925 |  70974 n>n"{!  
      4 | 15:46.25 |  4:06.40 |  70975 |  89464 "X`Qe!zk4  
" l.!Ed  
K@HLIuz4t  
范围状态及错误 Ac J>$L)  
5|5=Y/   
已选择范围 N_0pO<<cs  
R#D#{ cC(  
     文件名 J:\12 Music*音乐\1988 3inch CD SPECIAL (JP - 15·8P-8017) 4''\CDImage.wav 'g2vX&=$A  
9Kx<\)-GMD  
     峰值电平 96.9 % '\ XsTs#L  
     抓取速度 30.7 X Ep<YCSQy$i  
     范围质量 100.0 % (ZS/@He  
     复制 CRC 2ACF8761 9Eu #lV  
     复制成功 ZRPE-l_3:  
)Y~xIj >  
没有错误发生 TH YVT%v  
uS&LG#a  
#>XeR>T  
AccurateRip 摘要 4 A5t*e  
Fh^ox"3c  
音轨  1  精确地校准抓取  3)  [854141E4]  (AR v2) ld95[cTP  
音轨  2  精确地校准抓取  3)  [BD640CC7]  (AR v2) XddHP;x  
音轨  3  精确地校准抓取  3)  [4A0720CD]  (AR v2) ><K!~pst}  
音轨  4  精确地校准抓取  2)  [22874363]  (AR v2) %<AS?Ry  
<XvYa{t]{  
所有音轨精确校准抓取 v&r=-}z2!  
K#wK1 Sv  
状态报告结尾
_YLUS$Zw  
GG+5/hU  
链接:http://pan.baidu.com/s/1cmrsy6 密码: `s%QeAde  
此帖售价 40 金钱,已有 14 人购买 [记录] [购买]
购买后,将显示帖子中所有出售内容。
若发现会员采用欺骗的方法获取财富,请立刻举报,我们会对会员处以2-N倍的罚金,严重者封掉ID!
此段为出售的内容,购买后显示
离线wannam

发帖
2698
金钱
86889
威望
382
贡献值
189
交易币
3341
只看该作者 1楼 发表于: 01-03
这几首歌都很爱。
离线魏聪

发帖
162
金钱
2911
威望
41
贡献值
21
交易币
97
只看该作者 2楼 发表于: 01-03
楼主你实在太棒了
离线marlene55555

发帖
1162
金钱
34284
威望
293
贡献值
98
交易币
1338
只看该作者 3楼 发表于: 01-04
完美 小CD
离线mich008

发帖
804
金钱
5195
威望
24
贡献值
15
交易币
866
只看该作者 4楼 发表于: 01-04
没见过的小CD 很是感谢

发帖
2661
金钱
28627
威望
617
贡献值
34
交易币
302
只看该作者 5楼 发表于: 01-05
感谢分享

离线lifan_npl

发帖
2132
金钱
17379
威望
787
贡献值
347
交易币
2485
只看该作者 6楼 发表于: 01-05
谢谢幽灵分享,辛苦了
我的淘宝:
http://shop63152617.taobao.com  
离线Mr灬W

发帖
1128
金钱
12839
威望
161
贡献值
56
交易币
1281
只看该作者 7楼 发表于: 01-08
感谢分享~
Heal The World
离线mjnet

发帖
370
金钱
30527
威望
104
贡献值
54
交易币
547
只看该作者 8楼 发表于: 02-07
相當罕見
离线mjbad25

发帖
134
金钱
6006
威望
0
贡献值
1
交易币
139
只看该作者 9楼 发表于: 04-06
冲着第一首来的,最爱之一
快速回复
限100 字节
 
上一个 下一个