论坛风格切换切换到宽版
  • 1408阅读
  • 16回复

[亲传][Single] 1988 3inch CD SPECIAL (JP - 15·8P-8017) - WAV整轨 ♬by幽灵 [复制链接]

上一主题 下一主题
离线mjghosts
 

发帖
8251
金钱
218537
威望
9176
贡献值
2723
交易币
4762
只看楼主 倒序阅读 楼主  发表于: 2017-01-03
— 本帖被 mjghosts 执行加亮操作(2017-01-03) —
*88年日本特别企划3寸碟,收录加长版Billie Jean等罕见曲目!完美精确校准抓轨! MT!Y!*-5  
'KH+e#?Ar  
注:独家整理,转载请注明出处!EAC无损整轨(压缩包内含CD图片) L-9fo-  
ny KfM5s_  
解压密码:www.mjsunny.com
>h aihT  
3dN`Q:1R9  
Tracklist &g;!n&d zP  
1 Billie Jean (Long Version) 6:21 lie,A  
2 Bad (Dance Remix Radio Edit) 4:56 b-ss^UL  
3 Another Part Of Me (Radio Edit) 4:26 Y"lEMY  
4 Todo Mi Amor Eres Tu (I Just Can't Stop Loving You) 4:06
T\9[PX<  
`df!-\#  
5Npxs&Ea  
z)M#9oAM  
^]sb=Amw  
lJ;Wi  
Exact Audio Copy V1.0 beta 6 from 9. April 2015 4s 7 RB  
uXc;!*  
EAC 抓取日志文件从31. 十二月 2016, 22:18 JU17]gQ  
q=pRe-{  
Michael Jackson / 3inch CD Special {wC*61@1  
*;@wPT  
使用驱动器  :MATSHITADVD-RAM UJ890AS   Adapter: 1  ID: 1 Z3JUYEAS  
WkXgz6 P  
读取模式      : 可靠Secure yx Om=V  
使用精确流     : 是 x/?ET1iGt  
清空音频缓存    : 否 q;,lv3I  
使用 C2 指示器 : 是 F q~uuQ  
 2yJ{B   
读取偏移校正:               : 102 u9~5U9]O%6  
读取 Lead-In 和 Lead-Out : 否 QdgJNT<=H,  
用静音填充抓取中丢失偏移的采样       : 是 R ABw( b  
去除首尾静音块               : 否 {_N9<i{T  
在CRC 计算中使用了空样本       : 是 Aax;0qGbH  
已用接口                  : Win NT 及 2000 本地 Win32 接口 WGz)-IB!PE  
K.xABKPVc  
所用输出模式: : 内部 WAV 函数 {A/^;X{N^  
样本格式    : 44.100 Hz; 16 Bit; 立体声 ./ {79  
3q73L<f  
0{b} 1D  
已抓取 CD 的 TOC > T *`Y0P  
G$f%]A1  
     音轨 |    起始    |    长度    |  起始扇区  |  结束扇区   d~~kJKK  
    -------------------------------------------- 3`cA!ZVQ  
      1 |  0:00.00 |  6:22.00 |      0 |  28649 _f0AV;S:vd  
      2 |  6:22.00 |  4:57.00 |  28650 |  50924 os{ iY  
      3 | 11:19.00 |  4:27.25 |  50925 |  70974 y2I7Zd .  
      4 | 15:46.25 |  4:06.40 |  70975 |  89464 {|u"I@M*O  
aB6xRn9  
 ;v.[aq  
范围状态及错误 d[_26.  
C=+9XfP0  
已选择范围 \Sd8PGl*'  
`sKyvPtG  
     文件名 J:\12 Music*音乐\1988 3inch CD SPECIAL (JP - 15·8P-8017) 4''\CDImage.wav -qj[ck(y  
r""rJzFz'  
     峰值电平 96.9 % ~Y x_ 3  
     抓取速度 30.7 X bKpy?5&>  
     范围质量 100.0 % 4SI~y;c)  
     复制 CRC 2ACF8761 - UkK$wP5  
     复制成功 Z oXz@/T  
*Y(59J2  
没有错误发生 -LiGO#U  
=R=V  
;}+M2Ec51  
AccurateRip 摘要 <uuumi-!%G  
U"7o;q  
音轨  1  精确地校准抓取  3)  [854141E4]  (AR v2) 2V@5:tf  
音轨  2  精确地校准抓取  3)  [BD640CC7]  (AR v2) c6[m'cy  
音轨  3  精确地校准抓取  3)  [4A0720CD]  (AR v2) XKTDBaON  
音轨  4  精确地校准抓取  2)  [22874363]  (AR v2) 1)= H2n4)  
I#MPJ@*WT  
所有音轨精确校准抓取 9Q1%+zjjMq  
"zcAYg^U  
状态报告结尾
Z)|~  
fDsT@W,K  
链接:http://pan.baidu.com/s/1cmrsy6 密码: eF%M2:&c;  
此帖售价 40 金钱,已有 16 人购买 [记录] [购买]
购买后,将显示帖子中所有出售内容。
若发现会员采用欺骗的方法获取财富,请立刻举报,我们会对会员处以2-N倍的罚金,严重者封掉ID!
此段为出售的内容,购买后显示
离线wannam

发帖
2702
金钱
87018
威望
382
贡献值
189
交易币
3345
只看该作者 1楼 发表于: 2017-01-03
这几首歌都很爱。
离线魏聪

发帖
168
金钱
2713
威望
41
贡献值
21
交易币
103
只看该作者 2楼 发表于: 2017-01-03
楼主你实在太棒了
离线marlene55555

发帖
1165
金钱
34275
威望
293
贡献值
98
交易币
1341
只看该作者 3楼 发表于: 2017-01-04
完美 小CD
离线mich008

发帖
839
金钱
5907
威望
24
贡献值
15
交易币
901
只看该作者 4楼 发表于: 2017-01-04
没见过的小CD 很是感谢

发帖
2740
金钱
30927
威望
620
贡献值
37
交易币
393
只看该作者 5楼 发表于: 2017-01-05
感谢分享

离线lifan_npl

发帖
2196
金钱
31917
威望
851
贡献值
428
交易币
2569
只看该作者 6楼 发表于: 2017-01-05
谢谢幽灵分享,辛苦了
我的淘宝:
http://shop63152617.taobao.com  
离线Mr灬W

发帖
1130
金钱
12952
威望
161
贡献值
56
交易币
1283
只看该作者 7楼 发表于: 2017-01-08
感谢分享~
Heal The World
离线mjnet

发帖
380
金钱
30579
威望
104
贡献值
54
交易币
557
只看该作者 8楼 发表于: 2017-02-07
相當罕見
离线mjbad25

发帖
167
金钱
4672
威望
0
贡献值
1
交易币
172
只看该作者 9楼 发表于: 2017-04-06
冲着第一首来的,最爱之一
快速回复
限100 字节
 
上一个 下一个