论坛风格切换切换到宽版
  • 1318阅读
  • 15回复

[亲传][Single] 1988 3inch CD SPECIAL (JP - 15·8P-8017) - WAV整轨 ♬by幽灵 [复制链接]

上一主题 下一主题
离线mjghosts
 

发帖
8242
金钱
217431
威望
9173
贡献值
2722
交易币
4749
只看楼主 倒序阅读 楼主  发表于: 2017-01-03
— 本帖被 mjghosts 执行加亮操作(2017-01-03) —
*88年日本特别企划3寸碟,收录加长版Billie Jean等罕见曲目!完美精确校准抓轨! |__=d+M'  
i!dv0|_  
注:独家整理,转载请注明出处!EAC无损整轨(压缩包内含CD图片) k6?cP0I)5  
*Wb=WM-.  
解压密码:www.mjsunny.com
9-bG<`v\E  
@#b0T:+v'  
Tracklist ; a/cty0Ch  
1 Billie Jean (Long Version) 6:21 r.FLGD U  
2 Bad (Dance Remix Radio Edit) 4:56 N^elVu4 K  
3 Another Part Of Me (Radio Edit) 4:26 h[ 6hM^n  
4 Todo Mi Amor Eres Tu (I Just Can't Stop Loving You) 4:06
3BMS_,P  
J/4y|8T/y  
4&}\BU*  
bBE^^9G=Z  
TJ2/?p\x  
cy:;)E>/  
Exact Audio Copy V1.0 beta 6 from 9. April 2015 %^^h) Wy}  
lgG8!Ja  
EAC 抓取日志文件从31. 十二月 2016, 22:18 x9*ys;~w  
!\w\ ]7 ls  
Michael Jackson / 3inch CD Special WRMz]|+}4  
CI1m5g [P  
使用驱动器  :MATSHITADVD-RAM UJ890AS   Adapter: 1  ID: 1 8c?8X=|D7  
}Ch[|D=Wd6  
读取模式      : 可靠Secure InX{V|CW?  
使用精确流     : 是 EreAn  
清空音频缓存    : 否 W.GN0(uG  
使用 C2 指示器 : 是 9w$7VW;  
c; d"XiA  
读取偏移校正:               : 102 =1&}t%<X  
读取 Lead-In 和 Lead-Out : 否 \ 6jF{  
用静音填充抓取中丢失偏移的采样       : 是 'NRN_c9  
去除首尾静音块               : 否 AzW%+ LUD  
在CRC 计算中使用了空样本       : 是 8:BQHYeJK  
已用接口                  : Win NT 及 2000 本地 Win32 接口 ge@reGfsB1  
MH2OqiCI  
所用输出模式: : 内部 WAV 函数 eF*TLI<[^I  
样本格式    : 44.100 Hz; 16 Bit; 立体声 p}cd}@cQ6  
20S9/9ll  
{: Am9B  
已抓取 CD 的 TOC IH*U!_ `  
oR!n bm  
     音轨 |    起始    |    长度    |  起始扇区  |  结束扇区   >}xAg7\^  
    -------------------------------------------- "Yc^Nc  
      1 |  0:00.00 |  6:22.00 |      0 |  28649 1oXz[V  
      2 |  6:22.00 |  4:57.00 |  28650 |  50924 %5( EkP  
      3 | 11:19.00 |  4:27.25 |  50925 |  70974 QE`:jxyad  
      4 | 15:46.25 |  4:06.40 |  70975 |  89464 n0>5'm%ES  
ZQgxrZx3  
5yO#N2jY\  
范围状态及错误 XSL t;zL:  
E#&c]9QM75  
已选择范围 xC=3|,U  
Aspj*CDu  
     文件名 J:\12 Music*音乐\1988 3inch CD SPECIAL (JP - 15·8P-8017) 4''\CDImage.wav s$+: F$Y0  
y<Z#my$`|n  
     峰值电平 96.9 % [/#k$-  
     抓取速度 30.7 X `hQ!*f6  
     范围质量 100.0 % l5N\> q  
     复制 CRC 2ACF8761 "YdDaj</  
     复制成功 p;QX"2  
4- ?`#  
没有错误发生 ] l qFht  
J9KLO=  
aK=3`q  
AccurateRip 摘要 owS@dbO  
" ih>T^|  
音轨  1  精确地校准抓取  3)  [854141E4]  (AR v2) @ 6VH%  
音轨  2  精确地校准抓取  3)  [BD640CC7]  (AR v2) +>9^])K|  
音轨  3  精确地校准抓取  3)  [4A0720CD]  (AR v2) c+K=pp@  
音轨  4  精确地校准抓取  2)  [22874363]  (AR v2) ,8-_=*  
?%fZvpn-  
所有音轨精确校准抓取 YH+\rb_  
e8uIh[+ 0  
状态报告结尾
AT'$VCYC(  
)KhVUFS1  
链接:http://pan.baidu.com/s/1cmrsy6 密码: |[7$) $  
此帖售价 40 金钱,已有 15 人购买 [记录] [购买]
购买后,将显示帖子中所有出售内容。
若发现会员采用欺骗的方法获取财富,请立刻举报,我们会对会员处以2-N倍的罚金,严重者封掉ID!
此段为出售的内容,购买后显示
离线wannam

发帖
2702
金钱
87010
威望
382
贡献值
189
交易币
3345
只看该作者 1楼 发表于: 2017-01-03
这几首歌都很爱。
离线魏聪

发帖
168
金钱
2713
威望
41
贡献值
21
交易币
103
只看该作者 2楼 发表于: 2017-01-03
楼主你实在太棒了
离线marlene55555

发帖
1165
金钱
34275
威望
293
贡献值
98
交易币
1341
只看该作者 3楼 发表于: 2017-01-04
完美 小CD
离线mich008

发帖
831
金钱
5816
威望
24
贡献值
15
交易币
893
只看该作者 4楼 发表于: 2017-01-04
没见过的小CD 很是感谢

发帖
2735
金钱
31355
威望
620
贡献值
37
交易币
388
只看该作者 5楼 发表于: 2017-01-05
感谢分享

离线lifan_npl

发帖
2185
金钱
16546
威望
783
贡献值
348
交易币
2542
只看该作者 6楼 发表于: 2017-01-05
谢谢幽灵分享,辛苦了
我的淘宝:
http://shop63152617.taobao.com  
离线Mr灬W

发帖
1129
金钱
12950
威望
161
贡献值
56
交易币
1282
只看该作者 7楼 发表于: 2017-01-08
感谢分享~
Heal The World
离线mjnet

发帖
380
金钱
30479
威望
104
贡献值
54
交易币
557
只看该作者 8楼 发表于: 2017-02-07
相當罕見
离线mjbad25

发帖
134
金钱
6006
威望
0
贡献值
1
交易币
139
只看该作者 9楼 发表于: 2017-04-06
冲着第一首来的,最爱之一
快速回复
限100 字节
 
上一个 下一个