论坛风格切换切换到宽版
  • 1697阅读
  • 16回复

[亲传][Single] 1988 3inch CD SPECIAL (JP - 15·8P-8017) - WAV整轨 ♬by幽灵 [复制链接]

上一主题 下一主题
离线mjghosts
 

发帖
8257
金钱
219515
威望
9187
贡献值
2734
交易币
4792
只看楼主 倒序阅读 楼主  发表于: 2017-01-03
— 本帖被 mjghosts 执行加亮操作(2017-01-03) —
*88年日本特别企划3寸碟,收录加长版Billie Jean等罕见曲目!完美精确校准抓轨! @6!JW(,]\  
80EY7#r@w  
注:独家整理,转载请注明出处!EAC无损整轨(压缩包内含CD图片) M5V1j(URE  
ezvaAhd{  
解压密码:www.mjsunny.com
I@ k8^  
eQx"nl3U%  
Tracklist 9-^p23.@[j  
1 Billie Jean (Long Version) 6:21 8TPm[r]  
2 Bad (Dance Remix Radio Edit) 4:56 [VW;L l  
3 Another Part Of Me (Radio Edit) 4:26 n:D*r$ C|p  
4 Todo Mi Amor Eres Tu (I Just Can't Stop Loving You) 4:06
i)i)3K2  
jSYg\ Z5!  
gj,J3x4TK/  
_vV&4>  
XFTMT'9  
V55J[s*6!  
Exact Audio Copy V1.0 beta 6 from 9. April 2015 $3.vVnc  
B8AzN9v&"N  
EAC 抓取日志文件从31. 十二月 2016, 22:18 4F,Ql"ae(  
pptM &Y  
Michael Jackson / 3inch CD Special G+ v, Hi1  
#2R%H.*t  
使用驱动器  :MATSHITADVD-RAM UJ890AS   Adapter: 1  ID: 1 $7&l6~sMQ  
T#G<?oF  
读取模式      : 可靠Secure ),Ho(%T\  
使用精确流     : 是 ~]W[ {3 ;  
清空音频缓存    : 否 Lp`<L-s  
使用 C2 指示器 : 是 f\);HJbg  
L;M^>{>  
读取偏移校正:               : 102 )@bH"  
读取 Lead-In 和 Lead-Out : 否 *e3L4 7"G  
用静音填充抓取中丢失偏移的采样       : 是 AuDR |;i  
去除首尾静音块               : 否 M_!u@\  
在CRC 计算中使用了空样本       : 是 KT];SF ^Y  
已用接口                  : Win NT 及 2000 本地 Win32 接口 G?-`>N-u  
|Sr\jUIWn  
所用输出模式: : 内部 WAV 函数 @0ov!9]Rw-  
样本格式    : 44.100 Hz; 16 Bit; 立体声 L)/6kt=  
WHgV_o 8  
j!S1Y0CV  
已抓取 CD 的 TOC *"ykTqa  
<+\k&W&Y|y  
     音轨 |    起始    |    长度    |  起始扇区  |  结束扇区   r}R^<y@I  
    -------------------------------------------- (L y%{ Y  
      1 |  0:00.00 |  6:22.00 |      0 |  28649 gp$EXJ=  
      2 |  6:22.00 |  4:57.00 |  28650 |  50924 ?-8y4 Ex  
      3 | 11:19.00 |  4:27.25 |  50925 |  70974 (F,(]71Z+  
      4 | 15:46.25 |  4:06.40 |  70975 |  89464 tg7C;rJ  
'!wPnYT@D  
O1?B{F/ e  
范围状态及错误 (B>)2:T1  
N<aB)</  
已选择范围 [i(Cl}  
$yDW.pt  
     文件名 J:\12 Music*音乐\1988 3inch CD SPECIAL (JP - 15·8P-8017) 4''\CDImage.wav 0W~.WkD  
oMh~5 W  
     峰值电平 96.9 % 2f3=?YqD  
     抓取速度 30.7 X 5mI?pfm  
     范围质量 100.0 % s.^c..e75C  
     复制 CRC 2ACF8761 <Zig Co w  
     复制成功 >vQ6V'F  
iD%qy/I/  
没有错误发生 o-SRSu  
D3%l4.h  
T?H\&2CLT  
AccurateRip 摘要 @<vF]\Ce  
':,>eL#+uV  
音轨  1  精确地校准抓取  3)  [854141E4]  (AR v2) qPsyqn?Y|  
音轨  2  精确地校准抓取  3)  [BD640CC7]  (AR v2) TkA9tFi  
音轨  3  精确地校准抓取  3)  [4A0720CD]  (AR v2) jEZ "  
音轨  4  精确地校准抓取  2)  [22874363]  (AR v2) 54=}GnZN  
8dc538:q}  
所有音轨精确校准抓取 -{!&/;Z  
hgj CXl  
状态报告结尾
(.PmDBW  
Tc:sldtCk  
链接:http://pan.baidu.com/s/1cmrsy6 密码: Am#m>^!qb  
此帖售价 40 金钱,已有 16 人购买 [记录] [购买]
购买后,将显示帖子中所有出售内容。
若发现会员采用欺骗的方法获取财富,请立刻举报,我们会对会员处以2-N倍的罚金,严重者封掉ID!
此段为出售的内容,购买后显示
离线wannam

发帖
2703
金钱
87077
威望
382
贡献值
189
交易币
3346
只看该作者 1楼 发表于: 2017-01-03
这几首歌都很爱。
离线魏聪

发帖
168
金钱
2713
威望
41
贡献值
21
交易币
103
只看该作者 2楼 发表于: 2017-01-03
楼主你实在太棒了
离线marlene55555

发帖
1165
金钱
34275
威望
293
贡献值
98
交易币
1341
只看该作者 3楼 发表于: 2017-01-04
完美 小CD
离线mich008

发帖
853
金钱
6406
威望
24
贡献值
15
交易币
915
只看该作者 4楼 发表于: 2017-01-04
没见过的小CD 很是感谢

发帖
2753
金钱
30915
威望
621
贡献值
38
交易币
410
只看该作者 5楼 发表于: 2017-01-05
感谢分享

离线lifan_npl

发帖
2213
金钱
31997
威望
853
贡献值
430
交易币
2594
只看该作者 6楼 发表于: 2017-01-05
谢谢幽灵分享,辛苦了
我的淘宝店:
http://shop63152617.taobao.com  
离线Mr灬W

发帖
1130
金钱
12952
威望
161
贡献值
56
交易币
1283
只看该作者 7楼 发表于: 2017-01-08
感谢分享~
Heal The World
离线mjnet

发帖
381
金钱
30546
威望
104
贡献值
54
交易币
558
只看该作者 8楼 发表于: 2017-02-07
相當罕見
离线mjbad25

发帖
168
金钱
4677
威望
0
贡献值
1
交易币
173
只看该作者 9楼 发表于: 2017-04-06
冲着第一首来的,最爱之一
快速回复
限100 字节
 
上一个 下一个