论坛风格切换切换到宽版
  • 431阅读
  • 10回复

[亲传][Single] 1988 3inch CD SPECIAL (JP - 15·8P-8017) - WAV整轨 ♬by幽灵 [复制链接]

上一主题 下一主题
离线mjghosts
 

发帖
8193
金钱
205205
威望
9035
贡献值
2641
交易币
4552
只看楼主 倒序阅读 楼主  发表于: 01-03
— 本帖被 mjghosts 执行加亮操作(2017-01-03) —
*88年日本特别企划3寸碟,收录加长版Billie Jean等罕见曲目!完美精确校准抓轨! B~K@o.%  
xPoI+,  
注:独家整理,转载请注明出处!EAC无损整轨(压缩包内含CD图片) 99j^<)  
%g1:yx  
解压密码:www.mjsunny.com
[}Vne;V  
4n_f7'GZg  
Tracklist &~Qi+b0!  
1 Billie Jean (Long Version) 6:21 c `C /U7j  
2 Bad (Dance Remix Radio Edit) 4:56 {,61V;Bpm  
3 Another Part Of Me (Radio Edit) 4:26  0IO#h{t  
4 Todo Mi Amor Eres Tu (I Just Can't Stop Loving You) 4:06
Gxx:<`[ON  
OIP JN8V  
F)rU* i7  
'}3@D$YiM%  
=g)|g+[H  
 d(!W  
Exact Audio Copy V1.0 beta 6 from 9. April 2015 B=?4; l7  
!;EG<ji,gj  
EAC 抓取日志文件从31. 十二月 2016, 22:18 gbF^m`A>%+  
e lj]e  
Michael Jackson / 3inch CD Special #'s}=i}y"C  
Fv_rDTo  
使用驱动器  :MATSHITADVD-RAM UJ890AS   Adapter: 1  ID: 1 -;rr! cQ?  
G1K72M}CW  
读取模式      : 可靠Secure cVCylR U"  
使用精确流     : 是 8:s" ^YLN  
清空音频缓存    : 否 E2J.t`H  
使用 C2 指示器 : 是 =P>c1T1-  
|-kU]NJFR  
读取偏移校正:               : 102 9[# 9cv  
读取 Lead-In 和 Lead-Out : 否 9&(d2  
用静音填充抓取中丢失偏移的采样       : 是 NJ" d`  
去除首尾静音块               : 否 lI#Ap2@  
在CRC 计算中使用了空样本       : 是 a W1y0  
已用接口                  : Win NT 及 2000 本地 Win32 接口 Z*,Nt6;e  
ME'hN->c  
所用输出模式: : 内部 WAV 函数 w,uyN  
样本格式    : 44.100 Hz; 16 Bit; 立体声 "zpc)'$ L=  
LRe2wT>I  
DK-V3}`q}  
已抓取 CD 的 TOC @JFfyQ {-  
;fg8,(SM^  
     音轨 |    起始    |    长度    |  起始扇区  |  结束扇区   6[cC1a3r:  
    -------------------------------------------- j2\B(PA  
      1 |  0:00.00 |  6:22.00 |      0 |  28649 P[E:=p  
      2 |  6:22.00 |  4:57.00 |  28650 |  50924 kl(id8r  
      3 | 11:19.00 |  4:27.25 |  50925 |  70974 8HL$y-F  
      4 | 15:46.25 |  4:06.40 |  70975 |  89464 .&|Ivz6  
^o;f~6#17  
xV]eEOiLM  
范围状态及错误 Y`secUg  
5G$sP,n  
已选择范围 "YW&,X5R  
6 GL.bS  
     文件名 J:\12 Music*音乐\1988 3inch CD SPECIAL (JP - 15·8P-8017) 4''\CDImage.wav }cl~Vo-mp  
Nd5G-eYI  
     峰值电平 96.9 % ? zFeP6C  
     抓取速度 30.7 X iR_j h=2{  
     范围质量 100.0 % -o\o{?t,  
     复制 CRC 2ACF8761 :[hZn/  
     复制成功 C2$_Ad=s  
~Bw)rf,  
没有错误发生 Nn`l+WA3  
Z>9uVBE02  
olHT* mr  
AccurateRip 摘要 n\X'2  
tWT ,U[  
音轨  1  精确地校准抓取  3)  [854141E4]  (AR v2) P@LFX[HtM  
音轨  2  精确地校准抓取  3)  [BD640CC7]  (AR v2) NVt612/'7y  
音轨  3  精确地校准抓取  3)  [4A0720CD]  (AR v2) z' oK 0"  
音轨  4  精确地校准抓取  2)  [22874363]  (AR v2) Z$a5vu*pg  
;7;=)/-  
所有音轨精确校准抓取 @ )bCh(u  
{c(@u6l28  
状态报告结尾
/b|V=j}W  
pm)kocG  
链接:http://pan.baidu.com/s/1cmrsy6 密码: C[4{\3\Va  
此帖售价 40 金钱,已有 10 人购买 [记录] [购买]
购买后,将显示帖子中所有出售内容。
若发现会员采用欺骗的方法获取财富,请立刻举报,我们会对会员处以2-N倍的罚金,严重者封掉ID!
此段为出售的内容,购买后显示
离线wannam

发帖
2582
金钱
75499
威望
363
贡献值
169
交易币
3225
只看该作者 1楼 发表于: 01-03
这几首歌都很爱。
离线魏聪

发帖
159
金钱
2897
威望
41
贡献值
21
交易币
94
只看该作者 2楼 发表于: 01-03
楼主你实在太棒了
离线marlene55555

发帖
1161
金钱
34311
威望
293
贡献值
98
交易币
1337
只看该作者 3楼 发表于: 01-04
完美 小CD
离线mich008

发帖
755
金钱
4918
威望
24
贡献值
15
交易币
817
只看该作者 4楼 发表于: 01-04
没见过的小CD 很是感谢

发帖
2631
金钱
28098
威望
616
贡献值
33
交易币
268
只看该作者 5楼 发表于: 01-05
感谢分享

离线lifan_npl

发帖
2062
金钱
18203
威望
777
贡献值
337
交易币
2415
只看该作者 6楼 发表于: 01-05
谢谢幽灵分享,辛苦了
我的淘宝:
http://shop63152617.taobao.com  
离线Mr灬W

发帖
1147
金钱
12923
威望
151
贡献值
46
交易币
1272
只看该作者 7楼 发表于: 01-08
感谢分享~
Heal The World
离线mjnet

发帖
322
金钱
30238
威望
101
贡献值
51
交易币
487
只看该作者 8楼 发表于: 02-07
相當罕見
离线mjbad25

发帖
134
金钱
6
威望
0
贡献值
1
交易币
139
只看该作者 9楼 发表于: 04-06
冲着第一首来的,最爱之一
快速回复
限100 字节
 
上一个 下一个