论坛风格切换切换到宽版
  • 1528阅读
  • 16回复

[亲传][Single] 1988 3inch CD SPECIAL (JP - 15·8P-8017) - WAV整轨 ♬by幽灵 [复制链接]

上一主题 下一主题
离线mjghosts
 

发帖
8256
金钱
219309
威望
9187
贡献值
2734
交易币
4791
只看楼主 倒序阅读 楼主  发表于: 2017-01-03
— 本帖被 mjghosts 执行加亮操作(2017-01-03) —
*88年日本特别企划3寸碟,收录加长版Billie Jean等罕见曲目!完美精确校准抓轨! )UBU|uYR\  
NX wthc3  
注:独家整理,转载请注明出处!EAC无损整轨(压缩包内含CD图片) S5o\joc  
{J#SpG 7  
解压密码:www.mjsunny.com
uJxT)m!/  
1f 3c3PJ  
Tracklist @aQ};~  
1 Billie Jean (Long Version) 6:21 @k+&89@G  
2 Bad (Dance Remix Radio Edit) 4:56 g:dtfa/]  
3 Another Part Of Me (Radio Edit) 4:26 pL [JGn  
4 Todo Mi Amor Eres Tu (I Just Can't Stop Loving You) 4:06
{ l0[`"EF  
?hC,49  
]z77hcjB1  
Y5fz_ [("  
;_~9".'<d  
.ZtW y) U  
Exact Audio Copy V1.0 beta 6 from 9. April 2015 73p7]Uo  
<9dfbI)  
EAC 抓取日志文件从31. 十二月 2016, 22:18 2MU$OI0|  
PjG^L FX  
Michael Jackson / 3inch CD Special R>D[I.  
h!mx/Hx  
使用驱动器  :MATSHITADVD-RAM UJ890AS   Adapter: 1  ID: 1 C=Tq/L w  
G]n_RP$G  
读取模式      : 可靠Secure w9w=2 *  
使用精确流     : 是 FnPn#Cv>*  
清空音频缓存    : 否 [XhG7Ly  
使用 C2 指示器 : 是 l@0${&n  
ti^=aB   
读取偏移校正:               : 102 mX%T"_^  
读取 Lead-In 和 Lead-Out : 否 Px3I+VP  
用静音填充抓取中丢失偏移的采样       : 是 n/{ pQ&B  
去除首尾静音块               : 否 1k]L,CX  
在CRC 计算中使用了空样本       : 是 Mh2Zj  
已用接口                  : Win NT 及 2000 本地 Win32 接口 r PTfwhs  
@?jbah#  
所用输出模式: : 内部 WAV 函数 W!"Oho'  
样本格式    : 44.100 Hz; 16 Bit; 立体声 voFg6zoV_  
3mHP=)  
hE E1i  
已抓取 CD 的 TOC "sIww  
`t\\O  
     音轨 |    起始    |    长度    |  起始扇区  |  结束扇区   OnU-FX<  
    -------------------------------------------- ,xR u74  
      1 |  0:00.00 |  6:22.00 |      0 |  28649 3}8L!2_p  
      2 |  6:22.00 |  4:57.00 |  28650 |  50924 Vc6 >i|"-O  
      3 | 11:19.00 |  4:27.25 |  50925 |  70974 orYZ<,u  
      4 | 15:46.25 |  4:06.40 |  70975 |  89464 w ~"%&SNN  
=c$x xEDD  
azNv(|eeJL  
范围状态及错误 '/9q7?[E!  
)pe17T1|  
已选择范围 FC~%G&K/q^  
3Ijs V5a  
     文件名 J:\12 Music*音乐\1988 3inch CD SPECIAL (JP - 15·8P-8017) 4''\CDImage.wav k4!_(X%8  
QSn18V>{  
     峰值电平 96.9 % wf1p/bpf  
     抓取速度 30.7 X Pa+_{9  
     范围质量 100.0 % g]c6_DMfb1  
     复制 CRC 2ACF8761 C@Go]*c  
     复制成功 6O.kKhk  
5o>*a>27,A  
没有错误发生 PB.'huu  
| 5:2?S2R  
QtXiUx^ k<  
AccurateRip 摘要 98O]tL+k/u  
k~K;r8D/  
音轨  1  精确地校准抓取  3)  [854141E4]  (AR v2) %G,7Ul1f  
音轨  2  精确地校准抓取  3)  [BD640CC7]  (AR v2) Yb_HvP  
音轨  3  精确地校准抓取  3)  [4A0720CD]  (AR v2) }YBuS3{  
音轨  4  精确地校准抓取  2)  [22874363]  (AR v2) jF j'6LT9/  
2#3`[+g<n  
所有音轨精确校准抓取 i>[xN[U(  
pU<J?cU8N  
状态报告结尾
u0sN[<  
(Cq 38~mR  
链接:http://pan.baidu.com/s/1cmrsy6 密码: #>\SK  
此帖售价 40 金钱,已有 16 人购买 [记录] [购买]
购买后,将显示帖子中所有出售内容。
若发现会员采用欺骗的方法获取财富,请立刻举报,我们会对会员处以2-N倍的罚金,严重者封掉ID!
此段为出售的内容,购买后显示
离线wannam

发帖
2703
金钱
87033
威望
382
贡献值
189
交易币
3346
只看该作者 1楼 发表于: 2017-01-03
这几首歌都很爱。
离线魏聪

发帖
168
金钱
2713
威望
41
贡献值
21
交易币
103
只看该作者 2楼 发表于: 2017-01-03
楼主你实在太棒了
离线marlene55555

发帖
1165
金钱
34275
威望
293
贡献值
98
交易币
1341
只看该作者 3楼 发表于: 2017-01-04
完美 小CD
离线mich008

发帖
849
金钱
5986
威望
24
贡献值
15
交易币
911
只看该作者 4楼 发表于: 2017-01-04
没见过的小CD 很是感谢

发帖
2751
金钱
30829
威望
621
贡献值
38
交易币
408
只看该作者 5楼 发表于: 2017-01-05
感谢分享

离线lifan_npl

发帖
2212
金钱
31692
威望
853
贡献值
430
交易币
2593
只看该作者 6楼 发表于: 2017-01-05
谢谢幽灵分享,辛苦了
我的淘宝店:
http://shop63152617.taobao.com  
离线Mr灬W

发帖
1130
金钱
12952
威望
161
贡献值
56
交易币
1283
只看该作者 7楼 发表于: 2017-01-08
感谢分享~
Heal The World
离线mjnet

发帖
381
金钱
30548
威望
104
贡献值
54
交易币
558
只看该作者 8楼 发表于: 2017-02-07
相當罕見
离线mjbad25

发帖
167
金钱
4672
威望
0
贡献值
1
交易币
172
只看该作者 9楼 发表于: 2017-04-06
冲着第一首来的,最爱之一
快速回复
限100 字节
 
上一个 下一个