论坛风格切换切换到宽版
  • 1075阅读
  • 13回复

[亲传][Single] 1995 You Are Not Alone (JP - ESCA 6300) - WAV整轨 ♬by幽灵 [复制链接]

上一主题 下一主题
离线mjghosts
 

发帖
8251
金钱
218537
威望
9176
贡献值
2723
交易币
4762
只看楼主 倒序阅读 楼主  发表于: 2017-01-03
— 本帖被 mjghosts 执行加亮操作(2017-01-03) —
*日本发行单曲,7首歌,混音曲目上乘,推荐!完美精确校准抓轨! x9$` W  
/|r^W\DV&x  
注:独家整理,转载请注明出处!EAC无损整轨(压缩包内含CD图片) 4FEk5D  
Q Btnx[  
解压密码:www.mjsunny.com
sqla}~CiX  
@L>q (Kg  
Tracklist vK 7^*qr;j  
1 You Are Not Alone (Album Edit) 4:55 e .]KL('  
2 You Are Not Alone (Radio Edit) 4:36 Kpb#K[(]&  
3 You Are Not Alone (Frankie Knuckles - Franctified Club Mix) 10:10 >^%7@i:@U  
4 You Are Not Alone (R. Kelly Remix) 6:26 TS/.`.gT  
5 You Are Not Alone (Frankie Knuckles - Classic Song Version) 7:40 .^N/peU q  
6 You Are Not Alone (Jon B. Main Mix) 6:57 }xBc0g r  
7 You Are Not Alone (Jon B. Padappella) 6:55
9[1`jtm  
-M%_\;"de  
k9$K}  
Wi[~fI8^!  
A'G66ei  
wSb 1"a  
Exact Audio Copy V1.0 beta 6 from 9. April 2015 *:>"q ej  
 yyv8gH  
EAC 抓取日志文件从17. 十二月 2016, 0:54 A]YV s  
=i_-F$pV  
Michael Jackson / You Are Not Alone a;QMA d!  
5m?8yT}  
使用驱动器  :MATSHITADVD-RAM UJ890AS   Adapter: 1  ID: 1 `!D s6  
IX*idcxR  
读取模式      : 可靠Secure ?CC"Yij  
使用精确流     : 是 T/^Hz4uA7  
清空音频缓存    : 否 ogL EtqT  
使用 C2 指示器 : 是 mN!lo;m5  
]Ar\c["  
读取偏移校正:               : 102 uq, { tV  
读取 Lead-In 和 Lead-Out : 否 ,y+$cM(  
用静音填充抓取中丢失偏移的采样       : 是 %F:)5gT?  
去除首尾静音块               : 否 PH> b-n  
在CRC 计算中使用了空样本       : 是 ax{ ;:fW  
已用接口                  : Win NT 及 2000 本地 Win32 接口 &g.@u~SI1  
2Fz|fW_  
所用输出模式: : 内部 WAV 函数 RjWqGr;bO  
样本格式    : 44.100 Hz; 16 Bit; 立体声 mcn 2Wt  
_UT$,0u_i  
WdZ:K,  
已抓取 CD 的 TOC  1~l I8  
!!4Qj  
     音轨 |    起始    |    长度    |  起始扇区  |  结束扇区   K{ \;2M  
    -------------------------------------------- *1 G>YH  
      1 |  0:00.00 |  4:55.10 |      0 |  22134 Iw<jT|y)  
      2 |  4:55.10 |  4:36.17 |  22135 |  42851 { .*y  
      3 |  9:31.27 | 10:10.38 |  42852 |  88639 01T`Flz  
      4 | 19:41.65 |  6:26.15 |  88640 | 117604 mo1oyQg8  
      5 | 26:08.05 |  7:40.00 | 117605 | 152104 / }Rz=&  
      6 | 33:48.05 |  6:57.00 | 152105 | 183379 Qj3a_p$)P  
      7 | 40:45.05 |  6:55.70 | 183380 | 214574 oW^*l#v  
;SwMu@tg  
(;%|-{7e-  
范围状态及错误 tX!n sm1  
6YuY|JD  
已选择范围 goJ|oi  
Cda!Mk:  
     文件名 J:\12 Music*音乐\1995 You Are Not Alone (JP - ESCA 6300) 7''\CDImage.wav q~L^au8  
5/gDK+%4D(  
     峰值电平 100.0 % 'xv8Gwf"  
     抓取速度 6.1 X 5j0{p$'9  
     范围质量 99.9 % ^uS/r#l  
     复制 CRC DED3C6F2 fbFX4?-  
     复制成功 e4I^!5)N  
tn|,O.t  
没有错误发生 |3K)$.6~  
w6 2=06`@  
)4xu^=N&as  
AccurateRip 摘要 BpO9As 1um  
^D@b;EyK  
音轨  1  精确地校准抓取  1)  [CF6AEAFD]  (AR v1) E?PGu!&u  
音轨  2  精确地校准抓取  1)  [25EEBB72]  (AR v1) I~'*$l  
音轨  3  精确地校准抓取  1)  [EE1E2A75]  (AR v1) %Hi~aRz  
音轨  4  精确地校准抓取  1)  [9DCEC106]  (AR v1) [A~G-  
音轨  5  精确地校准抓取  1)  [7A3266C6]  (AR v1) w,.qCpT$_  
音轨  6  精确地校准抓取  1)  [16AB5730]  (AR v1) ^!: "Q3  
音轨  7  精确地校准抓取  1)  [7C10DC80]  (AR v1) Mpx/S<Z  
/Ic[N&  
所有音轨精确校准抓取 66ohmP@04Z  
[e4![G&y`  
状态报告结尾
RV!<?[  
O-GxUHwW r  
链接:http://pan.baidu.com/s/1qYwEkFE 密码: sJ6a7A8)  
此帖售价 16 金钱,已有 13 人购买 [记录] [购买]
购买后,将显示帖子中所有出售内容。
若发现会员采用欺骗的方法获取财富,请立刻举报,我们会对会员处以2-N倍的罚金,严重者封掉ID!
此段为出售的内容,购买后显示
离线小李

发帖
238
金钱
1115
威望
9
贡献值
8
交易币
210
只看该作者 1楼 发表于: 2017-01-03
谢谢,这盘CD内容有不同的歌曲
离线魏聪

发帖
168
金钱
2713
威望
41
贡献值
21
交易币
103
只看该作者 2楼 发表于: 2017-01-03
觉得把这么柔和的歌改成舞曲不太好
离线wannam

发帖
2702
金钱
87018
威望
382
贡献值
189
交易币
3345
只看该作者 3楼 发表于: 2017-01-03
谢谢分享,没听过这些混音版!
离线marlene55555

发帖
1165
金钱
34275
威望
293
贡献值
98
交易币
1341
只看该作者 4楼 发表于: 2017-01-04
绝好的单曲
离线mich008

发帖
839
金钱
5907
威望
24
贡献值
15
交易币
901
只看该作者 5楼 发表于: 2017-01-04
好多不同的版本 谢谢了

发帖
2740
金钱
30927
威望
620
贡献值
37
交易币
393
只看该作者 6楼 发表于: 2017-01-05
感谢分享。

离线lifan_npl

发帖
2196
金钱
31917
威望
851
贡献值
428
交易币
2569
只看该作者 7楼 发表于: 2017-01-05
谢谢幽灵分享,辛苦了
我的淘宝:
http://shop63152617.taobao.com  
离线mjnet

发帖
380
金钱
30579
威望
104
贡献值
54
交易币
557
只看该作者 8楼 发表于: 2017-02-07
thank you!!
离线mjbad25

发帖
167
金钱
4672
威望
0
贡献值
1
交易币
172
只看该作者 9楼 发表于: 2017-04-06
我看到一个喜欢的歌手了
快速回复
限100 字节
 
上一个 下一个