论坛风格切换切换到宽版
  • 1358阅读
  • 14回复

[亲传][Single] 1995 You Are Not Alone (JP - ESCA 6300) - WAV整轨 ♬by幽灵 [复制链接]

上一主题 下一主题
离线mjghosts
 

发帖
8257
金钱
219515
威望
9187
贡献值
2734
交易币
4792
只看楼主 倒序阅读 楼主  发表于: 2017-01-03
— 本帖被 mjghosts 执行加亮操作(2017-01-03) —
*日本发行单曲,7首歌,混音曲目上乘,推荐!完美精确校准抓轨! U@BVVH?,o  
)fA9,yNJ3  
注:独家整理,转载请注明出处!EAC无损整轨(压缩包内含CD图片) vJtQ&,zG  
2a (w7/W:  
解压密码:www.mjsunny.com
\%mR*J+  
q.K >v'  
Tracklist P-7!\[];te  
1 You Are Not Alone (Album Edit) 4:55 *yiJw\DRN  
2 You Are Not Alone (Radio Edit) 4:36 zp% MK+x  
3 You Are Not Alone (Frankie Knuckles - Franctified Club Mix) 10:10 ^ }U{O A  
4 You Are Not Alone (R. Kelly Remix) 6:26 unSF;S<  
5 You Are Not Alone (Frankie Knuckles - Classic Song Version) 7:40 %/1`"M5ko  
6 You Are Not Alone (Jon B. Main Mix) 6:57 nITr5$f  
7 You Are Not Alone (Jon B. Padappella) 6:55
@#*B|lHE  
gA" =so  
P:ys--$"  
Nf<([8v;t  
~uzu*7U  
#/\FB'zC  
Exact Audio Copy V1.0 beta 6 from 9. April 2015 sAnStS=>  
Tg{d#U_qB  
EAC 抓取日志文件从17. 十二月 2016, 0:54 li/IKS)e$  
>jN)9}3>-#  
Michael Jackson / You Are Not Alone L_ 8C=MS  
@105 @9F  
使用驱动器  :MATSHITADVD-RAM UJ890AS   Adapter: 1  ID: 1 k9yA#  
xU67ztS'E'  
读取模式      : 可靠Secure ) ae/+Q8  
使用精确流     : 是 U{i9h6b"18  
清空音频缓存    : 否 e:NzpzI"v  
使用 C2 指示器 : 是 iwrdZLE  
[S3X  
读取偏移校正:               : 102 *$(9,y\  
读取 Lead-In 和 Lead-Out : 否 o7]h;Zg5r  
用静音填充抓取中丢失偏移的采样       : 是 y5+-_x,  
去除首尾静音块               : 否 [x-Z)Q. 5  
在CRC 计算中使用了空样本       : 是 +,c;Dff  
已用接口                  : Win NT 及 2000 本地 Win32 接口  :jB(!XH  
t-_N|iW' 5  
所用输出模式: : 内部 WAV 函数 J"FKd3~:E  
样本格式    : 44.100 Hz; 16 Bit; 立体声 r")=Z1y  
<~X=6  
U{eC^yjt"o  
已抓取 CD 的 TOC >\(Ma3S   
*b7 HtUA  
     音轨 |    起始    |    长度    |  起始扇区  |  结束扇区    /=[M  
    -------------------------------------------- BFj@Z'7P  
      1 |  0:00.00 |  4:55.10 |      0 |  22134 ?vf\_R'M  
      2 |  4:55.10 |  4:36.17 |  22135 |  42851 cr,o<  
      3 |  9:31.27 | 10:10.38 |  42852 |  88639 =p&6A^  
      4 | 19:41.65 |  6:26.15 |  88640 | 117604 ]2b" oHg  
      5 | 26:08.05 |  7:40.00 | 117605 | 152104 WMh'<'w N_  
      6 | 33:48.05 |  6:57.00 | 152105 | 183379 D8[&}D4  
      7 | 40:45.05 |  6:55.70 | 183380 | 214574 Nmi#$K[x  
y7,~7f!N2  
/ HaS.  
范围状态及错误 IFpmf0;^  
2px5>4<  
已选择范围 ~xvQ?c ?-  
$RA"NIZ:!  
     文件名 J:\12 Music*音乐\1995 You Are Not Alone (JP - ESCA 6300) 7''\CDImage.wav _MMz x2}  
rt~X (S  
     峰值电平 100.0 % Aoa0czC~  
     抓取速度 6.1 X Zjo9c{\  
     范围质量 99.9 % U*a!Gn7l  
     复制 CRC DED3C6F2 GD< Afni  
     复制成功 oMMU5sm  
fDbs3"H Q  
没有错误发生 Q g"{F},4  
Hs-NP#I  
j|? bva\  
AccurateRip 摘要 E+7S:B  
T-5T`awf  
音轨  1  精确地校准抓取  1)  [CF6AEAFD]  (AR v1) SH`"o  
音轨  2  精确地校准抓取  1)  [25EEBB72]  (AR v1) JL(*peeu3  
音轨  3  精确地校准抓取  1)  [EE1E2A75]  (AR v1) G&Cl:CtC  
音轨  4  精确地校准抓取  1)  [9DCEC106]  (AR v1) T`WFY  
音轨  5  精确地校准抓取  1)  [7A3266C6]  (AR v1) ~F' $p  
音轨  6  精确地校准抓取  1)  [16AB5730]  (AR v1) @9c^{x\4  
音轨  7  精确地校准抓取  1)  [7C10DC80]  (AR v1) !-;Me&"I=`  
#Xn#e  
所有音轨精确校准抓取 -6H)GK14b  
zBoU;d%p>  
状态报告结尾
UPgZj\t%{  
_zpn+XVdQ  
链接:http://pan.baidu.com/s/1qYwEkFE 密码: =a {Z7W  
此帖售价 16 金钱,已有 14 人购买 [记录] [购买]
购买后,将显示帖子中所有出售内容。
若发现会员采用欺骗的方法获取财富,请立刻举报,我们会对会员处以2-N倍的罚金,严重者封掉ID!
此段为出售的内容,购买后显示
离线小李

发帖
240
金钱
1125
威望
9
贡献值
8
交易币
212
只看该作者 1楼 发表于: 2017-01-03
谢谢,这盘CD内容有不同的歌曲
离线魏聪

发帖
168
金钱
2713
威望
41
贡献值
21
交易币
103
只看该作者 2楼 发表于: 2017-01-03
觉得把这么柔和的歌改成舞曲不太好
离线wannam

发帖
2703
金钱
87077
威望
382
贡献值
189
交易币
3346
只看该作者 3楼 发表于: 2017-01-03
谢谢分享,没听过这些混音版!
离线marlene55555

发帖
1165
金钱
34275
威望
293
贡献值
98
交易币
1341
只看该作者 4楼 发表于: 2017-01-04
绝好的单曲
离线mich008

发帖
853
金钱
6406
威望
24
贡献值
15
交易币
915
只看该作者 5楼 发表于: 2017-01-04
好多不同的版本 谢谢了

发帖
2753
金钱
30915
威望
621
贡献值
38
交易币
410
只看该作者 6楼 发表于: 2017-01-05
感谢分享。

离线lifan_npl

发帖
2213
金钱
31997
威望
853
贡献值
430
交易币
2594
只看该作者 7楼 发表于: 2017-01-05
谢谢幽灵分享,辛苦了
我的淘宝店:
http://shop63152617.taobao.com  
离线mjnet

发帖
381
金钱
30546
威望
104
贡献值
54
交易币
558
只看该作者 8楼 发表于: 2017-02-07
thank you!!
离线mjbad25

发帖
168
金钱
4677
威望
0
贡献值
1
交易币
173
只看该作者 9楼 发表于: 2017-04-06
我看到一个喜欢的歌手了
快速回复
限100 字节
 
上一个 下一个