论坛风格切换切换到宽版
  • 1522阅读
  • 14回复

[亲传][Single] 1995 You Are Not Alone (JP - ESCA 6300) - WAV整轨 ♬by幽灵 [复制链接]

上一主题 下一主题
离线mjghosts
 

发帖
8262
金钱
219556
威望
9187
贡献值
2734
交易币
4797
只看楼主 倒序阅读 楼主  发表于: 2017-01-03
— 本帖被 mjghosts 执行加亮操作(2017-01-03) —
*日本发行单曲,7首歌,混音曲目上乘,推荐!完美精确校准抓轨! S"iQQV{)Z  
H>-?/H  
注:独家整理,转载请注明出处!EAC无损整轨(压缩包内含CD图片) UC^Bn1  
F*QD\sG:  
解压密码:www.mjsunny.com
&/J[PdSb$  
N,w;s-*  
Tracklist DU7kZ  
1 You Are Not Alone (Album Edit) 4:55 E0c5c  
2 You Are Not Alone (Radio Edit) 4:36 lX`)Avqa  
3 You Are Not Alone (Frankie Knuckles - Franctified Club Mix) 10:10 b9(d@2MtK  
4 You Are Not Alone (R. Kelly Remix) 6:26 0.nS306  
5 You Are Not Alone (Frankie Knuckles - Classic Song Version) 7:40 sp[nKo ^  
6 You Are Not Alone (Jon B. Main Mix) 6:57 M~7?m/Wj  
7 You Are Not Alone (Jon B. Padappella) 6:55
B[-%A!3 F  
BoP%f '0N  
6(oGU4  
i,ku91T  
l~&efAJ-$  
~m uVQ  
Exact Audio Copy V1.0 beta 6 from 9. April 2015 AUoi$DF(@  
.Rc&EO  
EAC 抓取日志文件从17. 十二月 2016, 0:54 ~srmlBi6  
[ne4lWaE<y  
Michael Jackson / You Are Not Alone 3 %dbfT j  
7"*- >mg  
使用驱动器  :MATSHITADVD-RAM UJ890AS   Adapter: 1  ID: 1 gNs@Q !  
~v,LFIT  
读取模式      : 可靠Secure [Bpgb57En  
使用精确流     : 是 S~/iH Xm  
清空音频缓存    : 否 qI;k2sQR  
使用 C2 指示器 : 是 ej%C<0/%n  
0yAvAx  
读取偏移校正:               : 102 *A,=Y/  
读取 Lead-In 和 Lead-Out : 否 m> NRIEA6  
用静音填充抓取中丢失偏移的采样       : 是 4f"be  
去除首尾静音块               : 否 `i{o8l  
在CRC 计算中使用了空样本       : 是 7)_0jp~2  
已用接口                  : Win NT 及 2000 本地 Win32 接口 te:"1:e  
=C#,aoa!  
所用输出模式: : 内部 WAV 函数 +p<Y)Z( >6  
样本格式    : 44.100 Hz; 16 Bit; 立体声 ;WGY)=-gv  
a~XNRAh  
/pb7  
已抓取 CD 的 TOC ut\9@>*J=Q  
-OkKLub  
     音轨 |    起始    |    长度    |  起始扇区  |  结束扇区   y"9TS,lmK  
    -------------------------------------------- m]DjIs*@%h  
      1 |  0:00.00 |  4:55.10 |      0 |  22134 UoKBcarm  
      2 |  4:55.10 |  4:36.17 |  22135 |  42851 9f"6Jw@F  
      3 |  9:31.27 | 10:10.38 |  42852 |  88639 ZjI^0D8  
      4 | 19:41.65 |  6:26.15 |  88640 | 117604 _` D_0v(X  
      5 | 26:08.05 |  7:40.00 | 117605 | 152104 bpU^|r^W  
      6 | 33:48.05 |  6:57.00 | 152105 | 183379 ?ke C   
      7 | 40:45.05 |  6:55.70 | 183380 | 214574 "thu@~aC  
n1;V2k{uV  
f'.yM*  
范围状态及错误 $YSOkyC?  
Z'fy9  
已选择范围 "xO`&a{  
'"KK|]vJ  
     文件名 J:\12 Music*音乐\1995 You Are Not Alone (JP - ESCA 6300) 7''\CDImage.wav d6n6= [*  
5&xvY.!27V  
     峰值电平 100.0 % Aqc(  
     抓取速度 6.1 X cN :;ir  
     范围质量 99.9 % IQ~()/;3d  
     复制 CRC DED3C6F2 #&/*ll)  
     复制成功 F 4h EfO3  
0I&rZMpF&  
没有错误发生 Kfr?sX  
61KJ( rSX3  
0O:TKgb&C.  
AccurateRip 摘要 |~/{lE=I  
&O[o;(}mFI  
音轨  1  精确地校准抓取  1)  [CF6AEAFD]  (AR v1) }I;W  
音轨  2  精确地校准抓取  1)  [25EEBB72]  (AR v1) v#X? KqD  
音轨  3  精确地校准抓取  1)  [EE1E2A75]  (AR v1) _Nj;Ni2rD  
音轨  4  精确地校准抓取  1)  [9DCEC106]  (AR v1) |#sP1w'l]  
音轨  5  精确地校准抓取  1)  [7A3266C6]  (AR v1) h%O`,iD2  
音轨  6  精确地校准抓取  1)  [16AB5730]  (AR v1) l(`w]=t&  
音轨  7  精确地校准抓取  1)  [7C10DC80]  (AR v1) B|%;(bM2C  
khIh<-s!  
所有音轨精确校准抓取 S38D cWIw  
D"o>\Q  
状态报告结尾
a@7we=!  
W$3p,VTMmB  
链接:http://pan.baidu.com/s/1qYwEkFE 密码: =DtM.oQ>  
此帖售价 16 金钱,已有 14 人购买 [记录] [购买]
购买后,将显示帖子中所有出售内容。
若发现会员采用欺骗的方法获取财富,请立刻举报,我们会对会员处以2-N倍的罚金,严重者封掉ID!
此段为出售的内容,购买后显示
离线小李

发帖
240
金钱
1125
威望
9
贡献值
8
交易币
212
只看该作者 1楼 发表于: 2017-01-03
谢谢,这盘CD内容有不同的歌曲
离线魏聪

发帖
168
金钱
2713
威望
41
贡献值
21
交易币
103
只看该作者 2楼 发表于: 2017-01-03
觉得把这么柔和的歌改成舞曲不太好
离线wannam

发帖
2703
金钱
87101
威望
382
贡献值
189
交易币
3346
只看该作者 3楼 发表于: 2017-01-03
谢谢分享,没听过这些混音版!
离线marlene55555

发帖
1165
金钱
34275
威望
293
贡献值
98
交易币
1341
只看该作者 4楼 发表于: 2017-01-04
绝好的单曲
离线mich008

发帖
857
金钱
6834
威望
24
贡献值
15
交易币
919
只看该作者 5楼 发表于: 2017-01-04
好多不同的版本 谢谢了

发帖
2767
金钱
30998
威望
622
贡献值
39
交易币
428
只看该作者 6楼 发表于: 2017-01-05
感谢分享。

离线lifan_npl

发帖
2224
金钱
31752
威望
853
贡献值
430
交易币
2605
只看该作者 7楼 发表于: 2017-01-05
谢谢幽灵分享,辛苦了
我的淘宝店:
http://shop63152617.taobao.com  
离线mjnet

发帖
381
金钱
30546
威望
104
贡献值
54
交易币
558
只看该作者 8楼 发表于: 2017-02-07
thank you!!
离线mjbad25

发帖
168
金钱
4677
威望
0
贡献值
1
交易币
173
只看该作者 9楼 发表于: 2017-04-06
我看到一个喜欢的歌手了
快速回复
限100 字节
 
上一个 下一个