论坛风格切换切换到宽版
  • 305阅读
  • 10回复

[亲传][Single] 1995 You Are Not Alone (JP - ESCA 6300) - WAV整轨 ♬by幽灵 [复制链接]

上一主题 下一主题
离线mjghosts
 

发帖
8194
金钱
205392
威望
9035
贡献值
2641
交易币
4553
只看楼主 倒序阅读 楼主  发表于: 01-03
— 本帖被 mjghosts 执行加亮操作(2017-01-03) —
*日本发行单曲,7首歌,混音曲目上乘,推荐!完美精确校准抓轨! `_IgH  
eBD7g-  
注:独家整理,转载请注明出处!EAC无损整轨(压缩包内含CD图片) \78w1Rkl  
Y.O/~af  
解压密码:www.mjsunny.com
4{d`-reHg  
*siN#,5  
Tracklist $-dz1}  
1 You Are Not Alone (Album Edit) 4:55 XYbc1+C  
2 You Are Not Alone (Radio Edit) 4:36 :y)'_p *l/  
3 You Are Not Alone (Frankie Knuckles - Franctified Club Mix) 10:10 zwAkXj  
4 You Are Not Alone (R. Kelly Remix) 6:26 Pv.z~~l Y  
5 You Are Not Alone (Frankie Knuckles - Classic Song Version) 7:40 NX?J  
6 You Are Not Alone (Jon B. Main Mix) 6:57 Nl_Sgyx,\  
7 You Are Not Alone (Jon B. Padappella) 6:55
,|4%YaN.3  
;!(.hCHvr  
utq*<,^  
)-FQ_K%  
eATX8`W  
CqVh9M.ah  
Exact Audio Copy V1.0 beta 6 from 9. April 2015 iVM{ L  
<tZPS`c'_  
EAC 抓取日志文件从17. 十二月 2016, 0:54 S8+Xk= x  
WP1>)  
Michael Jackson / You Are Not Alone dq?q(_9  
5-|fp(Ww_W  
使用驱动器  :MATSHITADVD-RAM UJ890AS   Adapter: 1  ID: 1 xq',pzN  
0(VQwGC[  
读取模式      : 可靠Secure 5H#3PZaQ  
使用精确流     : 是 >S5:zz\  
清空音频缓存    : 否 G0$ 1"9u\w  
使用 C2 指示器 : 是 6.|f iQs ]  
[Dp6q~RM  
读取偏移校正:               : 102 @AL,@P/9=  
读取 Lead-In 和 Lead-Out : 否 ]SpUD  
用静音填充抓取中丢失偏移的采样       : 是 eFvw9B+  
去除首尾静音块               : 否 72} MspzUt  
在CRC 计算中使用了空样本       : 是 AEm?g$a  
已用接口                  : Win NT 及 2000 本地 Win32 接口 [|V<e+>T/  
pm O}m>  
所用输出模式: : 内部 WAV 函数 (Ac ' }O  
样本格式    : 44.100 Hz; 16 Bit; 立体声  {[o=df/  
2J9_(w  
FSd842O  
已抓取 CD 的 TOC zS18Kl  
LHKawEZ  
     音轨 |    起始    |    长度    |  起始扇区  |  结束扇区   BftW<1,U^  
    -------------------------------------------- 7qq}wR]]  
      1 |  0:00.00 |  4:55.10 |      0 |  22134 3|-)]^1O  
      2 |  4:55.10 |  4:36.17 |  22135 |  42851 I0.{OJ-  
      3 |  9:31.27 | 10:10.38 |  42852 |  88639 #GT/Q3{C  
      4 | 19:41.65 |  6:26.15 |  88640 | 117604 !"j?dQ.U;  
      5 | 26:08.05 |  7:40.00 | 117605 | 152104 nAG2!2_8  
      6 | 33:48.05 |  6:57.00 | 152105 | 183379 s"?Z jV)`  
      7 | 40:45.05 |  6:55.70 | 183380 | 214574 <xOXuve  
ZH;VEX  
{Y6U%HG{{r  
范围状态及错误 0sM{yGu=,  
YAQ]2<H  
已选择范围 XUc(7>k  
T1 >xw4uo  
     文件名 J:\12 Music*音乐\1995 You Are Not Alone (JP - ESCA 6300) 7''\CDImage.wav i#]}k  
lHQ:LI  
     峰值电平 100.0 % 7.mY@  
     抓取速度 6.1 X 2-=Ov@y2k!  
     范围质量 99.9 % 3kfrOf.4h  
     复制 CRC DED3C6F2 U[7 &   
     复制成功 "i>?Tg^  
BwOIdz%]OY  
没有错误发生 cG!\P:re  
y buKwZFC  
r>ziQq8C&  
AccurateRip 摘要 S( ^HIJK  
WQ+ xS!ba  
音轨  1  精确地校准抓取  1)  [CF6AEAFD]  (AR v1) ~pT1,1  
音轨  2  精确地校准抓取  1)  [25EEBB72]  (AR v1) 1/f{1k  
音轨  3  精确地校准抓取  1)  [EE1E2A75]  (AR v1) a]/KJn /B(  
音轨  4  精确地校准抓取  1)  [9DCEC106]  (AR v1) n$ rgJ  
音轨  5  精确地校准抓取  1)  [7A3266C6]  (AR v1) {/j gB"9  
音轨  6  精确地校准抓取  1)  [16AB5730]  (AR v1) efNscgi  
音轨  7  精确地校准抓取  1)  [7C10DC80]  (AR v1) TSD7R  
aGd wuD  
所有音轨精确校准抓取 bg!(B<!X  
5%N[hd1Ql  
状态报告结尾
Q6HghG  
jEE!H /  
链接:http://pan.baidu.com/s/1qYwEkFE 密码: Lk!m1J5  
此帖售价 16 金钱,已有 10 人购买 [记录] [购买]
购买后,将显示帖子中所有出售内容。
若发现会员采用欺骗的方法获取财富,请立刻举报,我们会对会员处以2-N倍的罚金,严重者封掉ID!
此段为出售的内容,购买后显示
离线小李

发帖
202
金钱
182
威望
98
贡献值
7
交易币
170
只看该作者 1楼 发表于: 01-03
谢谢,这盘CD内容有不同的歌曲
离线魏聪

发帖
159
金钱
2897
威望
41
贡献值
21
交易币
94
只看该作者 2楼 发表于: 01-03
觉得把这么柔和的歌改成舞曲不太好
离线wannam

发帖
2603
金钱
80583
威望
363
贡献值
169
交易币
3246
只看该作者 3楼 发表于: 01-03
谢谢分享,没听过这些混音版!
离线marlene55555

发帖
1161
金钱
34311
威望
293
贡献值
98
交易币
1337
只看该作者 4楼 发表于: 01-04
绝好的单曲
离线mich008

发帖
760
金钱
4996
威望
24
贡献值
15
交易币
822
只看该作者 5楼 发表于: 01-04
好多不同的版本 谢谢了

发帖
2632
金钱
28148
威望
616
贡献值
33
交易币
269
只看该作者 6楼 发表于: 01-05
感谢分享。

离线lifan_npl

发帖
2063
金钱
18206
威望
777
贡献值
337
交易币
2416
只看该作者 7楼 发表于: 01-05
谢谢幽灵分享,辛苦了
我的淘宝:
http://shop63152617.taobao.com  
离线mjnet

发帖
322
金钱
30298
威望
101
贡献值
51
交易币
487
只看该作者 8楼 发表于: 02-07
thank you!!
离线mjbad25

发帖
134
金钱
6006
威望
0
贡献值
1
交易币
139
只看该作者 9楼 发表于: 04-06
我看到一个喜欢的歌手了
快速回复
限100 字节
 
上一个 下一个