论坛风格切换切换到宽版
  • 442阅读
  • 10回复

[亲传][Single] 1995 You Are Not Alone (JP - ESCA 6300) - WAV整轨 ♬by幽灵 [复制链接]

上一主题 下一主题
离线mjghosts
 

发帖
8235
金钱
209029
威望
9162
贡献值
2713
交易币
4678
只看楼主 倒序阅读 楼主  发表于: 01-03
— 本帖被 mjghosts 执行加亮操作(2017-01-03) —
*日本发行单曲,7首歌,混音曲目上乘,推荐!完美精确校准抓轨! uNw9g<g:V[  
ub`zS-vb  
注:独家整理,转载请注明出处!EAC无损整轨(压缩包内含CD图片) |pq9i)e&  
rQU6*f  
解压密码:www.mjsunny.com
P4/~_$e  
&,{YfAxQ`  
Tracklist HTvUt*U1  
1 You Are Not Alone (Album Edit) 4:55 B##X94aTT  
2 You Are Not Alone (Radio Edit) 4:36 u3pFH(  
3 You Are Not Alone (Frankie Knuckles - Franctified Club Mix) 10:10 @>V;guJC%  
4 You Are Not Alone (R. Kelly Remix) 6:26 2' ^7G@%  
5 You Are Not Alone (Frankie Knuckles - Classic Song Version) 7:40 v'S5F@ln  
6 You Are Not Alone (Jon B. Main Mix) 6:57 &oy')\H  
7 You Are Not Alone (Jon B. Padappella) 6:55
]yZ%wU9!  
V'MY+#  
,u)jZ7  
e"NP]_vh,  
YhS_ ,3E  
2l^_OrE!  
Exact Audio Copy V1.0 beta 6 from 9. April 2015 pi/0~ke4"  
ka8Y+Gs  
EAC 抓取日志文件从17. 十二月 2016, 0:54 A1,q 3<<D%  
x-X~'p'f  
Michael Jackson / You Are Not Alone Rb& 9!z  
2bG3&G  
使用驱动器  :MATSHITADVD-RAM UJ890AS   Adapter: 1  ID: 1 gK({InOP  
:=ek~s.UV  
读取模式      : 可靠Secure mY4pvpZw8  
使用精确流     : 是 /YHO"4Z  
清空音频缓存    : 否 n{sk  
使用 C2 指示器 : 是 7)r]h?  
i l@>b  
读取偏移校正:               : 102 i:0v6d  
读取 Lead-In 和 Lead-Out : 否 8lYA6A  
用静音填充抓取中丢失偏移的采样       : 是 Nyy&'\`!  
去除首尾静音块               : 否 ^py=]7[I  
在CRC 计算中使用了空样本       : 是 b3E1S+\=~  
已用接口                  : Win NT 及 2000 本地 Win32 接口 z0<E3t  
?IHt T3'Rt  
所用输出模式: : 内部 WAV 函数 %%s)D4sW  
样本格式    : 44.100 Hz; 16 Bit; 立体声 B\RAX#  
IRm}?hHf  
]|CcQ1#|H  
已抓取 CD 的 TOC Hq W /  
Ur xiaE  
     音轨 |    起始    |    长度    |  起始扇区  |  结束扇区   U3a2wK  
    -------------------------------------------- ~-A"j\gi"  
      1 |  0:00.00 |  4:55.10 |      0 |  22134 tVAo o-%  
      2 |  4:55.10 |  4:36.17 |  22135 |  42851 P! +Gwm{  
      3 |  9:31.27 | 10:10.38 |  42852 |  88639 )&1v[]%S  
      4 | 19:41.65 |  6:26.15 |  88640 | 117604 ev;&n@k_I  
      5 | 26:08.05 |  7:40.00 | 117605 | 152104 MTtx|L\4  
      6 | 33:48.05 |  6:57.00 | 152105 | 183379 Nj4CkMM[3  
      7 | 40:45.05 |  6:55.70 | 183380 | 214574 Xb%Q%"?~  
O"'xAPQW  
e El)wZ,A  
范围状态及错误 Mm@G{J\\  
Vr},+Rj  
已选择范围 w U+r]SK@  
o>8~rtl  
     文件名 J:\12 Music*音乐\1995 You Are Not Alone (JP - ESCA 6300) 7''\CDImage.wav (O+d6oT=Z2  
h]s6)tI I  
     峰值电平 100.0 %  ,RR{Y-  
     抓取速度 6.1 X -E|"?  
     范围质量 99.9 % ,pD sU@  
     复制 CRC DED3C6F2 r[!~~yu/o  
     复制成功 Z(6.e8fK  
:o^ioX.J  
没有错误发生 >`03EsU  
W]eILCo  
=7+%31  
AccurateRip 摘要 c-hc.i}!  
1K3XNHF  
音轨  1  精确地校准抓取  1)  [CF6AEAFD]  (AR v1) 0\!Bh^++1  
音轨  2  精确地校准抓取  1)  [25EEBB72]  (AR v1) :.AC%'S  
音轨  3  精确地校准抓取  1)  [EE1E2A75]  (AR v1) >e!J(4.-  
音轨  4  精确地校准抓取  1)  [9DCEC106]  (AR v1) 7Z2D}O +  
音轨  5  精确地校准抓取  1)  [7A3266C6]  (AR v1) ?x ",VA  
音轨  6  精确地校准抓取  1)  [16AB5730]  (AR v1) {P?Ge  
音轨  7  精确地校准抓取  1)  [7C10DC80]  (AR v1) Ydsnu  
H%n/;DW  
所有音轨精确校准抓取 xb[yy}>"L  
JGq9RB]D$  
状态报告结尾
1y[~xxgE  
RoHX0   
链接:http://pan.baidu.com/s/1qYwEkFE 密码: :Hitx  
此帖售价 16 金钱,已有 10 人购买 [记录] [购买]
购买后,将显示帖子中所有出售内容。
若发现会员采用欺骗的方法获取财富,请立刻举报,我们会对会员处以2-N倍的罚金,严重者封掉ID!
此段为出售的内容,购买后显示
离线小李

发帖
211
金钱
177
威望
98
贡献值
7
交易币
179
只看该作者 1楼 发表于: 01-03
谢谢,这盘CD内容有不同的歌曲
离线魏聪

发帖
159
金钱
2897
威望
41
贡献值
21
交易币
94
只看该作者 2楼 发表于: 01-03
觉得把这么柔和的歌改成舞曲不太好
离线wannam

发帖
2680
金钱
86748
威望
382
贡献值
189
交易币
3323
只看该作者 3楼 发表于: 01-03
谢谢分享,没听过这些混音版!
离线marlene55555

发帖
1161
金钱
34314
威望
293
贡献值
98
交易币
1337
只看该作者 4楼 发表于: 01-04
绝好的单曲
在线mich008

发帖
793
金钱
4967
威望
24
贡献值
15
交易币
855
只看该作者 5楼 发表于: 01-04
好多不同的版本 谢谢了

发帖
2650
金钱
28573
威望
617
贡献值
34
交易币
291
只看该作者 6楼 发表于: 01-05
感谢分享。

离线lifan_npl

发帖
2093
金钱
18000
威望
787
贡献值
347
交易币
2446
只看该作者 7楼 发表于: 01-05
谢谢幽灵分享,辛苦了
我的淘宝:
http://shop63152617.taobao.com  
离线mjnet

发帖
354
金钱
30856
威望
104
贡献值
54
交易币
531
只看该作者 8楼 发表于: 02-07
thank you!!
离线mjbad25

发帖
134
金钱
6006
威望
0
贡献值
1
交易币
139
只看该作者 9楼 发表于: 04-06
我看到一个喜欢的歌手了
快速回复
限100 字节
 
上一个 下一个