论坛风格切换切换到宽版
  • 549阅读
  • 12回复

[亲传][Single] 1995 You Are Not Alone (JP - ESCA 6300) - WAV整轨 ♬by幽灵 [复制链接]

上一主题 下一主题
离线mjghosts
 

发帖
8256
金钱
212030
威望
9166
贡献值
2715
交易币
4707
只看楼主 倒序阅读 楼主  发表于: 01-03
— 本帖被 mjghosts 执行加亮操作(2017-01-03) —
*日本发行单曲,7首歌,混音曲目上乘,推荐!完美精确校准抓轨! A89Y;_4y  
F\I5fNs@  
注:独家整理,转载请注明出处!EAC无损整轨(压缩包内含CD图片) ;g!xQvcR  
pU[a[  
解压密码:www.mjsunny.com
"@F*$JGT y  
>:(6{}b  
Tracklist <<~lV5  
1 You Are Not Alone (Album Edit) 4:55 exGhkt~  
2 You Are Not Alone (Radio Edit) 4:36 w0F:%:/  
3 You Are Not Alone (Frankie Knuckles - Franctified Club Mix) 10:10 hv_pb#1Ks  
4 You Are Not Alone (R. Kelly Remix) 6:26 T/X?ZK(T  
5 You Are Not Alone (Frankie Knuckles - Classic Song Version) 7:40 ~`W6O>  
6 You Are Not Alone (Jon B. Main Mix) 6:57 v>yGsJnV'  
7 You Are Not Alone (Jon B. Padappella) 6:55
pfT`WT  
9|?(GG  
nOL 25Y:  
!Sr0Im0  
^~*[~  
WP#_qqO  
Exact Audio Copy V1.0 beta 6 from 9. April 2015 dOYmt,  
Yqz[sz5+m  
EAC 抓取日志文件从17. 十二月 2016, 0:54 { "@b`  
h1UlLy 8  
Michael Jackson / You Are Not Alone ?}lpo; $  
(gJ )]/n  
使用驱动器  :MATSHITADVD-RAM UJ890AS   Adapter: 1  ID: 1 :pF]TY"K.  
aSj1P/A  
读取模式      : 可靠Secure %F]9^C+  
使用精确流     : 是 &#my #u^O;  
清空音频缓存    : 否 BnnUUaE  
使用 C2 指示器 : 是 "qP^uno  
9xS`@ "`  
读取偏移校正:               : 102 Jc#)T;# 6  
读取 Lead-In 和 Lead-Out : 否 '<W,-i  
用静音填充抓取中丢失偏移的采样       : 是 {F9Qy0.*u  
去除首尾静音块               : 否 7LZb*+>  
在CRC 计算中使用了空样本       : 是 V7'x? pt  
已用接口                  : Win NT 及 2000 本地 Win32 接口 VGUDUM.8  
l )V43  
所用输出模式: : 内部 WAV 函数 SR8Kzk{  
样本格式    : 44.100 Hz; 16 Bit; 立体声 5%aKlx9^#  
Z q>.;>  
RIqxM  
已抓取 CD 的 TOC 'xI+kyu  
"EkO>M/fr  
     音轨 |    起始    |    长度    |  起始扇区  |  结束扇区   $=SYssg7La  
    -------------------------------------------- l hp:.  
      1 |  0:00.00 |  4:55.10 |      0 |  22134 ZGvNEjff  
      2 |  4:55.10 |  4:36.17 |  22135 |  42851 "$;:dfrU  
      3 |  9:31.27 | 10:10.38 |  42852 |  88639 ' *C)S  
      4 | 19:41.65 |  6:26.15 |  88640 | 117604  o*1`,n  
      5 | 26:08.05 |  7:40.00 | 117605 | 152104 /`@>v$oo  
      6 | 33:48.05 |  6:57.00 | 152105 | 183379 ToM*tXj  
      7 | 40:45.05 |  6:55.70 | 183380 | 214574 M<pgaB0  
Vo8"/]_h  
M_I\:Q  
范围状态及错误 r5wXuA,Um  
'2oBi6|X  
已选择范围 "// 8^e%Xo  
^[akB|#\9  
     文件名 J:\12 Music*音乐\1995 You Are Not Alone (JP - ESCA 6300) 7''\CDImage.wav Mpx.n]O.  
~=*_I4,+r  
     峰值电平 100.0 % sBL^NDqa2  
     抓取速度 6.1 X U"Oq85vY  
     范围质量 99.9 % Q5JeL6t  
     复制 CRC DED3C6F2 B;Vl+}R  
     复制成功 Mt>DAk  
~gD]JiiA  
没有错误发生 xm5D$m3#  
{ar }.U  
Ycwb1e#  
AccurateRip 摘要 hAdEq$  
$nW>]S\|  
音轨  1  精确地校准抓取  1)  [CF6AEAFD]  (AR v1) (@Bm2gH  
音轨  2  精确地校准抓取  1)  [25EEBB72]  (AR v1) x$E l7=.  
音轨  3  精确地校准抓取  1)  [EE1E2A75]  (AR v1) gqhW.e}]  
音轨  4  精确地校准抓取  1)  [9DCEC106]  (AR v1) @tA.^k0`  
音轨  5  精确地校准抓取  1)  [7A3266C6]  (AR v1) Q.Acmht#  
音轨  6  精确地校准抓取  1)  [16AB5730]  (AR v1) y-U(`{[nM  
音轨  7  精确地校准抓取  1)  [7C10DC80]  (AR v1) 2:abe  
ra3WLK  
所有音轨精确校准抓取 ;WhB2/5v  
_C4^J  
状态报告结尾
/X?Nv^Hy  
W)l&4#__(  
链接:http://pan.baidu.com/s/1qYwEkFE 密码: JsC0^A;fM  
此帖售价 16 金钱,已有 12 人购买 [记录] [购买]
购买后,将显示帖子中所有出售内容。
若发现会员采用欺骗的方法获取财富,请立刻举报,我们会对会员处以2-N倍的罚金,严重者封掉ID!
此段为出售的内容,购买后显示
离线小李

发帖
219
金钱
137
威望
98
贡献值
7
交易币
187
只看该作者 1楼 发表于: 01-03
谢谢,这盘CD内容有不同的歌曲
离线魏聪

发帖
162
金钱
2911
威望
41
贡献值
21
交易币
97
只看该作者 2楼 发表于: 01-03
觉得把这么柔和的歌改成舞曲不太好
离线wannam

发帖
2698
金钱
86889
威望
382
贡献值
189
交易币
3341
只看该作者 3楼 发表于: 01-03
谢谢分享,没听过这些混音版!
离线marlene55555

发帖
1162
金钱
34284
威望
293
贡献值
98
交易币
1338
只看该作者 4楼 发表于: 01-04
绝好的单曲
离线mich008

发帖
804
金钱
5195
威望
24
贡献值
15
交易币
866
只看该作者 5楼 发表于: 01-04
好多不同的版本 谢谢了

发帖
2661
金钱
28627
威望
617
贡献值
34
交易币
302
只看该作者 6楼 发表于: 01-05
感谢分享。

离线lifan_npl

发帖
2132
金钱
17379
威望
787
贡献值
347
交易币
2485
只看该作者 7楼 发表于: 01-05
谢谢幽灵分享,辛苦了
我的淘宝:
http://shop63152617.taobao.com  
离线mjnet

发帖
370
金钱
30527
威望
104
贡献值
54
交易币
547
只看该作者 8楼 发表于: 02-07
thank you!!
离线mjbad25

发帖
134
金钱
6006
威望
0
贡献值
1
交易币
139
只看该作者 9楼 发表于: 04-06
我看到一个喜欢的歌手了
快速回复
限100 字节
 
上一个 下一个