论坛风格切换切换到宽版
  • 663阅读
  • 12回复

[亲传][Single] 1995 You Are Not Alone (JP - ESCA 6300) - WAV整轨 ♬by幽灵 [复制链接]

上一主题 下一主题
离线mjghosts
 

发帖
8232
金钱
213145
威望
9167
贡献值
2716
交易币
4715
只看楼主 倒序阅读 楼主  发表于: 01-03
— 本帖被 mjghosts 执行加亮操作(2017-01-03) —
*日本发行单曲,7首歌,混音曲目上乘,推荐!完美精确校准抓轨! LkruL_E>  
IY'=DePd  
注:独家整理,转载请注明出处!EAC无损整轨(压缩包内含CD图片) +d}E&=p_  
!3n)|~r;K  
解压密码:www.mjsunny.com
'VyM{:8  
Ei}/iBG@  
Tracklist [v7^i_d  
1 You Are Not Alone (Album Edit) 4:55 j Uv!9Y}F  
2 You Are Not Alone (Radio Edit) 4:36 !-2R;yo12  
3 You Are Not Alone (Frankie Knuckles - Franctified Club Mix) 10:10 ?]fF3SJk  
4 You Are Not Alone (R. Kelly Remix) 6:26 3 !Sp0P  
5 You Are Not Alone (Frankie Knuckles - Classic Song Version) 7:40 +4[^!q* H  
6 You Are Not Alone (Jon B. Main Mix) 6:57 p raaY}}  
7 You Are Not Alone (Jon B. Padappella) 6:55
,jXM3?>B  
V .os  
obdFS,JxxG  
R[ 49(>7H4  
UzXE_ S  
IbcZ@'RSw  
Exact Audio Copy V1.0 beta 6 from 9. April 2015 {R/C0-Q^^  
5K|"\  
EAC 抓取日志文件从17. 十二月 2016, 0:54 e</$ s  
+ >cBVx6  
Michael Jackson / You Are Not Alone s?ko?qN(  
e^ lWR]v  
使用驱动器  :MATSHITADVD-RAM UJ890AS   Adapter: 1  ID: 1 : Sq?a0!S  
;Ag 3c+  
读取模式      : 可靠Secure PvGDTYcKp  
使用精确流     : 是 6\61~u~  
清空音频缓存    : 否 #z1H8CFL"  
使用 C2 指示器 : 是 %%cHoprDa  
waKT{5k  
读取偏移校正:               : 102 BcD&sQ2F  
读取 Lead-In 和 Lead-Out : 否 b,KcBQ.  
用静音填充抓取中丢失偏移的采样       : 是 0zY(:;X  
去除首尾静音块               : 否 C ;(t/zh  
在CRC 计算中使用了空样本       : 是 /t-fjB{=G  
已用接口                  : Win NT 及 2000 本地 Win32 接口 ^*\XgX  
5[n(7;+gw  
所用输出模式: : 内部 WAV 函数 ,ZS6jZ  
样本格式    : 44.100 Hz; 16 Bit; 立体声  )J?{+3  
;60.l!   
~afg)[(  
已抓取 CD 的 TOC $Ci0I+5w  
kM`l  
     音轨 |    起始    |    长度    |  起始扇区  |  结束扇区   ASPy  
    -------------------------------------------- mJB2)^33a  
      1 |  0:00.00 |  4:55.10 |      0 |  22134 wW?,;B'74  
      2 |  4:55.10 |  4:36.17 |  22135 |  42851 F_uY{bg  
      3 |  9:31.27 | 10:10.38 |  42852 |  88639 [Pe#kzLX  
      4 | 19:41.65 |  6:26.15 |  88640 | 117604 Hx$c N  
      5 | 26:08.05 |  7:40.00 | 117605 | 152104 v&FF|)$  
      6 | 33:48.05 |  6:57.00 | 152105 | 183379 9dh >l!2  
      7 | 40:45.05 |  6:55.70 | 183380 | 214574 i~J;G#b  
AGA`fRVx  
%=j3jj[  
范围状态及错误 U-wLt(Y<  
c':ezEaC  
已选择范围 ;evCW$G=  
ngulcv  
     文件名 J:\12 Music*音乐\1995 You Are Not Alone (JP - ESCA 6300) 7''\CDImage.wav Y^"4?96  
E& 36H  
     峰值电平 100.0 % | P6EO22p  
     抓取速度 6.1 X xSpC'"   
     范围质量 99.9 % . ,NB( s`  
     复制 CRC DED3C6F2 d&:H&o)T!  
     复制成功 [UPNd!sy  
& %}/AoU  
没有错误发生 i%(yk#=V  
s*,cF6  
d O A%F$Mk  
AccurateRip 摘要 0*(K DDv  
qMgfMhQ7DU  
音轨  1  精确地校准抓取  1)  [CF6AEAFD]  (AR v1) [%.18FWI  
音轨  2  精确地校准抓取  1)  [25EEBB72]  (AR v1) <%!J?  
音轨  3  精确地校准抓取  1)  [EE1E2A75]  (AR v1) \RE c8nsLy  
音轨  4  精确地校准抓取  1)  [9DCEC106]  (AR v1) {% F`%_{"  
音轨  5  精确地校准抓取  1)  [7A3266C6]  (AR v1) 4;\Y?M}g?  
音轨  6  精确地校准抓取  1)  [16AB5730]  (AR v1) =x4a~=HX  
音轨  7  精确地校准抓取  1)  [7C10DC80]  (AR v1) TSXTc'  
$I(}r3r  
所有音轨精确校准抓取 {5 Kz'FT  
;Id"n7W  
状态报告结尾
;Xh5oB\)W  
z `@z  
链接:http://pan.baidu.com/s/1qYwEkFE 密码: u7u~  
此帖售价 16 金钱,已有 12 人购买 [记录] [购买]
购买后,将显示帖子中所有出售内容。
若发现会员采用欺骗的方法获取财富,请立刻举报,我们会对会员处以2-N倍的罚金,严重者封掉ID!
此段为出售的内容,购买后显示
离线小李

发帖
226
金钱
155
威望
99
贡献值
8
交易币
198
只看该作者 1楼 发表于: 01-03
谢谢,这盘CD内容有不同的歌曲
离线魏聪

发帖
168
金钱
2713
威望
41
贡献值
21
交易币
103
只看该作者 2楼 发表于: 01-03
觉得把这么柔和的歌改成舞曲不太好
离线wannam

发帖
2699
金钱
86933
威望
382
贡献值
189
交易币
3342
只看该作者 3楼 发表于: 01-03
谢谢分享,没听过这些混音版!
离线marlene55555

发帖
1164
金钱
34253
威望
293
贡献值
98
交易币
1340
只看该作者 4楼 发表于: 01-04
绝好的单曲
离线mich008

发帖
814
金钱
5332
威望
24
贡献值
15
交易币
876
只看该作者 5楼 发表于: 01-04
好多不同的版本 谢谢了

发帖
2715
金钱
31507
威望
620
贡献值
37
交易币
368
只看该作者 6楼 发表于: 01-05
感谢分享。

离线lifan_npl

发帖
2165
金钱
16955
威望
782
贡献值
347
交易币
2518
只看该作者 7楼 发表于: 01-05
谢谢幽灵分享,辛苦了
我的淘宝:
http://shop63152617.taobao.com  
离线mjnet

发帖
375
金钱
30607
威望
104
贡献值
54
交易币
552
只看该作者 8楼 发表于: 02-07
thank you!!
离线mjbad25

发帖
134
金钱
6006
威望
0
贡献值
1
交易币
139
只看该作者 9楼 发表于: 04-06
我看到一个喜欢的歌手了
快速回复
限100 字节
 
上一个 下一个