论坛风格切换切换到宽版
  • 1200阅读
  • 14回复

[亲传][Single] 1995 You Are Not Alone (JP - ESCA 6300) - WAV整轨 ♬by幽灵 [复制链接]

上一主题 下一主题
离线mjghosts
 

发帖
8256
金钱
219309
威望
9187
贡献值
2734
交易币
4791
只看楼主 倒序阅读 楼主  发表于: 2017-01-03
— 本帖被 mjghosts 执行加亮操作(2017-01-03) —
*日本发行单曲,7首歌,混音曲目上乘,推荐!完美精确校准抓轨! i"ck`6v"8  
i:AjWC@]  
注:独家整理,转载请注明出处!EAC无损整轨(压缩包内含CD图片) oR4fK td  
s= 3EBh  
解压密码:www.mjsunny.com
n">?LN-DC  
Cj`pw2.  
Tracklist VGkW3Nt0  
1 You Are Not Alone (Album Edit) 4:55 QYFN:XZ  
2 You Are Not Alone (Radio Edit) 4:36 rjhs ?  
3 You Are Not Alone (Frankie Knuckles - Franctified Club Mix) 10:10 *q\HFI  
4 You Are Not Alone (R. Kelly Remix) 6:26 s\F EA"w/  
5 You Are Not Alone (Frankie Knuckles - Classic Song Version) 7:40 N9fUlXhR  
6 You Are Not Alone (Jon B. Main Mix) 6:57 od|N-R  
7 You Are Not Alone (Jon B. Padappella) 6:55
64IeCAMVo  
FRs|!\S=  
2- |j  
Q>#)LHX  
'T #<OR  
g,{Ei]$>I  
Exact Audio Copy V1.0 beta 6 from 9. April 2015 r5X BcG(2  
3XYIbXnk  
EAC 抓取日志文件从17. 十二月 2016, 0:54 :&\E\9  
4)c"@Zf  
Michael Jackson / You Are Not Alone @EH4N%fH  
cfO^CC  
使用驱动器  :MATSHITADVD-RAM UJ890AS   Adapter: 1  ID: 1 yA`]%U((  
XEe+&VQmY  
读取模式      : 可靠Secure o@Cn_p^X  
使用精确流     : 是 ;d'O.i=  
清空音频缓存    : 否 GoZJDE3  
使用 C2 指示器 : 是 ^b/q|(Nu&  
a 7mKshY(  
读取偏移校正:               : 102 SE7 (+r  
读取 Lead-In 和 Lead-Out : 否 /*xmv $  
用静音填充抓取中丢失偏移的采样       : 是 tz \:r>3vI  
去除首尾静音块               : 否 ysw6hVb  
在CRC 计算中使用了空样本       : 是 c#4ZDjvm6  
已用接口                  : Win NT 及 2000 本地 Win32 接口 k)4lX|}Vm  
@kgpq  
所用输出模式: : 内部 WAV 函数 1:~m)"?I_^  
样本格式    : 44.100 Hz; 16 Bit; 立体声 &@.=)4Y  
HT;QepY3  
H2t pP~!G  
已抓取 CD 的 TOC '-1jWw:8  
^`PSlT3<F  
     音轨 |    起始    |    长度    |  起始扇区  |  结束扇区   W$ d{  
    -------------------------------------------- YH'.Yj2  
      1 |  0:00.00 |  4:55.10 |      0 |  22134 W*WH .1&  
      2 |  4:55.10 |  4:36.17 |  22135 |  42851 whp\*]8  
      3 |  9:31.27 | 10:10.38 |  42852 |  88639 sMpC4E  
      4 | 19:41.65 |  6:26.15 |  88640 | 117604 #(wz l  
      5 | 26:08.05 |  7:40.00 | 117605 | 152104 }n&JZ`8<s  
      6 | 33:48.05 |  6:57.00 | 152105 | 183379 'H-YFB$l  
      7 | 40:45.05 |  6:55.70 | 183380 | 214574 ,i((;/O6  
W&q5cz  
WOTu" Yj  
范围状态及错误 #i#.tc  
cLk+( dn  
已选择范围 vBQ?S2f  
!urd $Ta  
     文件名 J:\12 Music*音乐\1995 You Are Not Alone (JP - ESCA 6300) 7''\CDImage.wav n'(n4qH2#s  
U=?"j-wN  
     峰值电平 100.0 % lkJ#$Ik&  
     抓取速度 6.1 X 8Nq Iz  
     范围质量 99.9 % ;;J98G|1  
     复制 CRC DED3C6F2 OL+40J  
     复制成功 5oyMR_yl  
AS-t][m#  
没有错误发生 }K]VlFR  
s~ZC!-[;  
i(;u6Rk  
AccurateRip 摘要 4sgwQ$m)  
?)<XuMh  
音轨  1  精确地校准抓取  1)  [CF6AEAFD]  (AR v1) . zMM86c  
音轨  2  精确地校准抓取  1)  [25EEBB72]  (AR v1) ?{Z0g+B1  
音轨  3  精确地校准抓取  1)  [EE1E2A75]  (AR v1) %*; 8m'  
音轨  4  精确地校准抓取  1)  [9DCEC106]  (AR v1) ]xeyXw84k  
音轨  5  精确地校准抓取  1)  [7A3266C6]  (AR v1) &H>dE]Hq,  
音轨  6  精确地校准抓取  1)  [16AB5730]  (AR v1) ;|%JvptwW%  
音轨  7  精确地校准抓取  1)  [7C10DC80]  (AR v1) ;5_S  
;;H:$lx  
所有音轨精确校准抓取 6)YNjh.{ *  
E%:zE Q  
状态报告结尾
zUu>kJZ  
^( VB5p  
链接:http://pan.baidu.com/s/1qYwEkFE 密码: G{Q'N04RA  
此帖售价 16 金钱,已有 14 人购买 [记录] [购买]
购买后,将显示帖子中所有出售内容。
若发现会员采用欺骗的方法获取财富,请立刻举报,我们会对会员处以2-N倍的罚金,严重者封掉ID!
此段为出售的内容,购买后显示
离线小李

发帖
240
金钱
1125
威望
9
贡献值
8
交易币
212
只看该作者 1楼 发表于: 2017-01-03
谢谢,这盘CD内容有不同的歌曲
离线魏聪

发帖
168
金钱
2713
威望
41
贡献值
21
交易币
103
只看该作者 2楼 发表于: 2017-01-03
觉得把这么柔和的歌改成舞曲不太好
离线wannam

发帖
2703
金钱
87033
威望
382
贡献值
189
交易币
3346
只看该作者 3楼 发表于: 2017-01-03
谢谢分享,没听过这些混音版!
离线marlene55555

发帖
1165
金钱
34275
威望
293
贡献值
98
交易币
1341
只看该作者 4楼 发表于: 2017-01-04
绝好的单曲
离线mich008

发帖
849
金钱
5986
威望
24
贡献值
15
交易币
911
只看该作者 5楼 发表于: 2017-01-04
好多不同的版本 谢谢了

发帖
2751
金钱
30829
威望
621
贡献值
38
交易币
408
只看该作者 6楼 发表于: 2017-01-05
感谢分享。

离线lifan_npl

发帖
2212
金钱
31692
威望
853
贡献值
430
交易币
2593
只看该作者 7楼 发表于: 2017-01-05
谢谢幽灵分享,辛苦了
我的淘宝店:
http://shop63152617.taobao.com  
离线mjnet

发帖
381
金钱
30548
威望
104
贡献值
54
交易币
558
只看该作者 8楼 发表于: 2017-02-07
thank you!!
离线mjbad25

发帖
167
金钱
4672
威望
0
贡献值
1
交易币
172
只看该作者 9楼 发表于: 2017-04-06
我看到一个喜欢的歌手了
快速回复
限100 字节
 
上一个 下一个