论坛风格切换切换到宽版
  • 256阅读
  • 10回复

[亲传][Single] 1995 You Are Not Alone (JP - ESCA 6300) - WAV整轨 ♬by幽灵 [复制链接]

上一主题 下一主题
离线mjghosts
 

发帖
8193
金钱
205205
威望
9035
贡献值
2641
交易币
4552
只看楼主 倒序阅读 楼主  发表于: 01-03
— 本帖被 mjghosts 执行加亮操作(2017-01-03) —
*日本发行单曲,7首歌,混音曲目上乘,推荐!完美精确校准抓轨! DDqC}l_  
wgSR*d>y*9  
注:独家整理,转载请注明出处!EAC无损整轨(压缩包内含CD图片) ]be 0I)  
.FfwY 'V  
解压密码:www.mjsunny.com
M"$jpBN*  
-s?dzX  
Tracklist EOd.Tyb!/  
1 You Are Not Alone (Album Edit) 4:55 2n-Tpay0  
2 You Are Not Alone (Radio Edit) 4:36 lOowMlf@2  
3 You Are Not Alone (Frankie Knuckles - Franctified Club Mix) 10:10 ?~]1Gd  
4 You Are Not Alone (R. Kelly Remix) 6:26 "w:\@Jwu(  
5 You Are Not Alone (Frankie Knuckles - Classic Song Version) 7:40 nN_94 ZqS<  
6 You Are Not Alone (Jon B. Main Mix) 6:57 Egjk^:@  
7 You Are Not Alone (Jon B. Padappella) 6:55
q/d5P  
0`g}(}'L  
g%fJyk'  
WwCK  K  
1?e>x91  
E,ZB;  
Exact Audio Copy V1.0 beta 6 from 9. April 2015 _!$Up  
WacU@L $A  
EAC 抓取日志文件从17. 十二月 2016, 0:54 c4qp3B_w  
$Z(g=nS>  
Michael Jackson / You Are Not Alone K[Egwk7  
(to/9OrG  
使用驱动器  :MATSHITADVD-RAM UJ890AS   Adapter: 1  ID: 1 mvL0F%\.\  
%1 VNP(E  
读取模式      : 可靠Secure j-C42Pfr  
使用精确流     : 是 I 1VEm?CQ  
清空音频缓存    : 否 q. ,p6D  
使用 C2 指示器 : 是 ~H yyq-  
p0y0T|H^  
读取偏移校正:               : 102 @dT: 1s  
读取 Lead-In 和 Lead-Out : 否 TW-zh~|F  
用静音填充抓取中丢失偏移的采样       : 是 Ei?9M^w  
去除首尾静音块               : 否 esC\R4he  
在CRC 计算中使用了空样本       : 是 xJF6l!`  
已用接口                  : Win NT 及 2000 本地 Win32 接口 ^b `>/>  
Y+"hu2aPkY  
所用输出模式: : 内部 WAV 函数 Z 9 q{r s  
样本格式    : 44.100 Hz; 16 Bit; 立体声 "e7$q&R |  
beHCEwh  
Ek B6- nz  
已抓取 CD 的 TOC !EmR(x  
c^[1]'y  
     音轨 |    起始    |    长度    |  起始扇区  |  结束扇区   ubN"(F:!-S  
    -------------------------------------------- M:1F@\<  
      1 |  0:00.00 |  4:55.10 |      0 |  22134 jO3u]5}.6  
      2 |  4:55.10 |  4:36.17 |  22135 |  42851 VqO<+~M,E  
      3 |  9:31.27 | 10:10.38 |  42852 |  88639 GZhfA ;O,  
      4 | 19:41.65 |  6:26.15 |  88640 | 117604 UN .[,%<s  
      5 | 26:08.05 |  7:40.00 | 117605 | 152104 \,cKt_{ u  
      6 | 33:48.05 |  6:57.00 | 152105 | 183379 ZNH*[[Pf  
      7 | 40:45.05 |  6:55.70 | 183380 | 214574 { d2f)ra.  
zs]/Y2  
#NQz&4W  
范围状态及错误 M_.,c Vk  
8|-mzb&  
已选择范围 [TfV2j* e  
@01D1A  
     文件名 J:\12 Music*音乐\1995 You Are Not Alone (JP - ESCA 6300) 7''\CDImage.wav b\Xu1>  
J0*]6oD!  
     峰值电平 100.0 % +D-+}&oW  
     抓取速度 6.1 X r dG2| Tp  
     范围质量 99.9 % -.Pu5et4  
     复制 CRC DED3C6F2 G$kwc F'C  
     复制成功 $E_vCB _  
i6ypx  
没有错误发生 Md?bAMnG+}  
dV=5_wXZ$  
3w:Z4]J  
AccurateRip 摘要 8 W<)c  
eP)YJe 3  
音轨  1  精确地校准抓取  1)  [CF6AEAFD]  (AR v1) JO^ [@  
音轨  2  精确地校准抓取  1)  [25EEBB72]  (AR v1) ?nSp?m;  
音轨  3  精确地校准抓取  1)  [EE1E2A75]  (AR v1) P$qkb|D,  
音轨  4  精确地校准抓取  1)  [9DCEC106]  (AR v1) y=qo-v59'  
音轨  5  精确地校准抓取  1)  [7A3266C6]  (AR v1) ]XafFr6pe  
音轨  6  精确地校准抓取  1)  [16AB5730]  (AR v1) HXV73rDA  
音轨  7  精确地校准抓取  1)  [7C10DC80]  (AR v1) `rdfROKv  
R6$F<;nw  
所有音轨精确校准抓取 `8.32@rUB.  
>h( rd1  
状态报告结尾
C<@1H>S4_  
<J }9.k  
链接:http://pan.baidu.com/s/1qYwEkFE 密码: iE gM ~  
此帖售价 16 金钱,已有 10 人购买 [记录] [购买]
购买后,将显示帖子中所有出售内容。
若发现会员采用欺骗的方法获取财富,请立刻举报,我们会对会员处以2-N倍的罚金,严重者封掉ID!
此段为出售的内容,购买后显示
离线小李

发帖
200
金钱
181
威望
98
贡献值
7
交易币
168
只看该作者 1楼 发表于: 01-03
谢谢,这盘CD内容有不同的歌曲
离线魏聪

发帖
159
金钱
2897
威望
41
贡献值
21
交易币
94
只看该作者 2楼 发表于: 01-03
觉得把这么柔和的歌改成舞曲不太好
离线wannam

发帖
2582
金钱
75499
威望
363
贡献值
169
交易币
3225
只看该作者 3楼 发表于: 01-03
谢谢分享,没听过这些混音版!
离线marlene55555

发帖
1161
金钱
34311
威望
293
贡献值
98
交易币
1337
只看该作者 4楼 发表于: 01-04
绝好的单曲
离线mich008

发帖
755
金钱
4918
威望
24
贡献值
15
交易币
817
只看该作者 5楼 发表于: 01-04
好多不同的版本 谢谢了

发帖
2631
金钱
28098
威望
616
贡献值
33
交易币
268
只看该作者 6楼 发表于: 01-05
感谢分享。

离线lifan_npl

发帖
2062
金钱
18203
威望
777
贡献值
337
交易币
2415
只看该作者 7楼 发表于: 01-05
谢谢幽灵分享,辛苦了
我的淘宝:
http://shop63152617.taobao.com  
离线mjnet

发帖
322
金钱
30238
威望
101
贡献值
51
交易币
487
只看该作者 8楼 发表于: 02-07
thank you!!
离线mjbad25

发帖
134
金钱
6
威望
0
贡献值
1
交易币
139
只看该作者 9楼 发表于: 04-06
我看到一个喜欢的歌手了
快速回复
限100 字节
 
上一个 下一个