论坛风格切换切换到宽版
  • 381阅读
  • 10回复

[亲传][Single] 1995 You Are Not Alone (JP - ESCA 6300) - WAV整轨 ♬by幽灵 [复制链接]

上一主题 下一主题
在线mjghosts
 

发帖
8228
金钱
208462
威望
9161
贡献值
2712
交易币
4667
只看楼主 倒序阅读 楼主  发表于: 01-03
— 本帖被 mjghosts 执行加亮操作(2017-01-03) —
*日本发行单曲,7首歌,混音曲目上乘,推荐!完美精确校准抓轨! #6qLu  
. g95E<bd  
注:独家整理,转载请注明出处!EAC无损整轨(压缩包内含CD图片) =[V  
vd!|k5t[d  
解压密码:www.mjsunny.com
h"5!puN+  
9a0ibN6m  
Tracklist |Y\BI^  
1 You Are Not Alone (Album Edit) 4:55 2 .)`8|c9  
2 You Are Not Alone (Radio Edit) 4:36 lGAKHCs  
3 You Are Not Alone (Frankie Knuckles - Franctified Club Mix) 10:10  zL,B?  
4 You Are Not Alone (R. Kelly Remix) 6:26 4S+sz?W2j  
5 You Are Not Alone (Frankie Knuckles - Classic Song Version) 7:40 0ynvn9@t  
6 You Are Not Alone (Jon B. Main Mix) 6:57 8hx 3pvmk  
7 You Are Not Alone (Jon B. Padappella) 6:55
9 L^:N)-  
') -Rv]xe  
7CKh?>  
IfdgMELk  
tb@&!a$`?  
eZ^-gk?  
Exact Audio Copy V1.0 beta 6 from 9. April 2015 2}^fhMS  
lB0: 4cIj  
EAC 抓取日志文件从17. 十二月 2016, 0:54 RI q9wD}4(  
wSMP^kG  
Michael Jackson / You Are Not Alone b:,S  
Q'ok%9q!p  
使用驱动器  :MATSHITADVD-RAM UJ890AS   Adapter: 1  ID: 1 _p~lL<q-K[  
Q599@5aS  
读取模式      : 可靠Secure %b H1We  
使用精确流     : 是 @@,l0/  
清空音频缓存    : 否 Wq+6`o  
使用 C2 指示器 : 是 !NNq(t  
JO4rU- n  
读取偏移校正:               : 102 ;_.%S*W\  
读取 Lead-In 和 Lead-Out : 否 H0zKL]D'>  
用静音填充抓取中丢失偏移的采样       : 是 ?I6us X9$  
去除首尾静音块               : 否 ):@XMECa  
在CRC 计算中使用了空样本       : 是 pq 4/>WzE  
已用接口                  : Win NT 及 2000 本地 Win32 接口 KaJCfu yp  
x \.q zi  
所用输出模式: : 内部 WAV 函数 NuLyu=.?  
样本格式    : 44.100 Hz; 16 Bit; 立体声 ,)u\G(N  
~bSPtH ]6d  
Y)kO"  
已抓取 CD 的 TOC B'( /W@  
g$c\(isY;  
     音轨 |    起始    |    长度    |  起始扇区  |  结束扇区   1l$c*STK  
    -------------------------------------------- `uz15])1<  
      1 |  0:00.00 |  4:55.10 |      0 |  22134 C NDf&dzX8  
      2 |  4:55.10 |  4:36.17 |  22135 |  42851 otQulL)T/  
      3 |  9:31.27 | 10:10.38 |  42852 |  88639 ZT>?[`Vgc  
      4 | 19:41.65 |  6:26.15 |  88640 | 117604 F dR!jt  
      5 | 26:08.05 |  7:40.00 | 117605 | 152104 B3Id}[V  
      6 | 33:48.05 |  6:57.00 | 152105 | 183379 g3r4>SA  
      7 | 40:45.05 |  6:55.70 | 183380 | 214574 }co v"o  
|P{K\;-  
Y7QIFY's~  
范围状态及错误 b2x8t7%O  
nJ !`^X5I  
已选择范围 Z)RoFD1]C  
bERYC|  
     文件名 J:\12 Music*音乐\1995 You Are Not Alone (JP - ESCA 6300) 7''\CDImage.wav Q+d9D1b  
Dps0$f c  
     峰值电平 100.0 % m791w8Vr  
     抓取速度 6.1 X O2[uN@nY  
     范围质量 99.9 % /IDfGAE  
     复制 CRC DED3C6F2 t/? x#X  
     复制成功 V#!ftu#c?  
T\g%.  
没有错误发生 Go>_4)jy  
psb$rbu7[  
$xT'cl/IH  
AccurateRip 摘要 [ F id  
MH{$"^K  
音轨  1  精确地校准抓取  1)  [CF6AEAFD]  (AR v1) yQ)y#5/<6  
音轨  2  精确地校准抓取  1)  [25EEBB72]  (AR v1) r0=Aru5n  
音轨  3  精确地校准抓取  1)  [EE1E2A75]  (AR v1) ]Y!$HT7\  
音轨  4  精确地校准抓取  1)  [9DCEC106]  (AR v1) SJhcmx+  
音轨  5  精确地校准抓取  1)  [7A3266C6]  (AR v1) B42.;4"T  
音轨  6  精确地校准抓取  1)  [16AB5730]  (AR v1) jdxwS  
音轨  7  精确地校准抓取  1)  [7C10DC80]  (AR v1) gD0O7KO  
OF^v;4u  
所有音轨精确校准抓取 A$G>D3  
]Bw2>6W  
状态报告结尾
DYlu`j_ux  
9(k5Irv"'h  
链接:http://pan.baidu.com/s/1qYwEkFE 密码: H)S&sx#q]  
此帖售价 16 金钱,已有 10 人购买 [记录] [购买]
购买后,将显示帖子中所有出售内容。
若发现会员采用欺骗的方法获取财富,请立刻举报,我们会对会员处以2-N倍的罚金,严重者封掉ID!
此段为出售的内容,购买后显示
离线小李

发帖
207
金钱
182
威望
98
贡献值
7
交易币
175
只看该作者 1楼 发表于: 01-03
谢谢,这盘CD内容有不同的歌曲
离线魏聪

发帖
159
金钱
2897
威望
41
贡献值
21
交易币
94
只看该作者 2楼 发表于: 01-03
觉得把这么柔和的歌改成舞曲不太好
离线wannam

发帖
2666
金钱
80618
威望
382
贡献值
189
交易币
3309
只看该作者 3楼 发表于: 01-03
谢谢分享,没听过这些混音版!
离线marlene55555

发帖
1161
金钱
34311
威望
293
贡献值
98
交易币
1337
只看该作者 4楼 发表于: 01-04
绝好的单曲
离线mich008

发帖
777
金钱
5053
威望
24
贡献值
15
交易币
839
只看该作者 5楼 发表于: 01-04
好多不同的版本 谢谢了

发帖
2645
金钱
28240
威望
616
贡献值
33
交易币
282
只看该作者 6楼 发表于: 01-05
感谢分享。

离线lifan_npl

发帖
2076
金钱
18269
威望
787
贡献值
347
交易币
2429
只看该作者 7楼 发表于: 01-05
谢谢幽灵分享,辛苦了
我的淘宝:
http://shop63152617.taobao.com  
在线mjnet

发帖
345
金钱
30692
威望
103
贡献值
53
交易币
518
只看该作者 8楼 发表于: 02-07
thank you!!
离线mjbad25

发帖
134
金钱
6006
威望
0
贡献值
1
交易币
139
只看该作者 9楼 发表于: 04-06
我看到一个喜欢的歌手了
快速回复
限100 字节
 
上一个 下一个