论坛风格切换切换到宽版
  • 569阅读
  • 17回复

[亲传][Single] 1997 HIStory/Ghosts [CD1] (UK - 664796 2) - WAV整轨 ♬by幽灵 [复制链接]

上一主题 下一主题
离线mjghosts
 

发帖
8256
金钱
212030
威望
9166
贡献值
2715
交易币
4707
只看楼主 倒序阅读 楼主  发表于: 01-03
— 本帖被 mjghosts 执行加亮操作(2017-01-03) —
*1997年英国发行单曲CD1,收录4首混音,完美精确校准抓轨! E_uH' E  
^M5uLm-_s  
注:独家整理,转载请注明出处!EAC无损整轨(压缩包内含CD图片) ]_xGVwem  
ouZ9oy(}a  
解压密码:www.mjsunny.com
+NMSvu_?  
?\VN`8Yb  
Tracklist CPM6T$_qE  
1 HIStory (7" HIStory Lesson Edit) 4:09 m 4LM10  
2 HIStory (Radio Edit) 3:58 bdhgHjz  
3 Ghosts (Radio Edit) 3:50 $oj<yH<i  
4 Ghosts (Mousse T's Club Mix) 6:04
dj**,*s  
8?pZZtad  
aV, J_Q6r  
=R`2m  
Vk T3_f  
V#KM~3e  
Exact Audio Copy V1.0 beta 6 from 9. April 2015 LK~ 0ck7  
1Xc%%j  
EAC 抓取日志文件从23. 十一月 2016, 1:56 H>9$L~  
FgaBwd^W  
Michael Jackson / HIStory - Ghosts (CD1) [UK] 4ebGAg?_  
MLX.MUS  
使用驱动器  :MATSHITADVD-RAM UJ890AS   Adapter: 1  ID: 1 `BY`ltW  
XwMC/]lK<  
读取模式      : 可靠Secure ~qH@Kz\%  
使用精确流     : 是 RJM(+5xQ|  
清空音频缓存    : 否 ,5:86'p  
使用 C2 指示器 : 是 f [D#QC  
X(9Ff=0.~  
读取偏移校正:               : 102 rOGJ%|%(  
读取 Lead-In 和 Lead-Out : 否 o hCPNm  
用静音填充抓取中丢失偏移的采样       : 是 XA68H!I  
去除首尾静音块               : 否 [#tW$^UD  
在CRC 计算中使用了空样本       : 是 RWE%? `   
已用接口                  : Win NT 及 2000 本地 Win32 接口 _%]H}N Q  
-uZ^UG!K  
所用输出模式: : 内部 WAV 函数 -#r_9HQ,w  
样本格式    : 44.100 Hz; 16 Bit; 立体声 F-6* BUqJ  
C+Z"0\{o  
m`|Z1CT  
已抓取 CD 的 TOC Vswi /(  
&P;x<7h$t?  
     音轨 |    起始    |    长度    |  起始扇区  |  结束扇区   [|YMnV<B  
    -------------------------------------------- v#6.VUAw  
      1 |  0:00.00 |  4:11.25 |      0 |  18849 r{btBv  
      2 |  4:11.25 |  3:59.62 |  18850 |  36836 ms$o,[  
      3 |  8:11.12 |  3:51.48 |  36837 |  54209 _YY)-H  
      4 | 12:02.60 |  6:02.27 |  54210 |  81386 0\m zGfd  
C" sa.#}  
FR <wp  
范围状态及错误 B[$e;h*Aw[  
kO4C^pl"v  
已选择范围 {r"s.|n  
qGw6Wp~  
     文件名 J:\12 Music*音乐\1997 HIStory/Ghosts [CD1] (UK - 664796 2) 4''\CDImage.wav `XD$1>  
/oI ''O%M  
     峰值电平 98.8 % 9> |rIw  
     抓取速度 4.9 X ovHbs^H%  
     范围质量 100.0 % C /E3NL8  
     复制 CRC A3D3570A Q.N^1?(>k  
     复制成功 l`1ZS8 [.  
j_{gk"2:d`  
没有错误发生 &@RU}DnvM&  
FrVD~;  
%jkd}D  
AccurateRip 摘要 $q+7 ,,"  
aw,8'N)  
音轨  1  精确地校准抓取  3)  [ABB64DB1]  (AR v2) z`BRz&  
音轨  2  精确地校准抓取  3)  [A21DDAD1]  (AR v2) KLxg  
音轨  3  精确地校准抓取  3)  [90C771D6]  (AR v2) MXhS\vF#m  
音轨  4  精确地校准抓取  3)  [A9372EE0]  (AR v2) E 1>3[3  
Um|:AT}`^  
所有音轨精确校准抓取 {d3r>Ub)7d  
FY VcL*  
状态报告结尾
\=QG6&_  
`W-:@?PmQx  
链接:http://pan.baidu.com/s/1c2dzLoW 密码: '; qT  
此帖售价 10 金钱,已有 12 人购买 [记录] [购买]
购买后,将显示帖子中所有出售内容。
若发现会员采用欺骗的方法获取财富,请立刻举报,我们会对会员处以2-N倍的罚金,严重者封掉ID!
此段为出售的内容,购买后显示
离线小李

发帖
219
金钱
137
威望
98
贡献值
7
交易币
187
只看该作者 1楼 发表于: 01-03
我很奇怪Ghosts(Mousse T Radio Rock)收录在哪盘? 不是伴奏的版本哦
离线魏聪

发帖
162
金钱
2911
威望
41
贡献值
21
交易币
97
只看该作者 2楼 发表于: 01-03
谢谢楼主分享
离线wannam

发帖
2698
金钱
86889
威望
382
贡献值
189
交易币
3341
只看该作者 3楼 发表于: 01-03
这个封面超带感!
离线小杰克逊

发帖
1588
金钱
5953
威望
883
贡献值
994
交易币
698
只看该作者 4楼 发表于: 01-04
幽灵兄收了那么多的好东西啊
http://gcb918.taobao.com/
离线marlene55555

发帖
1162
金钱
34284
威望
293
贡献值
98
交易币
1338
只看该作者 5楼 发表于: 01-04
完美 谢谢分享

发帖
2661
金钱
28627
威望
617
贡献值
34
交易币
302
只看该作者 6楼 发表于: 01-05
感谢分享

离线lifan_npl

发帖
2132
金钱
17379
威望
787
贡献值
347
交易币
2485
只看该作者 7楼 发表于: 01-05
谢谢幽灵分享,辛苦了
我的淘宝:
http://shop63152617.taobao.com  
离线mjnet

发帖
370
金钱
30527
威望
104
贡献值
54
交易币
547
只看该作者 8楼 发表于: 02-15
謝謝分享
离线mjghosts

发帖
8256
金钱
212030
威望
9166
贡献值
2715
交易币
4707
只看该作者 9楼 发表于: 02-15
回 小李 的帖子
小李:我很奇怪Ghosts(Mousse T Radio Rock)收录在哪盘? 不是伴奏的版本哦 (2017-01-03 13:31)   Z(F['Zf  
 S1$lNB  
在欧版厚盒单曲里~骷颅头封面的
快速回复
限100 字节
 
上一个 下一个