论坛风格切换切换到宽版
  • 334阅读
  • 14回复

[亲传][Single] 1997 HIStory/Ghosts [CD1] (UK - 664796 2) - WAV整轨 ♬by幽灵 [复制链接]

上一主题 下一主题
离线mjghosts
 

发帖
8194
金钱
205392
威望
9035
贡献值
2641
交易币
4553
只看楼主 倒序阅读 楼主  发表于: 01-03
— 本帖被 mjghosts 执行加亮操作(2017-01-03) —
*1997年英国发行单曲CD1,收录4首混音,完美精确校准抓轨! WJ/X`?k  
F{E`MK~f_  
注:独家整理,转载请注明出处!EAC无损整轨(压缩包内含CD图片) rQ(u@u;  
W^i[7 r  
解压密码:www.mjsunny.com
'VV"$`Fu"  
YoSBS   
Tracklist 6%MM)Vj+u  
1 HIStory (7" HIStory Lesson Edit) 4:09 vofBS   
2 HIStory (Radio Edit) 3:58 6%&DJBU!  
3 Ghosts (Radio Edit) 3:50 )!5"\eys  
4 Ghosts (Mousse T's Club Mix) 6:04
[@0Hmd7  
RggO|s+0;  
ki8Jl}dr  
X + B=?|M  
UM. Se(kS  
! ;R}=  
Exact Audio Copy V1.0 beta 6 from 9. April 2015 r: ,"k:C  
KXcE@q9  
EAC 抓取日志文件从23. 十一月 2016, 1:56 $~T|v7Y%  
#wF6WxiG  
Michael Jackson / HIStory - Ghosts (CD1) [UK] }QJ6"s  
$WbfRyXi7'  
使用驱动器  :MATSHITADVD-RAM UJ890AS   Adapter: 1  ID: 1 =Ka :i>  
0vcFX)]yW  
读取模式      : 可靠Secure Z|zT%8.8N  
使用精确流     : 是 $~:|Vj5iZ\  
清空音频缓存    : 否 -\}Ix>  
使用 C2 指示器 : 是 z229:L6"  
TS;?>J-  
读取偏移校正:               : 102 YR}By;Bq  
读取 Lead-In 和 Lead-Out : 否 #Ez+1  
用静音填充抓取中丢失偏移的采样       : 是 qmM%MPv  
去除首尾静音块               : 否 sCE2 F_xjL  
在CRC 计算中使用了空样本       : 是 j}$Up7pW  
已用接口                  : Win NT 及 2000 本地 Win32 接口 hpVu   
}.R].4gT  
所用输出模式: : 内部 WAV 函数 w>W`8P_b@  
样本格式    : 44.100 Hz; 16 Bit; 立体声 njy^<7 ;  
QF fKEMN  
OZ$"P<X_"  
已抓取 CD 的 TOC VhAZncw  
|m%M$^sZ}  
     音轨 |    起始    |    长度    |  起始扇区  |  结束扇区   %}=$HwN)  
    -------------------------------------------- n/"T7Y\2  
      1 |  0:00.00 |  4:11.25 |      0 |  18849 >:]fN61#  
      2 |  4:11.25 |  3:59.62 |  18850 |  36836 Kfj*uzKB  
      3 |  8:11.12 |  3:51.48 |  36837 |  54209 7/vr!tbL`p  
      4 | 12:02.60 |  6:02.27 |  54210 |  81386 x#0C+cU  
lSyp k-c  
Re1@2a>  
范围状态及错误 na']{a 1K  
3R#<9O  
已选择范围 _ z4rx  
c0G/irK  
     文件名 J:\12 Music*音乐\1997 HIStory/Ghosts [CD1] (UK - 664796 2) 4''\CDImage.wav Bhq(bV  
.hJ8K #r  
     峰值电平 98.8 % <Ab:yD`K!  
     抓取速度 4.9 X J/<`#XZB   
     范围质量 100.0 % lwg.'<  
     复制 CRC A3D3570A % 9D@W*Z  
     复制成功 654%X(:q  
UKJY.W!w4  
没有错误发生 )g --=w3  
~?&ijhZ  
0|ps),  
AccurateRip 摘要 +mA=%? l  
YP<]f>SBt  
音轨  1  精确地校准抓取  3)  [ABB64DB1]  (AR v2) rl%Kn^JJ~  
音轨  2  精确地校准抓取  3)  [A21DDAD1]  (AR v2) C):d9OI?  
音轨  3  精确地校准抓取  3)  [90C771D6]  (AR v2) zt2-w/[Q  
音轨  4  精确地校准抓取  3)  [A9372EE0]  (AR v2) AtlR!I EUb  
:5M}Iz7  
所有音轨精确校准抓取 hS{ *l9v7  
.cS,T<$  
状态报告结尾
z!C4>,  
Ya&\ly /i  
链接:http://pan.baidu.com/s/1c2dzLoW 密码: 0?Tk* X  
此帖售价 10 金钱,已有 9 人购买 [记录] [购买]
购买后,将显示帖子中所有出售内容。
若发现会员采用欺骗的方法获取财富,请立刻举报,我们会对会员处以2-N倍的罚金,严重者封掉ID!
此段为出售的内容,购买后显示
离线小李

发帖
202
金钱
182
威望
98
贡献值
7
交易币
170
只看该作者 1楼 发表于: 01-03
我很奇怪Ghosts(Mousse T Radio Rock)收录在哪盘? 不是伴奏的版本哦
离线魏聪

发帖
159
金钱
2897
威望
41
贡献值
21
交易币
94
只看该作者 2楼 发表于: 01-03
谢谢楼主分享
离线wannam

发帖
2603
金钱
80583
威望
363
贡献值
169
交易币
3246
只看该作者 3楼 发表于: 01-03
这个封面超带感!
离线小杰克逊

发帖
1550
金钱
1154
威望
883
贡献值
994
交易币
660
只看该作者 4楼 发表于: 01-04
幽灵兄收了那么多的好东西啊
http://gcb918.taobao.com/
离线marlene55555

发帖
1161
金钱
34311
威望
293
贡献值
98
交易币
1337
只看该作者 5楼 发表于: 01-04
完美 谢谢分享

发帖
2632
金钱
28148
威望
616
贡献值
33
交易币
269
只看该作者 6楼 发表于: 01-05
感谢分享

离线lifan_npl

发帖
2063
金钱
18206
威望
777
贡献值
337
交易币
2416
只看该作者 7楼 发表于: 01-05
谢谢幽灵分享,辛苦了
我的淘宝:
http://shop63152617.taobao.com  
离线mjnet

发帖
322
金钱
30298
威望
101
贡献值
51
交易币
487
只看该作者 8楼 发表于: 02-15
謝謝分享
离线mjghosts

发帖
8194
金钱
205392
威望
9035
贡献值
2641
交易币
4553
只看该作者 9楼 发表于: 02-15
回 小李 的帖子
小李:我很奇怪Ghosts(Mousse T Radio Rock)收录在哪盘? 不是伴奏的版本哦 (2017-01-03 13:31)  |#1(Z-}  
V[-jD8=' 3  
在欧版厚盒单曲里~骷颅头封面的
快速回复
限100 字节
 
上一个 下一个