论坛风格切换切换到宽版
  • 1218阅读
  • 19回复

[亲传][Single] 1997 HIStory/Ghosts [CD1] (UK - 664796 2) - WAV整轨 ♬by幽灵 [复制链接]

上一主题 下一主题
离线mjghosts
 

发帖
8256
金钱
219309
威望
9187
贡献值
2734
交易币
4791
只看楼主 倒序阅读 楼主  发表于: 2017-01-03
— 本帖被 mjghosts 执行加亮操作(2017-01-03) —
*1997年英国发行单曲CD1,收录4首混音,完美精确校准抓轨! K%kXS  
HIQ]"Hl  
注:独家整理,转载请注明出处!EAC无损整轨(压缩包内含CD图片) {c&qB`y<.  
QZ6[*_Z6  
解压密码:www.mjsunny.com
<=#lRZW[z  
^mS.HT=X  
Tracklist F]/L!   
1 HIStory (7" HIStory Lesson Edit) 4:09 Ty g$`\#   
2 HIStory (Radio Edit) 3:58 wpAw/-/  
3 Ghosts (Radio Edit) 3:50 0\8*S3,q  
4 Ghosts (Mousse T's Club Mix) 6:04
-[i40 1  
tn(?nQN3  
tjBh$)  
x*5 Ch~<k  
7F>gj  
xl1L4R)6D  
Exact Audio Copy V1.0 beta 6 from 9. April 2015 [=]+lei  
vkDZv@  
EAC 抓取日志文件从23. 十一月 2016, 1:56 l044c,AW(  
c,3'wnui  
Michael Jackson / HIStory - Ghosts (CD1) [UK] s$SU vo1J  
!mpMa]G3  
使用驱动器  :MATSHITADVD-RAM UJ890AS   Adapter: 1  ID: 1 j`[yoAH  
CS^ oiV%{s  
读取模式      : 可靠Secure ;PP_3`  
使用精确流     : 是 XwKZv0ub  
清空音频缓存    : 否 !0!P.Q8>&  
使用 C2 指示器 : 是 l`~a}y"n  
t5X G^3X@  
读取偏移校正:               : 102 =,/A\F  
读取 Lead-In 和 Lead-Out : 否 =:CGl   
用静音填充抓取中丢失偏移的采样       : 是 ^5FJ}MMJf  
去除首尾静音块               : 否 $ly#zQR  
在CRC 计算中使用了空样本       : 是 1{\,5U&  
已用接口                  : Win NT 及 2000 本地 Win32 接口 +7lRP)1R  
.NNcc4+  
所用输出模式: : 内部 WAV 函数 8a":[Q[  
样本格式    : 44.100 Hz; 16 Bit; 立体声 (:j+[3Ht  
T ?<'=  
^Q43)H0  
已抓取 CD 的 TOC )LMBxyS  
x]%4M\T``  
     音轨 |    起始    |    长度    |  起始扇区  |  结束扇区   1=/MT#d^?  
    -------------------------------------------- 9 +N._u  
      1 |  0:00.00 |  4:11.25 |      0 |  18849 _>_y@-b  
      2 |  4:11.25 |  3:59.62 |  18850 |  36836 2o s6c te  
      3 |  8:11.12 |  3:51.48 |  36837 |  54209 yaYIgG  
      4 | 12:02.60 |  6:02.27 |  54210 |  81386 yoA*\V  
Bgo"JNM  
MSYLkQ}_b  
范围状态及错误 D\_*,Fc  
[r~rIb%Zj  
已选择范围 Lct+cKKU  
8HH.P`Vk#  
     文件名 J:\12 Music*音乐\1997 HIStory/Ghosts [CD1] (UK - 664796 2) 4''\CDImage.wav ^&G O4u  
ezq q@t9  
     峰值电平 98.8 % IpaJ<~ p  
     抓取速度 4.9 X ]K0,nj*\c  
     范围质量 100.0 % (EF$^FYPK  
     复制 CRC A3D3570A Q&U= jX  
     复制成功 ow>[#.ua  
"6 Hj ji@A  
没有错误发生  k9VQ6A  
C7*Yg$`{  
!PP?2Ax  
AccurateRip 摘要 MgK(gL/&[  
 d7-F&!sQ  
音轨  1  精确地校准抓取  3)  [ABB64DB1]  (AR v2) ]I*#R9  
音轨  2  精确地校准抓取  3)  [A21DDAD1]  (AR v2) ])ZJ1QL1  
音轨  3  精确地校准抓取  3)  [90C771D6]  (AR v2) &B5 Rzz-'  
音轨  4  精确地校准抓取  3)  [A9372EE0]  (AR v2) pcxl2I  
$MVeMgPa  
所有音轨精确校准抓取 TX5/{cHd  
0#[Nfe*  
状态报告结尾
t-ReT_D|;  
* jNu?$  
链接:http://pan.baidu.com/s/1c2dzLoW 密码: GH)+yD[o  
此帖售价 10 金钱,已有 14 人购买 [记录] [购买]
购买后,将显示帖子中所有出售内容。
若发现会员采用欺骗的方法获取财富,请立刻举报,我们会对会员处以2-N倍的罚金,严重者封掉ID!
此段为出售的内容,购买后显示
离线小李

发帖
240
金钱
1125
威望
9
贡献值
8
交易币
212
只看该作者 1楼 发表于: 2017-01-03
我很奇怪Ghosts(Mousse T Radio Rock)收录在哪盘? 不是伴奏的版本哦
离线魏聪

发帖
168
金钱
2713
威望
41
贡献值
21
交易币
103
只看该作者 2楼 发表于: 2017-01-03
谢谢楼主分享
离线wannam

发帖
2703
金钱
87033
威望
382
贡献值
189
交易币
3346
只看该作者 3楼 发表于: 2017-01-03
这个封面超带感!
离线小杰克逊

发帖
1594
金钱
5579
威望
883
贡献值
994
交易币
704
只看该作者 4楼 发表于: 2017-01-04
幽灵兄收了那么多的好东西啊
http://gcb918.taobao.com/
离线marlene55555

发帖
1165
金钱
34275
威望
293
贡献值
98
交易币
1341
只看该作者 5楼 发表于: 2017-01-04
完美 谢谢分享

发帖
2751
金钱
30829
威望
621
贡献值
38
交易币
408
只看该作者 6楼 发表于: 2017-01-05
感谢分享

离线lifan_npl

发帖
2212
金钱
31692
威望
853
贡献值
430
交易币
2593
只看该作者 7楼 发表于: 2017-01-05
谢谢幽灵分享,辛苦了
我的淘宝店:
http://shop63152617.taobao.com  
离线mjnet

发帖
381
金钱
30548
威望
104
贡献值
54
交易币
558
只看该作者 8楼 发表于: 2017-02-15
謝謝分享
离线mjghosts

发帖
8256
金钱
219309
威望
9187
贡献值
2734
交易币
4791
只看该作者 9楼 发表于: 2017-02-15
回 小李 的帖子
小李:我很奇怪Ghosts(Mousse T Radio Rock)收录在哪盘? 不是伴奏的版本哦 (2017-01-03 13:31)  h]Oplp4 \W  
'YR5i^:t  
在欧版厚盒单曲里~骷颅头封面的
快速回复
限100 字节
 
上一个 下一个