论坛风格切换切换到宽版
  • 677阅读
  • 17回复

[亲传][Single] 1997 HIStory/Ghosts [CD1] (UK - 664796 2) - WAV整轨 ♬by幽灵 [复制链接]

上一主题 下一主题
离线mjghosts
 

发帖
8232
金钱
213145
威望
9167
贡献值
2716
交易币
4715
只看楼主 倒序阅读 楼主  发表于: 01-03
— 本帖被 mjghosts 执行加亮操作(2017-01-03) —
*1997年英国发行单曲CD1,收录4首混音,完美精确校准抓轨! kcZz WG|n  
8&++S> <  
注:独家整理,转载请注明出处!EAC无损整轨(压缩包内含CD图片) @H|3e@5([  
FWuk@t[<O  
解压密码:www.mjsunny.com
;1>)p x**  
9pq-"?vHY0  
Tracklist Cm[^+.=I  
1 HIStory (7" HIStory Lesson Edit) 4:09 =w <;tb  
2 HIStory (Radio Edit) 3:58 oz[: T3oE>  
3 Ghosts (Radio Edit) 3:50 Bp>Z?"hTe  
4 Ghosts (Mousse T's Club Mix) 6:04
yE4X6  
7_*k<W7|  
ndCHWhi  
N& 683z  
6< T@\E  
,/uVq G  
Exact Audio Copy V1.0 beta 6 from 9. April 2015 [W#M(`}D  
LI`H,2Km  
EAC 抓取日志文件从23. 十一月 2016, 1:56 BV@xE  
Y :-O/X  
Michael Jackson / HIStory - Ghosts (CD1) [UK] ]QJWqY  
EK=PY  
使用驱动器  :MATSHITADVD-RAM UJ890AS   Adapter: 1  ID: 1 1X,\:F.-+  
Mr6q7  
读取模式      : 可靠Secure :5, k64'D  
使用精确流     : 是 PC55A1(T  
清空音频缓存    : 否 WTX!)H6Zv  
使用 C2 指示器 : 是 Q@aDa8Z  
/4wPMAlb  
读取偏移校正:               : 102 <C{uodFll  
读取 Lead-In 和 Lead-Out : 否 `Dp_c&9]  
用静音填充抓取中丢失偏移的采样       : 是  5JggU  
去除首尾静音块               : 否 uz'MUT(68  
在CRC 计算中使用了空样本       : 是 < s1  
已用接口                  : Win NT 及 2000 本地 Win32 接口 cj@ar^=`K  
SsfHp  
所用输出模式: : 内部 WAV 函数 0jmPj   
样本格式    : 44.100 Hz; 16 Bit; 立体声 F*J@OY8i  
kH">(f  
'wd&O03&  
已抓取 CD 的 TOC eiJ~1H X)  
91\]Dg  
     音轨 |    起始    |    长度    |  起始扇区  |  结束扇区   #j4jZBOTM  
    -------------------------------------------- q:<vl^<j  
      1 |  0:00.00 |  4:11.25 |      0 |  18849 3e ?J#;  
      2 |  4:11.25 |  3:59.62 |  18850 |  36836 nXAGwU8a  
      3 |  8:11.12 |  3:51.48 |  36837 |  54209 <8YIQA  
      4 | 12:02.60 |  6:02.27 |  54210 |  81386 {ug*  
",P?jgs^g5  
Y lhKP;  
范围状态及错误 _@! yj  
6 jU ?~  
已选择范围 -FQc_k?VF  
DWupLJpk;c  
     文件名 J:\12 Music*音乐\1997 HIStory/Ghosts [CD1] (UK - 664796 2) 4''\CDImage.wav i4lB ]k  
R~BFZF>:  
     峰值电平 98.8 % SK 5__Ix  
     抓取速度 4.9 X x LGMN)@r  
     范围质量 100.0 % f{U,kCv  
     复制 CRC A3D3570A Up*6K=Tny  
     复制成功 n1)].`  
Kir|in)r0  
没有错误发生 5#::42oE  
Ca0t}`<S  
P c vA/W  
AccurateRip 摘要 ar@ysBy  
!&o>zU.  
音轨  1  精确地校准抓取  3)  [ABB64DB1]  (AR v2)  DIh[%  
音轨  2  精确地校准抓取  3)  [A21DDAD1]  (AR v2) v9Ez0 :)  
音轨  3  精确地校准抓取  3)  [90C771D6]  (AR v2) ;\t(c  
音轨  4  精确地校准抓取  3)  [A9372EE0]  (AR v2) IF|%.%I$!U  
BU;E6s>P  
所有音轨精确校准抓取 D~%h3HM  
M \3Zj(E/  
状态报告结尾
N^K@$bs4^  
P[C03a!lXg  
链接:http://pan.baidu.com/s/1c2dzLoW 密码: I%31MU9  
此帖售价 10 金钱,已有 12 人购买 [记录] [购买]
购买后,将显示帖子中所有出售内容。
若发现会员采用欺骗的方法获取财富,请立刻举报,我们会对会员处以2-N倍的罚金,严重者封掉ID!
此段为出售的内容,购买后显示
离线小李

发帖
226
金钱
155
威望
99
贡献值
8
交易币
198
只看该作者 1楼 发表于: 01-03
我很奇怪Ghosts(Mousse T Radio Rock)收录在哪盘? 不是伴奏的版本哦
离线魏聪

发帖
168
金钱
2713
威望
41
贡献值
21
交易币
103
只看该作者 2楼 发表于: 01-03
谢谢楼主分享
离线wannam

发帖
2699
金钱
86933
威望
382
贡献值
189
交易币
3342
只看该作者 3楼 发表于: 01-03
这个封面超带感!
离线小杰克逊

发帖
1590
金钱
5662
威望
883
贡献值
994
交易币
700
只看该作者 4楼 发表于: 01-04
幽灵兄收了那么多的好东西啊
http://gcb918.taobao.com/
离线marlene55555

发帖
1164
金钱
34253
威望
293
贡献值
98
交易币
1340
只看该作者 5楼 发表于: 01-04
完美 谢谢分享

发帖
2715
金钱
31507
威望
620
贡献值
37
交易币
368
只看该作者 6楼 发表于: 01-05
感谢分享

离线lifan_npl

发帖
2165
金钱
16955
威望
782
贡献值
347
交易币
2518
只看该作者 7楼 发表于: 01-05
谢谢幽灵分享,辛苦了
我的淘宝:
http://shop63152617.taobao.com  
离线mjnet

发帖
375
金钱
30607
威望
104
贡献值
54
交易币
552
只看该作者 8楼 发表于: 02-15
謝謝分享
离线mjghosts

发帖
8232
金钱
213145
威望
9167
贡献值
2716
交易币
4715
只看该作者 9楼 发表于: 02-15
回 小李 的帖子
小李:我很奇怪Ghosts(Mousse T Radio Rock)收录在哪盘? 不是伴奏的版本哦 (2017-01-03 13:31)  O{Z${TC[  
O=^/58(m  
在欧版厚盒单曲里~骷颅头封面的
快速回复
限100 字节
 
上一个 下一个