论坛风格切换切换到宽版
  • 1377阅读
  • 19回复

[亲传][Single] 1997 HIStory/Ghosts [CD1] (UK - 664796 2) - WAV整轨 ♬by幽灵 [复制链接]

上一主题 下一主题
离线mjghosts
 

发帖
8257
金钱
219515
威望
9187
贡献值
2734
交易币
4792
只看楼主 倒序阅读 楼主  发表于: 2017-01-03
— 本帖被 mjghosts 执行加亮操作(2017-01-03) —
*1997年英国发行单曲CD1,收录4首混音,完美精确校准抓轨! _9q byhS7  
n)\(\V7  
注:独家整理,转载请注明出处!EAC无损整轨(压缩包内含CD图片) )0g!lCfb  
M^Tm{`O!  
解压密码:www.mjsunny.com
\S&OAe/b  
c6AwO?x/  
Tracklist #Nad1C/]  
1 HIStory (7" HIStory Lesson Edit) 4:09 J'tJY% `  
2 HIStory (Radio Edit) 3:58 lJ,\^\q  
3 Ghosts (Radio Edit) 3:50 fxmY,{{  
4 Ghosts (Mousse T's Club Mix) 6:04
;mC|> wSZ  
+SW|/oIU  
o{QV'dgu  
ei"c|/pO  
53d`+an2  
t=|}?lN<  
Exact Audio Copy V1.0 beta 6 from 9. April 2015 v#`>  
,H8M.hbsQ  
EAC 抓取日志文件从23. 十一月 2016, 1:56 *ae)<l3v  
} E[vW  
Michael Jackson / HIStory - Ghosts (CD1) [UK] 06Q9X!xD  
o*2Mjd]r  
使用驱动器  :MATSHITADVD-RAM UJ890AS   Adapter: 1  ID: 1 )>U"WZ'<  
s,kY12<7m  
读取模式      : 可靠Secure g9NE>n(3  
使用精确流     : 是 ~%eE%5!k  
清空音频缓存    : 否 i_QiE2d  
使用 C2 指示器 : 是 Bjj =UtI  
QDVSFGwr  
读取偏移校正:               : 102 c5:0`~5Fn  
读取 Lead-In 和 Lead-Out : 否 (I(U23A~  
用静音填充抓取中丢失偏移的采样       : 是 G N=8;Kq%  
去除首尾静音块               : 否 Fy!s$!\C0  
在CRC 计算中使用了空样本       : 是 Xw jm T  
已用接口                  : Win NT 及 2000 本地 Win32 接口 @ &rf?:  
~D`R"vzw=  
所用输出模式: : 内部 WAV 函数 1?3+>  
样本格式    : 44.100 Hz; 16 Bit; 立体声 ,fN <I  
nh80"Ny5  
<eP,/H  
已抓取 CD 的 TOC UH;bg}=8  
-dN`Ok<g  
     音轨 |    起始    |    长度    |  起始扇区  |  结束扇区   p! )tA  
    -------------------------------------------- 6c27X/'Z  
      1 |  0:00.00 |  4:11.25 |      0 |  18849 2 e#"JZ=  
      2 |  4:11.25 |  3:59.62 |  18850 |  36836 f)gV2f0t  
      3 |  8:11.12 |  3:51.48 |  36837 |  54209 ;-l^X%r  
      4 | 12:02.60 |  6:02.27 |  54210 |  81386 J7e /+W~  
;`kOFg#`)c  
*f{4 _ts  
范围状态及错误 oL }d=x/  
8wZ $Hq  
已选择范围 M?hPlo"_  
4ji'6JHPg  
     文件名 J:\12 Music*音乐\1997 HIStory/Ghosts [CD1] (UK - 664796 2) 4''\CDImage.wav M9Yov4k,4]  
0}'/pN>  
     峰值电平 98.8 % :D>flZi  
     抓取速度 4.9 X =,i?8Fuz  
     范围质量 100.0 % m7XN6zX  
     复制 CRC A3D3570A MrOtsX  
     复制成功 z&um9rXR  
A)d0Z6G`  
没有错误发生 }g%&}`%'  
rXip"uz(K>  
;i+(Q%LO  
AccurateRip 摘要 FT}^Fi7  
=&qfmq  
音轨  1  精确地校准抓取  3)  [ABB64DB1]  (AR v2) Bxj4rC[  
音轨  2  精确地校准抓取  3)  [A21DDAD1]  (AR v2) >SYOtzg%  
音轨  3  精确地校准抓取  3)  [90C771D6]  (AR v2) KK-+vq  
音轨  4  精确地校准抓取  3)  [A9372EE0]  (AR v2) y] Cx[  
b+Vlq7Bc  
所有音轨精确校准抓取 @:!%Z`  
8 -b~p  
状态报告结尾
b Hy<`p0  
%VXIiu[  
链接:http://pan.baidu.com/s/1c2dzLoW 密码: +s [_ 4  
此帖售价 10 金钱,已有 14 人购买 [记录] [购买]
购买后,将显示帖子中所有出售内容。
若发现会员采用欺骗的方法获取财富,请立刻举报,我们会对会员处以2-N倍的罚金,严重者封掉ID!
此段为出售的内容,购买后显示
离线小李

发帖
240
金钱
1125
威望
9
贡献值
8
交易币
212
只看该作者 1楼 发表于: 2017-01-03
我很奇怪Ghosts(Mousse T Radio Rock)收录在哪盘? 不是伴奏的版本哦
离线魏聪

发帖
168
金钱
2713
威望
41
贡献值
21
交易币
103
只看该作者 2楼 发表于: 2017-01-03
谢谢楼主分享
离线wannam

发帖
2703
金钱
87077
威望
382
贡献值
189
交易币
3346
只看该作者 3楼 发表于: 2017-01-03
这个封面超带感!
离线小杰克逊

发帖
1595
金钱
5582
威望
883
贡献值
994
交易币
705
只看该作者 4楼 发表于: 2017-01-04
幽灵兄收了那么多的好东西啊
http://gcb918.taobao.com/
离线marlene55555

发帖
1165
金钱
34275
威望
293
贡献值
98
交易币
1341
只看该作者 5楼 发表于: 2017-01-04
完美 谢谢分享

发帖
2753
金钱
30915
威望
621
贡献值
38
交易币
410
只看该作者 6楼 发表于: 2017-01-05
感谢分享

离线lifan_npl

发帖
2213
金钱
31997
威望
853
贡献值
430
交易币
2594
只看该作者 7楼 发表于: 2017-01-05
谢谢幽灵分享,辛苦了
我的淘宝店:
http://shop63152617.taobao.com  
离线mjnet

发帖
381
金钱
30546
威望
104
贡献值
54
交易币
558
只看该作者 8楼 发表于: 2017-02-15
謝謝分享
离线mjghosts

发帖
8257
金钱
219515
威望
9187
贡献值
2734
交易币
4792
只看该作者 9楼 发表于: 2017-02-15
回 小李 的帖子
小李:我很奇怪Ghosts(Mousse T Radio Rock)收录在哪盘? 不是伴奏的版本哦 (2017-01-03 13:31)  "nefRz%j+  
Z"^@B2v  
在欧版厚盒单曲里~骷颅头封面的
快速回复
限100 字节
 
上一个 下一个