论坛风格切换切换到宽版
  • 273阅读
  • 14回复

[亲传][Single] 1997 HIStory/Ghosts [CD1] (UK - 664796 2) - WAV整轨 ♬by幽灵 [复制链接]

上一主题 下一主题
离线mjghosts
 

发帖
8193
金钱
205205
威望
9035
贡献值
2641
交易币
4552
只看楼主 倒序阅读 楼主  发表于: 01-03
— 本帖被 mjghosts 执行加亮操作(2017-01-03) —
*1997年英国发行单曲CD1,收录4首混音,完美精确校准抓轨! OmZK~$K_  
s:ojlmPb  
注:独家整理,转载请注明出处!EAC无损整轨(压缩包内含CD图片) CEJqo8ds  
.p%V]Ka  
解压密码:www.mjsunny.com
3j2d&*0  
n^` `)"  
Tracklist vHN/~k#  
1 HIStory (7" HIStory Lesson Edit) 4:09 r o8C^d]  
2 HIStory (Radio Edit) 3:58 x LGMN)@r  
3 Ghosts (Radio Edit) 3:50 K~+x@O*  
4 Ghosts (Mousse T's Club Mix) 6:04
I5E+=.T*ar  
e#@u&+K/f  
Ict+|<f  
2{S*$K[M  
vy5I#q(k  
cd] X5)$h  
Exact Audio Copy V1.0 beta 6 from 9. April 2015  rB_ESNx  
(I;lE*>  
EAC 抓取日志文件从23. 十一月 2016, 1:56 D0yH2[j+  
S"/gZfxer  
Michael Jackson / HIStory - Ghosts (CD1) [UK] $x2G/5?  
RQ,X0 pS  
使用驱动器  :MATSHITADVD-RAM UJ890AS   Adapter: 1  ID: 1 [Vj|fy4  
OT#foP   
读取模式      : 可靠Secure z5W;-sCz  
使用精确流     : 是 /Q'O]h0a  
清空音频缓存    : 否 X [;n149o  
使用 C2 指示器 : 是 p7[&H/  
p<&dy^mS  
读取偏移校正:               : 102 *-gmWATC6  
读取 Lead-In 和 Lead-Out : 否 e r"gPW  
用静音填充抓取中丢失偏移的采样       : 是 C3b<Wa])  
去除首尾静音块               : 否 P c vA/W  
在CRC 计算中使用了空样本       : 是 ;(IAhWE?7  
已用接口                  : Win NT 及 2000 本地 Win32 接口 u HXb=U  
n yNHjn |W  
所用输出模式: : 内部 WAV 函数 uN6xOq/  
样本格式    : 44.100 Hz; 16 Bit; 立体声 [Rzn>  
WiFZY*iu5  
y|Y hDO  
已抓取 CD 的 TOC K555z+,'e  
)`zfDio-1V  
     音轨 |    起始    |    长度    |  起始扇区  |  结束扇区   #e6x_o|  
    -------------------------------------------- -3C$br  
      1 |  0:00.00 |  4:11.25 |      0 |  18849 g")pvK[e  
      2 |  4:11.25 |  3:59.62 |  18850 |  36836 42 Sk`  
      3 |  8:11.12 |  3:51.48 |  36837 |  54209 v9Ez0 :)  
      4 | 12:02.60 |  6:02.27 |  54210 |  81386 < !]7Gt  
m\ /V0V\  
p fg>H  
范围状态及错误 ni3A+Y0  
r5&?-G  
已选择范围 XPcx"zv\  
BO;LK-V  
     文件名 J:\12 Music*音乐\1997 HIStory/Ghosts [CD1] (UK - 664796 2) 4''\CDImage.wav .?.Q[ic  
,YmTx  
     峰值电平 98.8 % YR$d\,#R  
     抓取速度 4.9 X ~ph>?xuw  
     范围质量 100.0 % Q |^c5  
     复制 CRC A3D3570A Ib$?[  
     复制成功 kam \dn04  
Y ptP_R:2p  
没有错误发生 o<%s\n  
q=cH ^`<.  
M \3Zj(E/  
AccurateRip 摘要 X !l#1  
04R-}  
音轨  1  精确地校准抓取  3)  [ABB64DB1]  (AR v2) 1fb!sbGD.k  
音轨  2  精确地校准抓取  3)  [A21DDAD1]  (AR v2) G G[$-  
音轨  3  精确地校准抓取  3)  [90C771D6]  (AR v2) )wz3 m L  
音轨  4  精确地校准抓取  3)  [A9372EE0]  (AR v2) 6B>H75S+H  
< 5#}EiT5  
所有音轨精确校准抓取 qW:\6aEG  
d512Y[ R  
状态报告结尾
`1"Xj ^ YM  
$WK~|+"{>  
链接:http://pan.baidu.com/s/1c2dzLoW 密码: }z8HS< #Q  
此帖售价 10 金钱,已有 9 人购买 [记录] [购买]
购买后,将显示帖子中所有出售内容。
若发现会员采用欺骗的方法获取财富,请立刻举报,我们会对会员处以2-N倍的罚金,严重者封掉ID!
此段为出售的内容,购买后显示
离线小李

发帖
200
金钱
181
威望
98
贡献值
7
交易币
168
只看该作者 1楼 发表于: 01-03
我很奇怪Ghosts(Mousse T Radio Rock)收录在哪盘? 不是伴奏的版本哦
离线魏聪

发帖
159
金钱
2897
威望
41
贡献值
21
交易币
94
只看该作者 2楼 发表于: 01-03
谢谢楼主分享
离线wannam

发帖
2582
金钱
75499
威望
363
贡献值
169
交易币
3225
只看该作者 3楼 发表于: 01-03
这个封面超带感!
离线小杰克逊

发帖
1550
金钱
1156
威望
883
贡献值
994
交易币
660
只看该作者 4楼 发表于: 01-04
幽灵兄收了那么多的好东西啊
http://gcb918.taobao.com/
离线marlene55555

发帖
1161
金钱
34311
威望
293
贡献值
98
交易币
1337
只看该作者 5楼 发表于: 01-04
完美 谢谢分享

发帖
2631
金钱
28098
威望
616
贡献值
33
交易币
268
只看该作者 6楼 发表于: 01-05
感谢分享

离线lifan_npl

发帖
2062
金钱
18203
威望
777
贡献值
337
交易币
2415
只看该作者 7楼 发表于: 01-05
谢谢幽灵分享,辛苦了
我的淘宝:
http://shop63152617.taobao.com  
离线mjnet

发帖
322
金钱
30238
威望
101
贡献值
51
交易币
487
只看该作者 8楼 发表于: 02-15
謝謝分享
离线mjghosts

发帖
8193
金钱
205205
威望
9035
贡献值
2641
交易币
4552
只看该作者 9楼 发表于: 02-15
回 小李 的帖子
小李:我很奇怪Ghosts(Mousse T Radio Rock)收录在哪盘? 不是伴奏的版本哦 (2017-01-03 13:31)  LI&+5`  
[V5ebj:6w  
在欧版厚盒单曲里~骷颅头封面的
快速回复
限100 字节
 
上一个 下一个