论坛风格切换切换到宽版
  • 975阅读
  • 17回复

[亲传][Single] 1997 HIStory/Ghosts [CD1] (UK - 664796 2) - WAV整轨 ♬by幽灵 [复制链接]

上一主题 下一主题
离线mjghosts
 

发帖
8242
金钱
217431
威望
9173
贡献值
2722
交易币
4749
只看楼主 倒序阅读 楼主  发表于: 2017-01-03
— 本帖被 mjghosts 执行加亮操作(2017-01-03) —
*1997年英国发行单曲CD1,收录4首混音,完美精确校准抓轨! p7 s#j  
u#(& R"6  
注:独家整理,转载请注明出处!EAC无损整轨(压缩包内含CD图片) 1{6BU!  
]U[y3  
解压密码:www.mjsunny.com
EY3x o-H  
M:t!g %  
Tracklist ;8F|Q<`pV  
1 HIStory (7" HIStory Lesson Edit) 4:09 %>,B1nt  
2 HIStory (Radio Edit) 3:58 [tN^)c`s/  
3 Ghosts (Radio Edit) 3:50 $qz(9M(m#  
4 Ghosts (Mousse T's Club Mix) 6:04
QuF76&)7  
mT]+wi&  
 ywQ>T+  
`2WtA_  
)7X+T'?%  
_'eG   
Exact Audio Copy V1.0 beta 6 from 9. April 2015 v~l_6V}  
[ H~Yg2O  
EAC 抓取日志文件从23. 十一月 2016, 1:56 K;n2mXYGM  
`&3hfiI}  
Michael Jackson / HIStory - Ghosts (CD1) [UK] ?MW *`U  
nZ4JI+Q)~  
使用驱动器  :MATSHITADVD-RAM UJ890AS   Adapter: 1  ID: 1 kiah,7V/  
r Jo8|  
读取模式      : 可靠Secure &-S;.}  
使用精确流     : 是 gI~4A,  
清空音频缓存    : 否 A`5/u"]*D  
使用 C2 指示器 : 是 3Y;<Q>roT  
P' ";L6h  
读取偏移校正:               : 102 ""Ub^:ucD  
读取 Lead-In 和 Lead-Out : 否 =DL |Q  
用静音填充抓取中丢失偏移的采样       : 是 -T,/S^  
去除首尾静音块               : 否 u|.c?fW'3  
在CRC 计算中使用了空样本       : 是 ,k9@%{4 l  
已用接口                  : Win NT 及 2000 本地 Win32 接口 M*+MhM-  
&'mq).I2  
所用输出模式: : 内部 WAV 函数 G1!yPQa7d  
样本格式    : 44.100 Hz; 16 Bit; 立体声 m|CB')  
<*Ex6/j  
+H4H$H  
已抓取 CD 的 TOC iC.k8r+~  
D,c53B6M  
     音轨 |    起始    |    长度    |  起始扇区  |  结束扇区   {\ P`-'C  
    -------------------------------------------- &yabxl_  
      1 |  0:00.00 |  4:11.25 |      0 |  18849 $GI jWlAh  
      2 |  4:11.25 |  3:59.62 |  18850 |  36836 w y\0o  
      3 |  8:11.12 |  3:51.48 |  36837 |  54209 W74Y.zQ  
      4 | 12:02.60 |  6:02.27 |  54210 |  81386 m) -D rbE  
pVa9g)+z}  
kgZiyPcw  
范围状态及错误  <j<V{Wc  
Z6S?xfhr'{  
已选择范围 O'L9 s>B  
~A-vIlGt!  
     文件名 J:\12 Music*音乐\1997 HIStory/Ghosts [CD1] (UK - 664796 2) 4''\CDImage.wav ~#SLb=K   
` v"p""_H  
     峰值电平 98.8 % "+{>"_KV  
     抓取速度 4.9 X /T\'&s3D+  
     范围质量 100.0 % >oHgs  
     复制 CRC A3D3570A ; VH:dg  
     复制成功 `ttqgv\  
ygo4.  
没有错误发生 5fjL  
dVKctt'C  
`"s*'P398  
AccurateRip 摘要 3 [r9v!l  
,>Yl(=&  
音轨  1  精确地校准抓取  3)  [ABB64DB1]  (AR v2) vhE^jS<Tg  
音轨  2  精确地校准抓取  3)  [A21DDAD1]  (AR v2) z~($ "  
音轨  3  精确地校准抓取  3)  [90C771D6]  (AR v2) \u$[$R5  
音轨  4  精确地校准抓取  3)  [A9372EE0]  (AR v2) vT{+Z\LL=  
<X "_S'O  
所有音轨精确校准抓取 G/N1[)  
?^gq  
状态报告结尾
dGG8k&  
:y1,OR/k  
链接:http://pan.baidu.com/s/1c2dzLoW 密码: MG:eI?G/'  
此帖售价 10 金钱,已有 12 人购买 [记录] [购买]
购买后,将显示帖子中所有出售内容。
若发现会员采用欺骗的方法获取财富,请立刻举报,我们会对会员处以2-N倍的罚金,严重者封掉ID!
此段为出售的内容,购买后显示
离线小李

发帖
233
金钱
190
威望
99
贡献值
8
交易币
205
只看该作者 1楼 发表于: 2017-01-03
我很奇怪Ghosts(Mousse T Radio Rock)收录在哪盘? 不是伴奏的版本哦
离线魏聪

发帖
168
金钱
2713
威望
41
贡献值
21
交易币
103
只看该作者 2楼 发表于: 2017-01-03
谢谢楼主分享
离线wannam

发帖
2702
金钱
87010
威望
382
贡献值
189
交易币
3345
只看该作者 3楼 发表于: 2017-01-03
这个封面超带感!
离线小杰克逊

发帖
1594
金钱
5583
威望
883
贡献值
994
交易币
704
只看该作者 4楼 发表于: 2017-01-04
幽灵兄收了那么多的好东西啊
http://gcb918.taobao.com/
离线marlene55555

发帖
1165
金钱
34275
威望
293
贡献值
98
交易币
1341
只看该作者 5楼 发表于: 2017-01-04
完美 谢谢分享

发帖
2735
金钱
31355
威望
620
贡献值
37
交易币
388
只看该作者 6楼 发表于: 2017-01-05
感谢分享

离线lifan_npl

发帖
2185
金钱
16546
威望
783
贡献值
348
交易币
2542
只看该作者 7楼 发表于: 2017-01-05
谢谢幽灵分享,辛苦了
我的淘宝:
http://shop63152617.taobao.com  
离线mjnet

发帖
380
金钱
30479
威望
104
贡献值
54
交易币
557
只看该作者 8楼 发表于: 2017-02-15
謝謝分享
离线mjghosts

发帖
8242
金钱
217431
威望
9173
贡献值
2722
交易币
4749
只看该作者 9楼 发表于: 2017-02-15
回 小李 的帖子
小李:我很奇怪Ghosts(Mousse T Radio Rock)收录在哪盘? 不是伴奏的版本哦 (2017-01-03 13:31)  l+"p$iZs  
IdAh)#) 7  
在欧版厚盒单曲里~骷颅头封面的
快速回复
限100 字节
 
上一个 下一个