论坛风格切换切换到宽版
  • 1514阅读
  • 19回复

[亲传][Single] 1997 HIStory/Ghosts [CD1] (UK - 664796 2) - WAV整轨 ♬by幽灵 [复制链接]

上一主题 下一主题
离线mjghosts
 

发帖
8262
金钱
219556
威望
9187
贡献值
2734
交易币
4797
只看楼主 倒序阅读 楼主  发表于: 2017-01-03
— 本帖被 mjghosts 执行加亮操作(2017-01-03) —
*1997年英国发行单曲CD1,收录4首混音,完美精确校准抓轨! |8QXjzH  
BLepCF38  
注:独家整理,转载请注明出处!EAC无损整轨(压缩包内含CD图片) )2nx5 "  
4R c_C0O  
解压密码:www.mjsunny.com
P"Scs$NOU?  
eX{:&Do  
Tracklist @Sik~Mm_h  
1 HIStory (7" HIStory Lesson Edit) 4:09 !nm[ZrS P  
2 HIStory (Radio Edit) 3:58 5xS ze;  
3 Ghosts (Radio Edit) 3:50 @nh* H{  
4 Ghosts (Mousse T's Club Mix) 6:04
3PBGIo  
D*nNu]|j  
Z$X[x7e.  
K1_]ne)  
mY'c<>6t  
en5sqKqh+  
Exact Audio Copy V1.0 beta 6 from 9. April 2015 hoDE*>i  
1 7..  
EAC 抓取日志文件从23. 十一月 2016, 1:56 Eq\PSa=gz  
wuV*!oefo  
Michael Jackson / HIStory - Ghosts (CD1) [UK] h,!#YG@>  
4[.DQ#r  
使用驱动器  :MATSHITADVD-RAM UJ890AS   Adapter: 1  ID: 1 YWK|AT-4  
KT9!R  
读取模式      : 可靠Secure kLfk2A;'i  
使用精确流     : 是 :ot^bAyt|  
清空音频缓存    : 否 3%0ShMFP@  
使用 C2 指示器 : 是 V:Lq>rs#  
$.0l% $7  
读取偏移校正:               : 102 MKPw;@-  
读取 Lead-In 和 Lead-Out : 否 6 *GR_sMm  
用静音填充抓取中丢失偏移的采样       : 是 ,'%wadOo  
去除首尾静音块               : 否 O`rKxP  
在CRC 计算中使用了空样本       : 是 *]#(?W.$w  
已用接口                  : Win NT 及 2000 本地 Win32 接口 qZwqnH  
.gP}/dj  
所用输出模式: : 内部 WAV 函数 50='>|b  
样本格式    : 44.100 Hz; 16 Bit; 立体声 (/;<K$u*h  
j0q:i}/U,  
D~T;z pS  
已抓取 CD 的 TOC eR|u']Em>T  
Ucqn 3&  
     音轨 |    起始    |    长度    |  起始扇区  |  结束扇区   @ i*It Hk  
    -------------------------------------------- xN +Oca  
      1 |  0:00.00 |  4:11.25 |      0 |  18849 O =gv2e  
      2 |  4:11.25 |  3:59.62 |  18850 |  36836 W20H4!G  
      3 |  8:11.12 |  3:51.48 |  36837 |  54209 lK"m|Z  
      4 | 12:02.60 |  6:02.27 |  54210 |  81386 !4vepa}Y  
E5QQI9ea  
FByA4VxB  
范围状态及错误 H#:Aby-d}  
Y_= ]w1  
已选择范围 sIzy/W0iV  
:-tMH02c  
     文件名 J:\12 Music*音乐\1997 HIStory/Ghosts [CD1] (UK - 664796 2) 4''\CDImage.wav FSD~Q&9&  
!6FO[^h||H  
     峰值电平 98.8 % a)QSq<2*  
     抓取速度 4.9 X >Vph_98|  
     范围质量 100.0 % Y2aN<>f  
     复制 CRC A3D3570A UIC~%?oIA  
     复制成功 6PT"9vR`)  
0]xp"xOwW  
没有错误发生 ?izl#?  
p^)w$UL}}  
1ZY~qP+n+  
AccurateRip 摘要 HcM/  
JPM~tp?;<  
音轨  1  精确地校准抓取  3)  [ABB64DB1]  (AR v2) dOVu D(  
音轨  2  精确地校准抓取  3)  [A21DDAD1]  (AR v2) nP_)PDTFp  
音轨  3  精确地校准抓取  3)  [90C771D6]  (AR v2) B+z>$6  
音轨  4  精确地校准抓取  3)  [A9372EE0]  (AR v2) }#S1!TU  
}Fsr"RER@{  
所有音轨精确校准抓取 mpQu:i|W  
10xza=a  
状态报告结尾
wVs"+4l<  
I%NeCd  
链接:http://pan.baidu.com/s/1c2dzLoW 密码: MRg Ozg  
此帖售价 10 金钱,已有 14 人购买 [记录] [购买]
购买后,将显示帖子中所有出售内容。
若发现会员采用欺骗的方法获取财富,请立刻举报,我们会对会员处以2-N倍的罚金,严重者封掉ID!
此段为出售的内容,购买后显示
离线小李

发帖
240
金钱
1125
威望
9
贡献值
8
交易币
212
只看该作者 1楼 发表于: 2017-01-03
我很奇怪Ghosts(Mousse T Radio Rock)收录在哪盘? 不是伴奏的版本哦
离线魏聪

发帖
168
金钱
2713
威望
41
贡献值
21
交易币
103
只看该作者 2楼 发表于: 2017-01-03
谢谢楼主分享
离线wannam

发帖
2703
金钱
87101
威望
382
贡献值
189
交易币
3346
只看该作者 3楼 发表于: 2017-01-03
这个封面超带感!
离线小杰克逊

发帖
1597
金钱
5567
威望
883
贡献值
994
交易币
707
只看该作者 4楼 发表于: 2017-01-04
幽灵兄收了那么多的好东西啊
http://gcb918.taobao.com/
离线marlene55555

发帖
1165
金钱
34275
威望
293
贡献值
98
交易币
1341
只看该作者 5楼 发表于: 2017-01-04
完美 谢谢分享

发帖
2767
金钱
30998
威望
622
贡献值
39
交易币
428
只看该作者 6楼 发表于: 2017-01-05
感谢分享

离线lifan_npl

发帖
2224
金钱
31752
威望
853
贡献值
430
交易币
2605
只看该作者 7楼 发表于: 2017-01-05
谢谢幽灵分享,辛苦了
我的淘宝店:
http://shop63152617.taobao.com  
离线mjnet

发帖
381
金钱
30546
威望
104
贡献值
54
交易币
558
只看该作者 8楼 发表于: 2017-02-15
謝謝分享
离线mjghosts

发帖
8262
金钱
219556
威望
9187
贡献值
2734
交易币
4797
只看该作者 9楼 发表于: 2017-02-15
回 小李 的帖子
小李:我很奇怪Ghosts(Mousse T Radio Rock)收录在哪盘? 不是伴奏的版本哦 (2017-01-03 13:31)  g "Du]_,  
gN<7(F  
在欧版厚盒单曲里~骷颅头封面的
快速回复
限100 字节
 
上一个 下一个