论坛风格切换切换到宽版
  • 1089阅读
  • 18回复

[亲传][Single] 1997 HIStory/Ghosts [CD1] (UK - 664796 2) - WAV整轨 ♬by幽灵 [复制链接]

上一主题 下一主题
离线mjghosts
 

发帖
8251
金钱
218537
威望
9176
贡献值
2723
交易币
4762
只看楼主 倒序阅读 楼主  发表于: 2017-01-03
— 本帖被 mjghosts 执行加亮操作(2017-01-03) —
*1997年英国发行单曲CD1,收录4首混音,完美精确校准抓轨! ;F@N2j#  
ANNfL9:Jy  
注:独家整理,转载请注明出处!EAC无损整轨(压缩包内含CD图片) hKq#i8py  
TbqED\5@9w  
解压密码:www.mjsunny.com
VjbRjn5LI  
8Yr_$5R  
Tracklist PiMW 29B^  
1 HIStory (7" HIStory Lesson Edit) 4:09 x | =  
2 HIStory (Radio Edit) 3:58 MS,J+'2  
3 Ghosts (Radio Edit) 3:50 =.9L/74@  
4 Ghosts (Mousse T's Club Mix) 6:04
SomA`y+ERn  
A"t~ )  
@EZ@X/8{&  
@ !0@f'}e  
A)/ 8FYc  
H]V@Q~?e  
Exact Audio Copy V1.0 beta 6 from 9. April 2015 [A?Dx-R;(  
zKr\S |yE  
EAC 抓取日志文件从23. 十一月 2016, 1:56 (0jT#&#  
6-U+<[,x  
Michael Jackson / HIStory - Ghosts (CD1) [UK] VG*Tdaua~  
^z #'o  
使用驱动器  :MATSHITADVD-RAM UJ890AS   Adapter: 1  ID: 1 w%jc' ;|  
%$/t`'&o-  
读取模式      : 可靠Secure <aJdm!6  
使用精确流     : 是 :_;9&[H9ha  
清空音频缓存    : 否 }gQ FWT  
使用 C2 指示器 : 是 uK6`3lCD  
<[O8 {9j  
读取偏移校正:               : 102 L&$ X\\Lv^  
读取 Lead-In 和 Lead-Out : 否 n82N@z<8]  
用静音填充抓取中丢失偏移的采样       : 是 aIV(&7KT4  
去除首尾静音块               : 否 f/t1@d!  
在CRC 计算中使用了空样本       : 是 o7"2"( =>  
已用接口                  : Win NT 及 2000 本地 Win32 接口 Q2sX7 cE  
[ t@  
所用输出模式: : 内部 WAV 函数 asT:/z0  
样本格式    : 44.100 Hz; 16 Bit; 立体声 ~|+! xh  
g_?:G$1H  
OYKeu(=L  
已抓取 CD 的 TOC 8s6~l.v  
a nK7j2  
     音轨 |    起始    |    长度    |  起始扇区  |  结束扇区   8F|8zX&  
    -------------------------------------------- | k"?I  
      1 |  0:00.00 |  4:11.25 |      0 |  18849 t5dk}sRF  
      2 |  4:11.25 |  3:59.62 |  18850 |  36836 .]+Z<5Fo  
      3 |  8:11.12 |  3:51.48 |  36837 |  54209 G0p|44_~t  
      4 | 12:02.60 |  6:02.27 |  54210 |  81386 ?o'!(3`L  
o~7~S  
=Q985)Y&  
范围状态及错误 My'u('Q%  
)-$Od2u2c  
已选择范围 &oJ=   
GKf,1kns  
     文件名 J:\12 Music*音乐\1997 HIStory/Ghosts [CD1] (UK - 664796 2) 4''\CDImage.wav `I+G7K K  
[<m1xr4"k  
     峰值电平 98.8 % FHpS?htRy  
     抓取速度 4.9 X g.yr) LHt0  
     范围质量 100.0 % a4HUP*  
     复制 CRC A3D3570A {fXD@lhi  
     复制成功 K=x>%6W7b  
0ut/ ')[  
没有错误发生 \T)2J|mW  
f0rM 4"1  
2QwdDKMS_  
AccurateRip 摘要 LQ T^1|nq  
tU2 8l.  
音轨  1  精确地校准抓取  3)  [ABB64DB1]  (AR v2) bt3v`q+V  
音轨  2  精确地校准抓取  3)  [A21DDAD1]  (AR v2) 0k"n;:KM8  
音轨  3  精确地校准抓取  3)  [90C771D6]  (AR v2) &DoYz[q  
音轨  4  精确地校准抓取  3)  [A9372EE0]  (AR v2) |F)BKo D  
6Y4sv5G  
所有音轨精确校准抓取 !#l>+9  
? <b>2j  
状态报告结尾
X|!Vt O  
;&mefaFlWp  
链接:http://pan.baidu.com/s/1c2dzLoW 密码: M*M,Z  
此帖售价 10 金钱,已有 13 人购买 [记录] [购买]
购买后,将显示帖子中所有出售内容。
若发现会员采用欺骗的方法获取财富,请立刻举报,我们会对会员处以2-N倍的罚金,严重者封掉ID!
此段为出售的内容,购买后显示
离线小李

发帖
238
金钱
1115
威望
9
贡献值
8
交易币
210
只看该作者 1楼 发表于: 2017-01-03
我很奇怪Ghosts(Mousse T Radio Rock)收录在哪盘? 不是伴奏的版本哦
离线魏聪

发帖
168
金钱
2713
威望
41
贡献值
21
交易币
103
只看该作者 2楼 发表于: 2017-01-03
谢谢楼主分享
离线wannam

发帖
2702
金钱
87018
威望
382
贡献值
189
交易币
3345
只看该作者 3楼 发表于: 2017-01-03
这个封面超带感!
离线小杰克逊

发帖
1594
金钱
5583
威望
883
贡献值
994
交易币
704
只看该作者 4楼 发表于: 2017-01-04
幽灵兄收了那么多的好东西啊
http://gcb918.taobao.com/
离线marlene55555

发帖
1165
金钱
34275
威望
293
贡献值
98
交易币
1341
只看该作者 5楼 发表于: 2017-01-04
完美 谢谢分享

发帖
2740
金钱
30927
威望
620
贡献值
37
交易币
393
只看该作者 6楼 发表于: 2017-01-05
感谢分享

离线lifan_npl

发帖
2196
金钱
31917
威望
851
贡献值
428
交易币
2569
只看该作者 7楼 发表于: 2017-01-05
谢谢幽灵分享,辛苦了
我的淘宝:
http://shop63152617.taobao.com  
离线mjnet

发帖
380
金钱
30579
威望
104
贡献值
54
交易币
557
只看该作者 8楼 发表于: 2017-02-15
謝謝分享
离线mjghosts

发帖
8251
金钱
218537
威望
9176
贡献值
2723
交易币
4762
只看该作者 9楼 发表于: 2017-02-15
回 小李 的帖子
小李:我很奇怪Ghosts(Mousse T Radio Rock)收录在哪盘? 不是伴奏的版本哦 (2017-01-03 13:31)  ghm5g/  
UKp- *YukT  
在欧版厚盒单曲里~骷颅头封面的
快速回复
限100 字节
 
上一个 下一个