论坛风格切换切换到宽版
  • 455阅读
  • 14回复

[亲传][Single] 1997 HIStory/Ghosts [CD1] (UK - 664796 2) - WAV整轨 ♬by幽灵 [复制链接]

上一主题 下一主题
在线mjghosts
 

发帖
8235
金钱
209029
威望
9162
贡献值
2713
交易币
4678
只看楼主 倒序阅读 楼主  发表于: 01-03
— 本帖被 mjghosts 执行加亮操作(2017-01-03) —
*1997年英国发行单曲CD1,收录4首混音,完美精确校准抓轨! zm mkmTp  
k'NP+N<M  
注:独家整理,转载请注明出处!EAC无损整轨(压缩包内含CD图片) x~ID[  
P2F8[o!<  
解压密码:www.mjsunny.com
NNMn,J  
!ScEA=  
Tracklist g"N&*V2  
1 HIStory (7" HIStory Lesson Edit) 4:09 p!EG:B4  
2 HIStory (Radio Edit) 3:58 F_&H*kL L3  
3 Ghosts (Radio Edit) 3:50 0./Rdf=-1j  
4 Ghosts (Mousse T's Club Mix) 6:04
g>g*1oS  
tF\_AvL_8  
^a$L9p(  
j=c< Lo`  
^V7)V)Z;0  
.*Bd'\:F/q  
Exact Audio Copy V1.0 beta 6 from 9. April 2015 d$8K,-M  
p.H`lbVY  
EAC 抓取日志文件从23. 十一月 2016, 1:56 KUC%Da3  
[ua[A;K  
Michael Jackson / HIStory - Ghosts (CD1) [UK] Lhrlz,1  
)<Mo.  
使用驱动器  :MATSHITADVD-RAM UJ890AS   Adapter: 1  ID: 1 $ e.Bz `  
:Zo^Uc:*w  
读取模式      : 可靠Secure tK `A_hC  
使用精确流     : 是 ;bL?uL  
清空音频缓存    : 否 8#9OSupp  
使用 C2 指示器 : 是 t{`-G*^  
lTFo#p_(  
读取偏移校正:               : 102 #-{ljjMQI  
读取 Lead-In 和 Lead-Out : 否 ,mKUCG  
用静音填充抓取中丢失偏移的采样       : 是 f9hH{ ( A  
去除首尾静音块               : 否 =/4}!B/  
在CRC 计算中使用了空样本       : 是 |HPb$#i  
已用接口                  : Win NT 及 2000 本地 Win32 接口 KqNsCT+j  
52F3r:Rk  
所用输出模式: : 内部 WAV 函数 dbF9%I@  
样本格式    : 44.100 Hz; 16 Bit; 立体声 SL_JA  
0,iG9D 7  
q@Zeu\T,*#  
已抓取 CD 的 TOC  AZ-JaE  
3v)`` n@  
     音轨 |    起始    |    长度    |  起始扇区  |  结束扇区   PW9tZx#  
    -------------------------------------------- ETfoL.d$(  
      1 |  0:00.00 |  4:11.25 |      0 |  18849 n5*m x7  
      2 |  4:11.25 |  3:59.62 |  18850 |  36836 h6D1uM"o   
      3 |  8:11.12 |  3:51.48 |  36837 |  54209 <In+V  
      4 | 12:02.60 |  6:02.27 |  54210 |  81386 :/;;|lGw  
3[%n@i4H|  
<ol? 9tm  
范围状态及错误 '8|joj>G=  
Z'c9xvy5  
已选择范围 JiiYl&#  
1( ]{tF  
     文件名 J:\12 Music*音乐\1997 HIStory/Ghosts [CD1] (UK - 664796 2) 4''\CDImage.wav ABhQ7 x|  
~gOdK-SV*  
     峰值电平 98.8 %  OF`:);  
     抓取速度 4.9 X Gk<6+.c~  
     范围质量 100.0 % oF5~|&C  
     复制 CRC A3D3570A 6am<V]Hw0F  
     复制成功 ks<+gL{K|i  
rd}|^&e!Dy  
没有错误发生 ?,*KAGg%  
P64< O 5l/  
:-1 i1d  
AccurateRip 摘要  x5W. 3*  
0%]F&|  
音轨  1  精确地校准抓取  3)  [ABB64DB1]  (AR v2) 7cZ(gdQ/  
音轨  2  精确地校准抓取  3)  [A21DDAD1]  (AR v2) k54Vh=p  
音轨  3  精确地校准抓取  3)  [90C771D6]  (AR v2) <I^Tug\M+  
音轨  4  精确地校准抓取  3)  [A9372EE0]  (AR v2) ;bes#|^F  
y4N=v{EbL  
所有音轨精确校准抓取 aak[U;rx  
I]Jz[{~1  
状态报告结尾
ekhx?rz  
ld/\`s[i  
链接:http://pan.baidu.com/s/1c2dzLoW 密码: 6$*ZH *  
此帖售价 10 金钱,已有 9 人购买 [记录] [购买]
购买后,将显示帖子中所有出售内容。
若发现会员采用欺骗的方法获取财富,请立刻举报,我们会对会员处以2-N倍的罚金,严重者封掉ID!
此段为出售的内容,购买后显示
离线小李

发帖
211
金钱
177
威望
98
贡献值
7
交易币
179
只看该作者 1楼 发表于: 01-03
我很奇怪Ghosts(Mousse T Radio Rock)收录在哪盘? 不是伴奏的版本哦
离线魏聪

发帖
159
金钱
2897
威望
41
贡献值
21
交易币
94
只看该作者 2楼 发表于: 01-03
谢谢楼主分享
离线wannam

发帖
2680
金钱
86748
威望
382
贡献值
189
交易币
3323
只看该作者 3楼 发表于: 01-03
这个封面超带感!
离线小杰克逊

发帖
1587
金钱
5959
威望
883
贡献值
994
交易币
697
只看该作者 4楼 发表于: 01-04
幽灵兄收了那么多的好东西啊
http://gcb918.taobao.com/
离线marlene55555

发帖
1161
金钱
34314
威望
293
贡献值
98
交易币
1337
只看该作者 5楼 发表于: 01-04
完美 谢谢分享

发帖
2650
金钱
28573
威望
617
贡献值
34
交易币
291
只看该作者 6楼 发表于: 01-05
感谢分享

离线lifan_npl

发帖
2093
金钱
18000
威望
787
贡献值
347
交易币
2446
只看该作者 7楼 发表于: 01-05
谢谢幽灵分享,辛苦了
我的淘宝:
http://shop63152617.taobao.com  
离线mjnet

发帖
354
金钱
30856
威望
104
贡献值
54
交易币
531
只看该作者 8楼 发表于: 02-15
謝謝分享
在线mjghosts

发帖
8235
金钱
209029
威望
9162
贡献值
2713
交易币
4678
只看该作者 9楼 发表于: 02-15
回 小李 的帖子
小李:我很奇怪Ghosts(Mousse T Radio Rock)收录在哪盘? 不是伴奏的版本哦 (2017-01-03 13:31)  7"Mk+'  
qL 5>o>J  
在欧版厚盒单曲里~骷颅头封面的
快速回复
限100 字节
 
上一个 下一个