论坛风格切换切换到宽版
  • 388阅读
  • 14回复

[亲传][Single] 1997 HIStory/Ghosts [CD1] (UK - 664796 2) - WAV整轨 ♬by幽灵 [复制链接]

上一主题 下一主题
在线mjghosts
 

发帖
8228
金钱
208462
威望
9161
贡献值
2712
交易币
4667
只看楼主 倒序阅读 楼主  发表于: 01-03
— 本帖被 mjghosts 执行加亮操作(2017-01-03) —
*1997年英国发行单曲CD1,收录4首混音,完美精确校准抓轨! 8=  kwc   
MfA@)v  
注:独家整理,转载请注明出处!EAC无损整轨(压缩包内含CD图片) 1p5n}|  
:*} -,{uX  
解压密码:www.mjsunny.com
.mbqsb]&Y  
[o"<DP6w  
Tracklist 3%[;nhbA7  
1 HIStory (7" HIStory Lesson Edit) 4:09 #soV'SFG  
2 HIStory (Radio Edit) 3:58 FMi:2.E  
3 Ghosts (Radio Edit) 3:50 gHo sPY[  
4 Ghosts (Mousse T's Club Mix) 6:04
}6_*i!68"U  
" vka7r  
sg8[TFX@Z  
6Hp+?mmh  
?KtF!:_C  
@jxP3:s  
Exact Audio Copy V1.0 beta 6 from 9. April 2015 E|vXM"zFl  
o(k{Ed  
EAC 抓取日志文件从23. 十一月 2016, 1:56 ;_=N YG.  
ysj5/wtO0  
Michael Jackson / HIStory - Ghosts (CD1) [UK] Vw|P;LLl`  
"<"m}rE?Q  
使用驱动器  :MATSHITADVD-RAM UJ890AS   Adapter: 1  ID: 1 N; '] &f  
fX.1=BjXi  
读取模式      : 可靠Secure  l*?_@  
使用精确流     : 是 4[(NxXH8M  
清空音频缓存    : 否 iF9d?9TWl  
使用 C2 指示器 : 是 84WX I#BH  
[l3ys  
读取偏移校正:               : 102 o_1N "o%  
读取 Lead-In 和 Lead-Out : 否 Pa6pq;4St  
用静音填充抓取中丢失偏移的采样       : 是 2Rt6)hgY  
去除首尾静音块               : 否 6`@b@Kd  
在CRC 计算中使用了空样本       : 是 9QaE)wt  
已用接口                  : Win NT 及 2000 本地 Win32 接口 rlaeqG  
!~&& &85  
所用输出模式: : 内部 WAV 函数 Y hQ)M5  
样本格式    : 44.100 Hz; 16 Bit; 立体声 - V:HT j  
^?$,sS ;Q  
{l)$9!  
已抓取 CD 的 TOC a}uYv:  
0$]iRE;O]  
     音轨 |    起始    |    长度    |  起始扇区  |  结束扇区   43pe6 ^.  
    -------------------------------------------- <sw@P":F  
      1 |  0:00.00 |  4:11.25 |      0 |  18849 P`ou:M{8  
      2 |  4:11.25 |  3:59.62 |  18850 |  36836 @zC6`  
      3 |  8:11.12 |  3:51.48 |  36837 |  54209 Kp6 @?  
      4 | 12:02.60 |  6:02.27 |  54210 |  81386 3*& Y'/!  
%uN<^`JZ  
 kDE-GX"Y  
范围状态及错误 ~W[I  
PR Mg6  
已选择范围 T#H^ }`  
X+C*+k,z  
     文件名 J:\12 Music*音乐\1997 HIStory/Ghosts [CD1] (UK - 664796 2) 4''\CDImage.wav >Jmla~A  
W;'fAohr  
     峰值电平 98.8 % +bS\iw+  
     抓取速度 4.9 X `R$i|,9 )  
     范围质量 100.0 % n&njSj/  
     复制 CRC A3D3570A %+H_V1F  
     复制成功 7ocUFY0"  
cry1gnWG  
没有错误发生 T@tsM|pI  
Y {^*y  
I&{T 4.B:U  
AccurateRip 摘要 /)6T>/  
p L"{Uqi  
音轨  1  精确地校准抓取  3)  [ABB64DB1]  (AR v2) nwU],{(Hgr  
音轨  2  精确地校准抓取  3)  [A21DDAD1]  (AR v2) vN'+5*Cgy6  
音轨  3  精确地校准抓取  3)  [90C771D6]  (AR v2) taE p   
音轨  4  精确地校准抓取  3)  [A9372EE0]  (AR v2) %):_  
C< c6Ub  
所有音轨精确校准抓取 `(FjOd K  
^eh.Iml'@  
状态报告结尾
1'qXT{f/~  
_y~6b{T  
链接:http://pan.baidu.com/s/1c2dzLoW 密码: lxyTh'  
此帖售价 10 金钱,已有 9 人购买 [记录] [购买]
购买后,将显示帖子中所有出售内容。
若发现会员采用欺骗的方法获取财富,请立刻举报,我们会对会员处以2-N倍的罚金,严重者封掉ID!
此段为出售的内容,购买后显示
离线小李

发帖
207
金钱
182
威望
98
贡献值
7
交易币
175
只看该作者 1楼 发表于: 01-03
我很奇怪Ghosts(Mousse T Radio Rock)收录在哪盘? 不是伴奏的版本哦
离线魏聪

发帖
159
金钱
2897
威望
41
贡献值
21
交易币
94
只看该作者 2楼 发表于: 01-03
谢谢楼主分享
离线wannam

发帖
2666
金钱
80618
威望
382
贡献值
189
交易币
3309
只看该作者 3楼 发表于: 01-03
这个封面超带感!
离线小杰克逊

发帖
1554
金钱
1122
威望
883
贡献值
994
交易币
664
只看该作者 4楼 发表于: 01-04
幽灵兄收了那么多的好东西啊
http://gcb918.taobao.com/
离线marlene55555

发帖
1161
金钱
34311
威望
293
贡献值
98
交易币
1337
只看该作者 5楼 发表于: 01-04
完美 谢谢分享

发帖
2645
金钱
28240
威望
616
贡献值
33
交易币
282
只看该作者 6楼 发表于: 01-05
感谢分享

离线lifan_npl

发帖
2076
金钱
18269
威望
787
贡献值
347
交易币
2429
只看该作者 7楼 发表于: 01-05
谢谢幽灵分享,辛苦了
我的淘宝:
http://shop63152617.taobao.com  
在线mjnet

发帖
345
金钱
30692
威望
103
贡献值
53
交易币
518
只看该作者 8楼 发表于: 02-15
謝謝分享
在线mjghosts

发帖
8228
金钱
208462
威望
9161
贡献值
2712
交易币
4667
只看该作者 9楼 发表于: 02-15
回 小李 的帖子
小李:我很奇怪Ghosts(Mousse T Radio Rock)收录在哪盘? 不是伴奏的版本哦 (2017-01-03 13:31)  9d5$cV  
-#v~;Ci  
在欧版厚盒单曲里~骷颅头封面的
快速回复
限100 字节
 
上一个 下一个