论坛风格切换切换到宽版
  • 296阅读
  • 12回复

[亲传][Single] 1997 HIStory/Ghosts [CD2] (UK - 664796 5) - WAV整轨 ♬by幽灵 [复制链接]

上一主题 下一主题
离线mjghosts
 

发帖
8193
金钱
205205
威望
9035
贡献值
2641
交易币
4552
只看楼主 倒序阅读 楼主  发表于: 01-03
— 本帖被 mjghosts 执行加亮操作(2017-01-03) —
*1997英国发行单曲CD2,封面有别于CD1 ,直接以《HIStory》命名,顾名思义全为HIStory的混音,完美精确校准抓轨! eaCv8zdX  
9lNO ~8  
注:独家整理,转载请注明出处!EAC无损整轨(压缩包内含CD图片) k?3NF:Yy7  
@~hiL(IR'  
解压密码:www.mjsunny.com
`WGT`A"  
,<0R'R  
Tracklist 1[OCojo<  
1 HIStory (Tony Moran's HIStory Lesson) 8:00 @ U xO!  
2 HIStory (Tony Moran's Historical Dub) 7:56 ET;YAa*  
3 HIStory (Mark!'s Vocal Club Mix) 9:10 +KgLe>-}  
4 HIStory (The Ummah Radio Mix) 4:59 nh"nSBRxk  
5 HIStory (The Ummah Urban Mix) 4:19 "bZ%1)+  
K?o( zh;  
0+%{1JkJq  
{z> fe }  
W5PNp%+KE  
T'B43Q  
#pO=\lJ,  
Exact Audio Copy V1.0 beta 6 from 9. April 2015 /I}#0}  
#{KYsDtvx  
EAC 抓取日志文件从23. 十一月 2016, 2:10 6RV42r^pf  
~ (bY-6z  
Michael Jackson / History (CD2) [UK] x`~YTOfYk  
CAg~K[  
使用驱动器  :MATSHITADVD-RAM UJ890AS   Adapter: 1  ID: 1 sh;DCd  
(37dD!  
读取模式      : 可靠Secure 9'+Eu)l:  
使用精确流     : 是 _#32hAI  
清空音频缓存    : 否 M|8vP53=q  
使用 C2 指示器 : 是 Cge@A'2  
-([ ipg(r  
读取偏移校正:               : 102 j"=F\S&!  
读取 Lead-In 和 Lead-Out : 否 vDI$ QUMD6  
用静音填充抓取中丢失偏移的采样       : 是 1%Hc/N-  
去除首尾静音块               : 否 E,IeW {6s  
在CRC 计算中使用了空样本       : 是 iB4`w\-o  
已用接口                  : Win NT 及 2000 本地 Win32 接口 H.ha}0 J  
$fifx>!  
所用输出模式: : 内部 WAV 函数 zI-]K,!  
样本格式    : 44.100 Hz; 16 Bit; 立体声 F(h jP  
_EPfeh;  
yuP1*QJ%  
已抓取 CD 的 TOC Cp"a,%b6u  
hK]mnA[Y  
     音轨 |    起始    |    长度    |  起始扇区  |  结束扇区   ,X`w/ 2O  
    -------------------------------------------- |WP}y- Au  
      1 |  0:00.00 |  8:02.27 |      0 |  36176 Lf 0X(tC  
      2 |  8:02.27 |  7:57.00 |  36177 |  71951 U80h0t%  
      3 | 15:59.27 |  9:13.00 |  71952 | 113426 e|-&h `[  
      4 | 25:12.27 |  5:00.25 | 113427 | 135951 trx y3k;  
      5 | 30:12.52 |  4:18.45 | 135952 | 155346 q4MR9ig1E_  
[?>\]  
lcVZ 32MQ  
范围状态及错误 |hl:!j.t  
Wn%b}{9Fb  
已选择范围 WuuF &0?8C  
}INj~d<:  
     文件名 J:\12 Music*音乐\1997 HIStory/Ghosts [CD2] (UK - 664796 5) 5''\CDImage.wav =\`iC6xP}  
!i>d04u`%  
     峰值电平 98.8 % Lv&9s  
     抓取速度 5.6 X )FpizoVq0  
     范围质量 100.0 % dtj+ av G  
     复制 CRC 9B802D1E x^zw1e,y  
     复制成功 "5HSCl$r%  
S=<OS2W7+r  
没有错误发生 g@2KnzD  
bWgRGJqt  
5pT8 }?7  
AccurateRip 摘要 1/f{1k  
r2*8.j51  
音轨  1  精确地校准抓取  2)  [58E14004]  (AR v2) =PF2p'.o  
音轨  2  精确地校准抓取  2)  [FBD994EB]  (AR v2) s0O]vDTR,H  
音轨  3  精确地校准抓取  2)  [BECFF04B]  (AR v2) S]&:R)#@  
音轨  4  精确地校准抓取  2)  [5DF21E3A]  (AR v2) Zg%tN#6y  
音轨  5  精确地校准抓取  2)  [5DAF62B0]  (AR v2) u69UUkG  
ff;~k?L  
所有音轨精确校准抓取 jF-:e;-  
zpD?5  
状态报告结尾
;f~fGsH}e'  
*_Vv(H&  
链接:http://pan.baidu.com/s/1i4XjZc5 密码: jlA6~n  
此帖售价 10 金钱,已有 10 人购买 [记录] [购买]
购买后,将显示帖子中所有出售内容。
若发现会员采用欺骗的方法获取财富,请立刻举报,我们会对会员处以2-N倍的罚金,严重者封掉ID!
此段为出售的内容,购买后显示

发帖
418
金钱
14141
威望
34
贡献值
13
交易币
471
只看该作者 1楼 发表于: 01-03
又是压缩包吗?
离线小李

发帖
200
金钱
181
威望
98
贡献值
7
交易币
168
只看该作者 2楼 发表于: 01-03
谢谢 分享.....
离线Moses

发帖
5016
金钱
37090
威望
2951
贡献值
1521
交易币
2702
只看该作者 3楼 发表于: 01-03
那个器乐版听过 很古怪的混音
离线魏聪

发帖
159
金钱
2897
威望
41
贡献值
21
交易币
94
只看该作者 4楼 发表于: 01-03
谢谢分享。
离线wannam

发帖
2580
金钱
75499
威望
363
贡献值
169
交易币
3223
只看该作者 5楼 发表于: 01-03
楼主收了好多CD 啊,谢谢分享!
离线小杰克逊

发帖
1550
金钱
1156
威望
883
贡献值
994
交易币
660
只看该作者 6楼 发表于: 01-04
谢谢幽灵兄
http://gcb918.taobao.com/
离线marlene55555

发帖
1161
金钱
34311
威望
293
贡献值
98
交易币
1337
只看该作者 7楼 发表于: 01-04
好一个历史混 O(∩_∩)O哈哈~

发帖
2631
金钱
28098
威望
616
贡献值
33
交易币
268
只看该作者 8楼 发表于: 01-05
感谢分享。

离线lifan_npl

发帖
2062
金钱
18203
威望
777
贡献值
337
交易币
2415
只看该作者 9楼 发表于: 01-05
谢谢幽灵分享,辛苦了
我的淘宝:
http://shop63152617.taobao.com  
快速回复
限100 字节
 
上一个 下一个