论坛风格切换切换到宽版
  • 1334阅读
  • 16回复

[亲传][Single] 1997 HIStory/Ghosts [CD2] (UK - 664796 5) - WAV整轨 ♬by幽灵 [复制链接]

上一主题 下一主题
离线mjghosts
 

发帖
8256
金钱
219309
威望
9187
贡献值
2734
交易币
4791
只看楼主 倒序阅读 楼主  发表于: 2017-01-03
— 本帖被 mjghosts 执行加亮操作(2017-01-03) —
*1997英国发行单曲CD2,封面有别于CD1 ,直接以《HIStory》命名,顾名思义全为HIStory的混音,完美精确校准抓轨! ~k34#j:J65  
eY 3:Nl^  
注:独家整理,转载请注明出处!EAC无损整轨(压缩包内含CD图片) }#1.$a  
u [qy1M0  
解压密码:www.mjsunny.com
w5z]=dN  
.!~ysy  
Tracklist KJFQ)#SW!  
1 HIStory (Tony Moran's HIStory Lesson) 8:00 Mh`^-*c?  
2 HIStory (Tony Moran's Historical Dub) 7:56 HJr/N)d  
3 HIStory (Mark!'s Vocal Club Mix) 9:10 d*+}_EV)Y3  
4 HIStory (The Ummah Radio Mix) 4:59 4AhF E@  
5 HIStory (The Ummah Urban Mix) 4:19 ~"S5KroN  
r5&c!b\  
Y<;C>Rs  
w8D8\`i!"  
87[o^)8  
26~rEOgJ  
 fp||<B  
Exact Audio Copy V1.0 beta 6 from 9. April 2015 x/1FQ>n:9  
>kAJS??  
EAC 抓取日志文件从23. 十一月 2016, 2:10 fXevr `  
5%S5*c6BD  
Michael Jackson / History (CD2) [UK] *Iw19o-I  
[ 2@Lc3<  
使用驱动器  :MATSHITADVD-RAM UJ890AS   Adapter: 1  ID: 1 |\B\IPs{%'  
aJm5`az)  
读取模式      : 可靠Secure VII`qbxT  
使用精确流     : 是 y~_x  
清空音频缓存    : 否 ,hK =x  
使用 C2 指示器 : 是 9F,XjPK=  
$.DD^ "9  
读取偏移校正:               : 102 BvlY\^  
读取 Lead-In 和 Lead-Out : 否 Kc9)Lzu+  
用静音填充抓取中丢失偏移的采样       : 是 ?Wt_Obl  
去除首尾静音块               : 否 $o\U q  
在CRC 计算中使用了空样本       : 是 p*P0<01Z  
已用接口                  : Win NT 及 2000 本地 Win32 接口 +&AU&2As  
GmGq69]J*  
所用输出模式: : 内部 WAV 函数 f2|On6/  
样本格式    : 44.100 Hz; 16 Bit; 立体声 n O}x,sG2'  
8/34{2048  
BcGQpv&x  
已抓取 CD 的 TOC 9.goO|~B~  
X>jwjRK $  
     音轨 |    起始    |    长度    |  起始扇区  |  结束扇区   CQY/q@7  
    -------------------------------------------- 4d'tK^X  
      1 |  0:00.00 |  8:02.27 |      0 |  36176 gk6j5 $Y"<  
      2 |  8:02.27 |  7:57.00 |  36177 |  71951 .uagD[${  
      3 | 15:59.27 |  9:13.00 |  71952 | 113426 "=!QSb  
      4 | 25:12.27 |  5:00.25 | 113427 | 135951  K[TMTn  
      5 | 30:12.52 |  4:18.45 | 135952 | 155346 *DoEDw  
5p{tt;9[  
U7fE6&g  
范围状态及错误 TAJ9Y<  
CM's6qhQnn  
已选择范围 XWy iS\  
*&2#;mf3  
     文件名 J:\12 Music*音乐\1997 HIStory/Ghosts [CD2] (UK - 664796 5) 5''\CDImage.wav Y.*lO  
nt[0krG  
     峰值电平 98.8 % )J88gMk+  
     抓取速度 5.6 X 5BCaE)J  
     范围质量 100.0 % ptq{$Y{_  
     复制 CRC 9B802D1E ^9b `;}).  
     复制成功 fR[!=-6^f  
IKr7"`  
没有错误发生 'IW+"o  
&% r#eB?7  
K+$c,1wb  
AccurateRip 摘要 1W!n"3#  
w+$gY?%  
音轨  1  精确地校准抓取  2)  [58E14004]  (AR v2) yaR;  
音轨  2  精确地校准抓取  2)  [FBD994EB]  (AR v2) O`0$pn  
音轨  3  精确地校准抓取  2)  [BECFF04B]  (AR v2) imhq*f#A[  
音轨  4  精确地校准抓取  2)  [5DF21E3A]  (AR v2) d,+n,;6Cf  
音轨  5  精确地校准抓取  2)  [5DAF62B0]  (AR v2) t(rU6miN  
1=a}{)0h  
所有音轨精确校准抓取 9iy|=  
)|a9Z~#x  
状态报告结尾
+r!h*4  
`pMI[pLZe  
链接:http://pan.baidu.com/s/1i4XjZc5 密码: EDQJ>c  
此帖售价 10 金钱,已有 15 人购买 [记录] [购买]
购买后,将显示帖子中所有出售内容。
若发现会员采用欺骗的方法获取财富,请立刻举报,我们会对会员处以2-N倍的罚金,严重者封掉ID!
此段为出售的内容,购买后显示

发帖
481
金钱
13861
威望
35
贡献值
13
交易币
534
只看该作者 1楼 发表于: 2017-01-03
又是压缩包吗?
离线小李

发帖
240
金钱
1125
威望
9
贡献值
8
交易币
212
只看该作者 2楼 发表于: 2017-01-03
谢谢 分享.....
离线Moses

发帖
5062
金钱
37320
威望
2951
贡献值
1521
交易币
2748
只看该作者 3楼 发表于: 2017-01-03
那个器乐版听过 很古怪的混音
http://blog.sina.com.cn/mjjcfc
离线魏聪

发帖
168
金钱
2713
威望
41
贡献值
21
交易币
103
只看该作者 4楼 发表于: 2017-01-03
谢谢分享。
离线wannam

发帖
2703
金钱
87033
威望
382
贡献值
189
交易币
3346
只看该作者 5楼 发表于: 2017-01-03
楼主收了好多CD 啊,谢谢分享!
离线小杰克逊

发帖
1594
金钱
5579
威望
883
贡献值
994
交易币
704
只看该作者 6楼 发表于: 2017-01-04
谢谢幽灵兄
http://gcb918.taobao.com/
离线marlene55555

发帖
1165
金钱
34275
威望
293
贡献值
98
交易币
1341
只看该作者 7楼 发表于: 2017-01-04
好一个历史混 O(∩_∩)O哈哈~

发帖
2751
金钱
30829
威望
621
贡献值
38
交易币
408
只看该作者 8楼 发表于: 2017-01-05
感谢分享。

离线lifan_npl

发帖
2212
金钱
31692
威望
853
贡献值
430
交易币
2593
只看该作者 9楼 发表于: 2017-01-05
谢谢幽灵分享,辛苦了
我的淘宝店:
http://shop63152617.taobao.com  
快速回复
限100 字节
 
上一个 下一个