论坛风格切换切换到宽版
  • 250阅读
  • 11回复

[亲传][Single] 1997 HIStory/Ghosts [CD2] (UK - 664796 5) - WAV整轨 ♬by幽灵 [复制链接]

上一主题 下一主题
离线mjghosts
 

发帖
8191
金钱
204337
威望
9035
贡献值
2641
交易币
4550
只看楼主 倒序阅读 楼主  发表于: 01-03
— 本帖被 mjghosts 执行加亮操作(2017-01-03) —
*1997英国发行单曲CD2,封面有别于CD1 ,直接以《HIStory》命名,顾名思义全为HIStory的混音,完美精确校准抓轨! ]Gl5Qf:+z  
^.[+)0I  
注:独家整理,转载请注明出处!EAC无损整轨(压缩包内含CD图片) ?o d*"M  
++}#pl8e  
解压密码:www.mjsunny.com
YY$O"!."  
jG^OF5.  
Tracklist s3)T}52  
1 HIStory (Tony Moran's HIStory Lesson) 8:00 P1ynCe  
2 HIStory (Tony Moran's Historical Dub) 7:56 "'c =(P  
3 HIStory (Mark!'s Vocal Club Mix) 9:10 h-@_.&P0e  
4 HIStory (The Ummah Radio Mix) 4:59 e)4L}a  
5 HIStory (The Ummah Urban Mix) 4:19 HF%)ip+  
kJ0otr2P  
~ [=2d a  
%[m%QP1;p  
j,g.Eo  
[u8JqX  
I=V]_Ik4 N  
Exact Audio Copy V1.0 beta 6 from 9. April 2015 <V*M%YWs  
4Bq4d.0  
EAC 抓取日志文件从23. 十一月 2016, 2:10 #]Q.B\\  
o n?8l?iQ  
Michael Jackson / History (CD2) [UK] 9/50+2F  
@RS|}M^4  
使用驱动器  :MATSHITADVD-RAM UJ890AS   Adapter: 1  ID: 1 d#nKTqSg  
_6'HBE  
读取模式      : 可靠Secure Z+x`q#ZQr  
使用精确流     : 是 Psu*t%nQ?A  
清空音频缓存    : 否 n&}ILLc  
使用 C2 指示器 : 是 t>%J3S>'ZV  
2aO.t  
读取偏移校正:               : 102 gR) )K)  
读取 Lead-In 和 Lead-Out : 否 $Z^HI  
用静音填充抓取中丢失偏移的采样       : 是 T=->~@5  
去除首尾静音块               : 否 )3~):+  
在CRC 计算中使用了空样本       : 是 NX:i]t  
已用接口                  : Win NT 及 2000 本地 Win32 接口 XqTDLM&  
nc.X+dx:  
所用输出模式: : 内部 WAV 函数 2:l8RH!Y  
样本格式    : 44.100 Hz; 16 Bit; 立体声 y2 ,M9  
4&([<gyR<  
`>cBR,)r  
已抓取 CD 的 TOC l>O~^41[  
X,8 ]g.<  
     音轨 |    起始    |    长度    |  起始扇区  |  结束扇区   myeez+@ m  
    -------------------------------------------- G\ht)7SGgf  
      1 |  0:00.00 |  8:02.27 |      0 |  36176 b$:<T7vei  
      2 |  8:02.27 |  7:57.00 |  36177 |  71951 wR=WS',  
      3 | 15:59.27 |  9:13.00 |  71952 | 113426 %Cz&7qf"  
      4 | 25:12.27 |  5:00.25 | 113427 | 135951 yk| < P\  
      5 | 30:12.52 |  4:18.45 | 135952 | 155346 X]OVc<F  
&{c.JDO  
OWRT6R4v  
范围状态及错误 [_h/Dh C:+  
3,<$z1Jm  
已选择范围 93*MY7j}  
9zKrFqhNo  
     文件名 J:\12 Music*音乐\1997 HIStory/Ghosts [CD2] (UK - 664796 5) 5''\CDImage.wav R6A{u(  
hY@rt,! 8  
     峰值电平 98.8 % BB694   
     抓取速度 5.6 X B~RVFc +  
     范围质量 100.0 % =x/Ap1  
     复制 CRC 9B802D1E dyz)22{\!`  
     复制成功 M;\iL?,  
W h^9 Aq  
没有错误发生 <n)J~B^  
AUm"^-@x#>  
.BR2pf|R  
AccurateRip 摘要 +; P8QZK6  
W'BB FG  
音轨  1  精确地校准抓取  2)  [58E14004]  (AR v2)  a9ko3L  
音轨  2  精确地校准抓取  2)  [FBD994EB]  (AR v2) *,:>EcDr  
音轨  3  精确地校准抓取  2)  [BECFF04B]  (AR v2) 5*ip}wA  
音轨  4  精确地校准抓取  2)  [5DF21E3A]  (AR v2) 9Q<8DMX^  
音轨  5  精确地校准抓取  2)  [5DAF62B0]  (AR v2) ZPieL&uV`  
4' ym vR  
所有音轨精确校准抓取 ' DZYN {}  
7S_rN!E1i*  
状态报告结尾
h~]G6>D9)>  
$?.0>0 ,<  
链接:http://pan.baidu.com/s/1i4XjZc5 密码: 1VlRdDg  
此帖售价 10 金钱,已有 9 人购买 [记录] [购买]
购买后,将显示帖子中所有出售内容。
若发现会员采用欺骗的方法获取财富,请立刻举报,我们会对会员处以2-N倍的罚金,严重者封掉ID!
此段为出售的内容,购买后显示

发帖
410
金钱
12181
威望
34
贡献值
13
交易币
463
只看该作者 1楼 发表于: 01-03
又是压缩包吗?
离线小李

发帖
197
金钱
153
威望
97
贡献值
6
交易币
161
只看该作者 2楼 发表于: 01-03
谢谢 分享.....
离线Moses

发帖
5015
金钱
37085
威望
2951
贡献值
1521
交易币
2701
只看该作者 3楼 发表于: 01-03
那个器乐版听过 很古怪的混音
离线魏聪

发帖
159
金钱
2897
威望
41
贡献值
21
交易币
94
只看该作者 4楼 发表于: 01-03
谢谢分享。
离线wannam

发帖
2546
金钱
69469
威望
363
贡献值
169
交易币
3189
只看该作者 5楼 发表于: 01-03
楼主收了好多CD 啊,谢谢分享!
离线小杰克逊

发帖
1547
金钱
1193
威望
883
贡献值
994
交易币
657
只看该作者 6楼 发表于: 01-04
谢谢幽灵兄
http://gcb918.taobao.com/
离线marlene55555

发帖
1161
金钱
34311
威望
293
贡献值
98
交易币
1337
只看该作者 7楼 发表于: 01-04
好一个历史混 O(∩_∩)O哈哈~

发帖
2626
金钱
27927
威望
599
贡献值
31
交易币
255
只看该作者 8楼 发表于: 01-05
感谢分享。

离线lifan_npl

发帖
2058
金钱
18220
威望
777
贡献值
337
交易币
2411
只看该作者 9楼 发表于: 01-05
谢谢幽灵分享,辛苦了
我的淘宝:
http://shop63152617.taobao.com  
快速回复
限100 字节
 
上一个 下一个