论坛风格切换切换到宽版
  • 156阅读
  • 10回复

[亲传][Single] 1997 HIStory/Ghosts [CD2] (UK - 664796 5) - WAV整轨 ♬by幽灵 [复制链接]

上一主题 下一主题
离线mjghosts
 

发帖
8164
金钱
198371
威望
8946
贡献值
2637
交易币
4507
只看楼主 倒序阅读 楼主  发表于: 01-03
— 本帖被 mjghosts 执行加亮操作(2017-01-03) —
*1997英国发行单曲CD2,封面有别于CD1 ,直接以《HIStory》命名,顾名思义全为HIStory的混音,完美精确校准抓轨!  1l}Am>}  
-k>k<bDAI  
注:独家整理,转载请注明出处!EAC无损整轨(压缩包内含CD图片) b't6ekkN  
7dB_q}<  
解压密码:www.mjsunny.com
@ajdO/?(Y  
B[&l<*O-y  
Tracklist Y/mfBkh  
1 HIStory (Tony Moran's HIStory Lesson) 8:00 [4;_8-[Nv  
2 HIStory (Tony Moran's Historical Dub) 7:56 *.$ov<E.  
3 HIStory (Mark!'s Vocal Club Mix) 9:10 ~nj+" d]  
4 HIStory (The Ummah Radio Mix) 4:59 =<M>fJ)  
5 HIStory (The Ummah Urban Mix) 4:19 .d#Hh&jj  
# NK{]H$fd  
ze+S_{  
<VN< ~sz  
\8{Tj54NA  
`"~X1;  
7 oYD;li$k  
Exact Audio Copy V1.0 beta 6 from 9. April 2015 jt @2S  
Z>NA 9:  
EAC 抓取日志文件从23. 十一月 2016, 2:10 z&qOu8Jh  
'/ueY#eG  
Michael Jackson / History (CD2) [UK] &$qIJvMiK  
]YD qmIW  
使用驱动器  :MATSHITADVD-RAM UJ890AS   Adapter: 1  ID: 1 La^Zr,T!  
&t@ $]m(  
读取模式      : 可靠Secure X5tV Xd  
使用精确流     : 是 zcEpywNP  
清空音频缓存    : 否 M 8mNeh  
使用 C2 指示器 : 是 )pey7-P7g5  
.L]2g$W\p  
读取偏移校正:               : 102 @:9mTP7  
读取 Lead-In 和 Lead-Out : 否 YWq{?'AaR  
用静音填充抓取中丢失偏移的采样       : 是 LR17ilaa'  
去除首尾静音块               : 否 xJvalb   
在CRC 计算中使用了空样本       : 是 /#xYy^`  
已用接口                  : Win NT 及 2000 本地 Win32 接口 .9!&x0;  
Ga *  
所用输出模式: : 内部 WAV 函数 61TL]S8  
样本格式    : 44.100 Hz; 16 Bit; 立体声 jm |zn  
MD+ eLA7  
^A;ec h7I  
已抓取 CD 的 TOC pq5bK0N Q  
Od]wh  
     音轨 |    起始    |    长度    |  起始扇区  |  结束扇区   lU3Xd_v O  
    -------------------------------------------- o\y qf:V8  
      1 |  0:00.00 |  8:02.27 |      0 |  36176 O{G $]FtF  
      2 |  8:02.27 |  7:57.00 |  36177 |  71951 :Z5kiEwYM  
      3 | 15:59.27 |  9:13.00 |  71952 | 113426 h6Hop mWVx  
      4 | 25:12.27 |  5:00.25 | 113427 | 135951 VzFzVeJ  
      5 | 30:12.52 |  4:18.45 | 135952 | 155346 -(.\> F  
'8Lc}-M4  
Hkj| e6  
范围状态及错误 O[')[uo8s  
c6pGy%T-  
已选择范围 7otqGE\2  
:20k6)  
     文件名 J:\12 Music*音乐\1997 HIStory/Ghosts [CD2] (UK - 664796 5) 5''\CDImage.wav fm,:8%  
DWJkN4}o  
     峰值电平 98.8 % X 7"hTD  
     抓取速度 5.6 X e?b<-rL   
     范围质量 100.0 % /B9jmvj`  
     复制 CRC 9B802D1E u&Dd9kMz  
     复制成功 T]J#>LBd  
gIXc-=Ut  
没有错误发生 l{x?i00tAS  
&($Zs'X  
1]XIF?_D m  
AccurateRip 摘要 lf9_!`DGV  
V.274e  
音轨  1  精确地校准抓取  2)  [58E14004]  (AR v2) ? &;d)TQ  
音轨  2  精确地校准抓取  2)  [FBD994EB]  (AR v2) -x1O|q69  
音轨  3  精确地校准抓取  2)  [BECFF04B]  (AR v2) 6ypqnOTr  
音轨  4  精确地校准抓取  2)  [5DF21E3A]  (AR v2) '}wYSG-  
音轨  5  精确地校准抓取  2)  [5DAF62B0]  (AR v2) YPq`su7m9  
`Lu\zR%<  
所有音轨精确校准抓取 DWH)<\?  
+nslS:(  
状态报告结尾
U!x\oLP  
.el_pg  
链接:http://pan.baidu.com/s/1i4XjZc5 密码: H{T)?J~  
此帖售价 10 金钱,已有 8 人购买 [记录] [购买]
购买后,将显示帖子中所有出售内容。
若发现会员采用欺骗的方法获取财富,请立刻举报,我们会对会员处以2-N倍的罚金,严重者封掉ID!
此段为出售的内容,购买后显示

发帖
347
金钱
9221
威望
33
贡献值
12
交易币
396
只看该作者 1楼 发表于: 01-03
又是压缩包吗?
离线小李

发帖
192
金钱
138
威望
97
贡献值
6
交易币
156
只看该作者 2楼 发表于: 01-03
谢谢 分享.....
离线Moses

发帖
4997
金钱
36546
威望
2938
贡献值
1520
交易币
2679
只看该作者 3楼 发表于: 01-03
那个器乐版听过 很古怪的混音
离线魏聪

发帖
153
金钱
2809
威望
41
贡献值
21
交易币
88
只看该作者 4楼 发表于: 01-03
谢谢分享。
离线wannam

发帖
2415
金钱
65792
威望
363
贡献值
169
交易币
3058
只看该作者 5楼 发表于: 01-03
楼主收了好多CD 啊,谢谢分享!
离线小杰克逊

发帖
1538
金钱
1419
威望
883
贡献值
994
交易币
648
只看该作者 6楼 发表于: 01-04
谢谢幽灵兄
http://gcb918.taobao.com/
离线marlene55555

发帖
1158
金钱
34296
威望
293
贡献值
98
交易币
1334
只看该作者 7楼 发表于: 01-04
好一个历史混 O(∩_∩)O哈哈~

发帖
2620
金钱
27617
威望
598
贡献值
30
交易币
245
只看该作者 8楼 发表于: 01-05
感谢分享。

离线lifan_npl

发帖
2046
金钱
18376
威望
776
贡献值
336
交易币
2395
只看该作者 9楼 发表于: 01-05
谢谢幽灵分享,辛苦了
我的淘宝:
http://shop63152617.taobao.com  
快速回复
限100 字节
 
上一个 下一个