论坛风格切换切换到宽版
  • 1734阅读
  • 16回复

[亲传][Single] 1997 HIStory/Ghosts [CD2] (UK - 664796 5) - WAV整轨 ♬by幽灵 [复制链接]

上一主题 下一主题
离线mjghosts
 

发帖
8262
金钱
219556
威望
9187
贡献值
2734
交易币
4797
只看楼主 倒序阅读 楼主  发表于: 2017-01-03
— 本帖被 mjghosts 执行加亮操作(2017-01-03) —
*1997英国发行单曲CD2,封面有别于CD1 ,直接以《HIStory》命名,顾名思义全为HIStory的混音,完美精确校准抓轨! tN;^{O-(V  
F8&L'@m9>  
注:独家整理,转载请注明出处!EAC无损整轨(压缩包内含CD图片) w19OOD  
fS3%  
解压密码:www.mjsunny.com
;;N#'.xD  
qOAhBZ~  
Tracklist \Rw^&;\1  
1 HIStory (Tony Moran's HIStory Lesson) 8:00 *G[` T%g  
2 HIStory (Tony Moran's Historical Dub) 7:56 b_)SMAsO7  
3 HIStory (Mark!'s Vocal Club Mix) 9:10 ;?Q0mXr  
4 HIStory (The Ummah Radio Mix) 4:59 wj8\eK)]L  
5 HIStory (The Ummah Urban Mix) 4:19 :BF WX  
v}<z_i5/C.  
cqp^**s  
gX(8V*os^  
;\]DZV4?)r  
fVYv 2  
yMOYTN@]  
Exact Audio Copy V1.0 beta 6 from 9. April 2015  nyZ?m  
ie/QSte  
EAC 抓取日志文件从23. 十一月 2016, 2:10 }mS Q!"f:  
7'5/T]Z  
Michael Jackson / History (CD2) [UK] &<) _7?  
]0pI6"  
使用驱动器  :MATSHITADVD-RAM UJ890AS   Adapter: 1  ID: 1 hDbZ62DDN  
^.M_1$-  
读取模式      : 可靠Secure (CE2]Nv9")  
使用精确流     : 是 vIFx'S~D  
清空音频缓存    : 否 we?t/YB=  
使用 C2 指示器 : 是 M<@9di7c  
<4;f?e u  
读取偏移校正:               : 102 ^fM=|.?  
读取 Lead-In 和 Lead-Out : 否 )Y?E$=M +B  
用静音填充抓取中丢失偏移的采样       : 是 w$Mb+b$  
去除首尾静音块               : 否 UL" <V  
在CRC 计算中使用了空样本       : 是 7wqD_Xr  
已用接口                  : Win NT 及 2000 本地 Win32 接口 'eoI~*}3WQ  
s'@@q  
所用输出模式: : 内部 WAV 函数  *8 ]  
样本格式    : 44.100 Hz; 16 Bit; 立体声 (7v`5|'0  
C%'eF`  
U3w*z6OG  
已抓取 CD 的 TOC q{.~=~  
y] ~X{v  
     音轨 |    起始    |    长度    |  起始扇区  |  结束扇区   ;}k_2mr~  
    -------------------------------------------- n]btazM{  
      1 |  0:00.00 |  8:02.27 |      0 |  36176 ..^,*  
      2 |  8:02.27 |  7:57.00 |  36177 |  71951 $E@ke:  
      3 | 15:59.27 |  9:13.00 |  71952 | 113426 yM34GS=,J  
      4 | 25:12.27 |  5:00.25 | 113427 | 135951 2qkC{klC^M  
      5 | 30:12.52 |  4:18.45 | 135952 | 155346 &nZ.$UK<  
ZZ6F0FLXJ  
Th*mm3D6  
范围状态及错误 Xq%!(YD|  
k4 %> F  
已选择范围 gM3gc;  
K#{E87G(  
     文件名 J:\12 Music*音乐\1997 HIStory/Ghosts [CD2] (UK - 664796 5) 5''\CDImage.wav  ?hpk)Qu  
H\!u5o&}`  
     峰值电平 98.8 % `+/[0B=.  
     抓取速度 5.6 X `o*g2fW!  
     范围质量 100.0 % ]R{=|  
     复制 CRC 9B802D1E I@q>ES!1H  
     复制成功 i&FC-{|Z  
9tC8|~Q  
没有错误发生 Xl*-A|:j  
$Y0bjS2J  
+CNRSq"  
AccurateRip 摘要 ~K],hi^<P  
JnY3]  
音轨  1  精确地校准抓取  2)  [58E14004]  (AR v2) c)E[K-u  
音轨  2  精确地校准抓取  2)  [FBD994EB]  (AR v2) |I+E`,n"b  
音轨  3  精确地校准抓取  2)  [BECFF04B]  (AR v2) NV-9C$<n2!  
音轨  4  精确地校准抓取  2)  [5DF21E3A]  (AR v2) W@$p'IBwm  
音轨  5  精确地校准抓取  2)  [5DAF62B0]  (AR v2) @7^#_772  
= xX^  
所有音轨精确校准抓取 mQs'2Y6Oa  
$=m17GD  
状态报告结尾
/?XfVhA:A  
\]ODpi 2  
链接:http://pan.baidu.com/s/1i4XjZc5 密码: QT&{M #Ydn  
此帖售价 10 金钱,已有 15 人购买 [记录] [购买]
购买后,将显示帖子中所有出售内容。
若发现会员采用欺骗的方法获取财富,请立刻举报,我们会对会员处以2-N倍的罚金,严重者封掉ID!
此段为出售的内容,购买后显示

发帖
482
金钱
13869
威望
35
贡献值
13
交易币
535
只看该作者 1楼 发表于: 2017-01-03
又是压缩包吗?
离线小李

发帖
240
金钱
1125
威望
9
贡献值
8
交易币
212
只看该作者 2楼 发表于: 2017-01-03
谢谢 分享.....
离线Moses

发帖
5062
金钱
37320
威望
2951
贡献值
1521
交易币
2748
只看该作者 3楼 发表于: 2017-01-03
那个器乐版听过 很古怪的混音
http://blog.sina.com.cn/mjjcfc
离线魏聪

发帖
168
金钱
2713
威望
41
贡献值
21
交易币
103
只看该作者 4楼 发表于: 2017-01-03
谢谢分享。
离线wannam

发帖
2703
金钱
87101
威望
382
贡献值
189
交易币
3346
只看该作者 5楼 发表于: 2017-01-03
楼主收了好多CD 啊,谢谢分享!
离线小杰克逊

发帖
1597
金钱
5567
威望
883
贡献值
994
交易币
707
只看该作者 6楼 发表于: 2017-01-04
谢谢幽灵兄
http://gcb918.taobao.com/
离线marlene55555

发帖
1165
金钱
34275
威望
293
贡献值
98
交易币
1341
只看该作者 7楼 发表于: 2017-01-04
好一个历史混 O(∩_∩)O哈哈~

发帖
2767
金钱
30998
威望
622
贡献值
39
交易币
428
只看该作者 8楼 发表于: 2017-01-05
感谢分享。

离线lifan_npl

发帖
2224
金钱
31752
威望
853
贡献值
430
交易币
2605
只看该作者 9楼 发表于: 2017-01-05
谢谢幽灵分享,辛苦了
我的淘宝店:
http://shop63152617.taobao.com  
快速回复
限100 字节
 
上一个 下一个