论坛风格切换切换到宽版
  • 345阅读
  • 12回复

[亲传][Single] 1997 HIStory/Ghosts [CD2] (UK - 664796 5) - WAV整轨 ♬by幽灵 [复制链接]

上一主题 下一主题
离线mjghosts
 

发帖
8195
金钱
205476
威望
9035
贡献值
2641
交易币
4554
只看楼主 倒序阅读 楼主  发表于: 01-03
— 本帖被 mjghosts 执行加亮操作(2017-01-03) —
*1997英国发行单曲CD2,封面有别于CD1 ,直接以《HIStory》命名,顾名思义全为HIStory的混音,完美精确校准抓轨! NMkP#s7.y  
]H/,Q6Q  
注:独家整理,转载请注明出处!EAC无损整轨(压缩包内含CD图片) &4OJJ9S  
G u`xJ  
解压密码:www.mjsunny.com
+'m9b7+v  
iM8Cw/DS  
Tracklist % f;v$rsZ  
1 HIStory (Tony Moran's HIStory Lesson) 8:00 3N >V sl  
2 HIStory (Tony Moran's Historical Dub) 7:56 % i?  
3 HIStory (Mark!'s Vocal Club Mix) 9:10 9po=[{Bp  
4 HIStory (The Ummah Radio Mix) 4:59 76T7<.S  
5 HIStory (The Ummah Urban Mix) 4:19 _7N?R0j^9N  
">7xSWR*4  
;^:8F  
;8#6da,  
JA{kifu0+  
;r2DQg"#@  
y a$yRsd`  
Exact Audio Copy V1.0 beta 6 from 9. April 2015 pej-W/R&  
4r;le5@  
EAC 抓取日志文件从23. 十一月 2016, 2:10 mmwc'-jU:  
2KXF XR  
Michael Jackson / History (CD2) [UK] [W$x5|Z}Q  
YeJTB}  
使用驱动器  :MATSHITADVD-RAM UJ890AS   Adapter: 1  ID: 1 8F\'? 7  
&hVf=We  
读取模式      : 可靠Secure W SvhC  
使用精确流     : 是 11S{XbU  
清空音频缓存    : 否 1OY 5tq  
使用 C2 指示器 : 是 =s AOWI,8!  
H5vg s2R  
读取偏移校正:               : 102 "@+Z1k-8U  
读取 Lead-In 和 Lead-Out : 否 \Pfm>$Ib=  
用静音填充抓取中丢失偏移的采样       : 是  1A]   
去除首尾静音块               : 否 !y1qd  
在CRC 计算中使用了空样本       : 是 j%S} T)pX  
已用接口                  : Win NT 及 2000 本地 Win32 接口 [2!?pVI  
~!fOl)F  
所用输出模式: : 内部 WAV 函数 K?S5C8  
样本格式    : 44.100 Hz; 16 Bit; 立体声 |@D%y&  
aH$DEs  
f2P2wt.$  
已抓取 CD 的 TOC .L3D]  
I!p[:.t7  
     音轨 |    起始    |    长度    |  起始扇区  |  结束扇区   DvBRK}'  
    -------------------------------------------- )K 0rPnYV  
      1 |  0:00.00 |  8:02.27 |      0 |  36176 *edhJUT  
      2 |  8:02.27 |  7:57.00 |  36177 |  71951 FHyyZ{"  
      3 | 15:59.27 |  9:13.00 |  71952 | 113426 =(as{,j  
      4 | 25:12.27 |  5:00.25 | 113427 | 135951 X=X  
      5 | 30:12.52 |  4:18.45 | 135952 | 155346 iy,jq5uw  
05[k@f$n  
!Im{-t  
范围状态及错误 s% (|z  
|7E1yu  
已选择范围 ]c$)0O\O  
l]__!X  
     文件名 J:\12 Music*音乐\1997 HIStory/Ghosts [CD2] (UK - 664796 5) 5''\CDImage.wav GUdVsZjz(  
)i*-j =  
     峰值电平 98.8 % B|6_4ry0U  
     抓取速度 5.6 X 3=xN)j#B  
     范围质量 100.0 % 7xy[;  
     复制 CRC 9B802D1E ntt:>j$  
     复制成功 )xj!7:n)  
r*XEne  
没有错误发生 ?0k4l8R  
we;QrS(Hi  
f?|cQ[#t!\  
AccurateRip 摘要 r\DA&b  
rf]'V Jg#3  
音轨  1  精确地校准抓取  2)  [58E14004]  (AR v2) C3>`e3v  
音轨  2  精确地校准抓取  2)  [FBD994EB]  (AR v2) 0$A7"^]  
音轨  3  精确地校准抓取  2)  [BECFF04B]  (AR v2) Hm*?<o9mxC  
音轨  4  精确地校准抓取  2)  [5DF21E3A]  (AR v2) C.Ty\@U  
音轨  5  精确地校准抓取  2)  [5DAF62B0]  (AR v2) $++SF)G1]_  
D3xyJ  
所有音轨精确校准抓取 +4]31d&3  
nkii0YB!  
状态报告结尾
0AWOdd>.  
tVFydN~  
链接:http://pan.baidu.com/s/1i4XjZc5 密码: c|KN@)A  
此帖售价 10 金钱,已有 10 人购买 [记录] [购买]
购买后,将显示帖子中所有出售内容。
若发现会员采用欺骗的方法获取财富,请立刻举报,我们会对会员处以2-N倍的罚金,严重者封掉ID!
此段为出售的内容,购买后显示

发帖
420
金钱
14166
威望
34
贡献值
13
交易币
473
只看该作者 1楼 发表于: 01-03
又是压缩包吗?
离线小李

发帖
202
金钱
182
威望
98
贡献值
7
交易币
170
只看该作者 2楼 发表于: 01-03
谢谢 分享.....
离线Moses

发帖
5016
金钱
37090
威望
2951
贡献值
1521
交易币
2702
只看该作者 3楼 发表于: 01-03
那个器乐版听过 很古怪的混音
离线魏聪

发帖
159
金钱
2897
威望
41
贡献值
21
交易币
94
只看该作者 4楼 发表于: 01-03
谢谢分享。
离线wannam

发帖
2606
金钱
80603
威望
363
贡献值
169
交易币
3249
只看该作者 5楼 发表于: 01-03
楼主收了好多CD 啊,谢谢分享!
离线小杰克逊

发帖
1550
金钱
1154
威望
883
贡献值
994
交易币
660
只看该作者 6楼 发表于: 01-04
谢谢幽灵兄
http://gcb918.taobao.com/
离线marlene55555

发帖
1161
金钱
34311
威望
293
贡献值
98
交易币
1337
只看该作者 7楼 发表于: 01-04
好一个历史混 O(∩_∩)O哈哈~

发帖
2632
金钱
28152
威望
616
贡献值
33
交易币
269
只看该作者 8楼 发表于: 01-05
感谢分享。

离线lifan_npl

发帖
2063
金钱
18206
威望
777
贡献值
337
交易币
2416
只看该作者 9楼 发表于: 01-05
谢谢幽灵分享,辛苦了
我的淘宝:
http://shop63152617.taobao.com  
快速回复
限100 字节
 
上一个 下一个