论坛风格切换切换到宽版
  • 548阅读
  • 13回复

[亲传][Single] 1997 HIStory/Ghosts [CD2] (UK - 664796 5) - WAV整轨 ♬by幽灵 [复制链接]

上一主题 下一主题
离线mjghosts
 

发帖
8247
金钱
210503
威望
9164
贡献值
2715
交易币
4698
只看楼主 倒序阅读 楼主  发表于: 01-03
— 本帖被 mjghosts 执行加亮操作(2017-01-03) —
*1997英国发行单曲CD2,封面有别于CD1 ,直接以《HIStory》命名,顾名思义全为HIStory的混音,完美精确校准抓轨! =smY/q^3  
P9cI{RI  
注:独家整理,转载请注明出处!EAC无损整轨(压缩包内含CD图片) c94PWPU  
.BTT*vL-  
解压密码:www.mjsunny.com
N P(?[W  
"_}D{ws1  
Tracklist <iqyDPj  
1 HIStory (Tony Moran's HIStory Lesson) 8:00  } R6h  
2 HIStory (Tony Moran's Historical Dub) 7:56 WU@,1.F:  
3 HIStory (Mark!'s Vocal Club Mix) 9:10 |0%UM}  
4 HIStory (The Ummah Radio Mix) 4:59 g >oLc6T  
5 HIStory (The Ummah Urban Mix) 4:19 '>$A7  
B!anY}/U  
Kwnu|8  
4|thDb)]  
@pz2}Hd |  
}Of^Y@{q.  
l ki(_ @3  
Exact Audio Copy V1.0 beta 6 from 9. April 2015 <:w7^m  
[0 $Y@ek[  
EAC 抓取日志文件从23. 十一月 2016, 2:10 1{*x+GC^/  
*m7e>]-  
Michael Jackson / History (CD2) [UK] 0o#lB^e;l  
N.fIg  
使用驱动器  :MATSHITADVD-RAM UJ890AS   Adapter: 1  ID: 1 u`ZnxD>  
bv+PbK]iO  
读取模式      : 可靠Secure _H-Lt{k  
使用精确流     : 是 !$O +M#  
清空音频缓存    : 否 RSp=If+4  
使用 C2 指示器 : 是 RxAZ<8T_  
Y M5;mPR  
读取偏移校正:               : 102 Mq-;sPsFP  
读取 Lead-In 和 Lead-Out : 否 emTqbO  
用静音填充抓取中丢失偏移的采样       : 是 =ove#3  
去除首尾静音块               : 否 &kh-2#E  
在CRC 计算中使用了空样本       : 是 xM[m(m  
已用接口                  : Win NT 及 2000 本地 Win32 接口 ]5wc8Kh"  
(V#5Cs,o:  
所用输出模式: : 内部 WAV 函数 Dz8)u:vRS  
样本格式    : 44.100 Hz; 16 Bit; 立体声 g6MK~JG$?h  
:hC+r=!I  
CKCot  
已抓取 CD 的 TOC C8ek{o)%W  
DxoW,G W  
     音轨 |    起始    |    长度    |  起始扇区  |  结束扇区   ozB2L\D7  
    -------------------------------------------- 4h~CDy%_  
      1 |  0:00.00 |  8:02.27 |      0 |  36176 07b =Zhh  
      2 |  8:02.27 |  7:57.00 |  36177 |  71951 owQSy9Az  
      3 | 15:59.27 |  9:13.00 |  71952 | 113426 gv\WI4"n  
      4 | 25:12.27 |  5:00.25 | 113427 | 135951 |r['"6  
      5 | 30:12.52 |  4:18.45 | 135952 | 155346 y90wL U9f  
4g+Dp&U  
qf T71o(  
范围状态及错误 iVT)V>Up  
B_mT[)ut  
已选择范围 3!M|Sf<s  
"O~7s}  
     文件名 J:\12 Music*音乐\1997 HIStory/Ghosts [CD2] (UK - 664796 5) 5''\CDImage.wav m`BE{%  
xL [3R   
     峰值电平 98.8 % Fe1XczB  
     抓取速度 5.6 X `*WzHDv5p  
     范围质量 100.0 % f cnv[B..{  
     复制 CRC 9B802D1E +,]_TxL|C  
     复制成功 kho$At)V  
; GEr8_7  
没有错误发生 y[ZVi5) ,  
2 ?F?C  
wbB\~*Z)  
AccurateRip 摘要 Ap~6Vu  
OaKr_m  
音轨  1  精确地校准抓取  2)  [58E14004]  (AR v2) liBFx6\"S  
音轨  2  精确地校准抓取  2)  [FBD994EB]  (AR v2) _FU}IfG>t  
音轨  3  精确地校准抓取  2)  [BECFF04B]  (AR v2) ]@m`bs_6  
音轨  4  精确地校准抓取  2)  [5DF21E3A]  (AR v2) _q4Yq'dI  
音轨  5  精确地校准抓取  2)  [5DAF62B0]  (AR v2) ^A=2#j~H\  
nt@uVwfQ  
所有音轨精确校准抓取 Ce~Pms]  
;X:Bh8tEV  
状态报告结尾
0d$LUQ't  
g-H,*^g+  
链接:http://pan.baidu.com/s/1i4XjZc5 密码: @V&HE:P  
此帖售价 10 金钱,已有 11 人购买 [记录] [购买]
购买后,将显示帖子中所有出售内容。
若发现会员采用欺骗的方法获取财富,请立刻举报,我们会对会员处以2-N倍的罚金,严重者封掉ID!
此段为出售的内容,购买后显示

发帖
447
金钱
14029
威望
34
贡献值
13
交易币
500
只看该作者 1楼 发表于: 01-03
又是压缩包吗?
离线小李

发帖
218
金钱
132
威望
98
贡献值
7
交易币
186
只看该作者 2楼 发表于: 01-03
谢谢 分享.....
离线Moses

发帖
5056
金钱
37290
威望
2951
贡献值
1521
交易币
2742
只看该作者 3楼 发表于: 01-03
那个器乐版听过 很古怪的混音
http://blog.sina.com.cn/mjjcfc
离线魏聪

发帖
159
金钱
2897
威望
41
贡献值
21
交易币
94
只看该作者 4楼 发表于: 01-03
谢谢分享。
离线wannam

发帖
2697
金钱
86875
威望
382
贡献值
189
交易币
3340
只看该作者 5楼 发表于: 01-03
楼主收了好多CD 啊,谢谢分享!
离线小杰克逊

发帖
1588
金钱
5953
威望
883
贡献值
994
交易币
698
只看该作者 6楼 发表于: 01-04
谢谢幽灵兄
http://gcb918.taobao.com/
离线marlene55555

发帖
1161
金钱
34314
威望
293
贡献值
98
交易币
1337
只看该作者 7楼 发表于: 01-04
好一个历史混 O(∩_∩)O哈哈~

发帖
2658
金钱
28594
威望
617
贡献值
34
交易币
299
只看该作者 8楼 发表于: 01-05
感谢分享。

离线lifan_npl

发帖
2117
金钱
17682
威望
787
贡献值
347
交易币
2470
只看该作者 9楼 发表于: 01-05
谢谢幽灵分享,辛苦了
我的淘宝:
http://shop63152617.taobao.com  
快速回复
限100 字节
 
上一个 下一个