论坛风格切换切换到宽版
  • 895阅读
  • 14回复

[亲传][Single] 1997 HIStory/Ghosts [CD2] (UK - 664796 5) - WAV整轨 ♬by幽灵 [复制链接]

上一主题 下一主题
离线mjghosts
 

发帖
8240
金钱
216247
威望
9172
贡献值
2721
交易币
4743
只看楼主 倒序阅读 楼主  发表于: 2017-01-03
— 本帖被 mjghosts 执行加亮操作(2017-01-03) —
*1997英国发行单曲CD2,封面有别于CD1 ,直接以《HIStory》命名,顾名思义全为HIStory的混音,完美精确校准抓轨! Pq+|*Y<|&  
6 DQOar>d  
注:独家整理,转载请注明出处!EAC无损整轨(压缩包内含CD图片) {91Y;p C  
&J/!D#  
解压密码:www.mjsunny.com
_"Y7}A\9  
_`=qc/-0  
Tracklist 2UYtEJ(?`{  
1 HIStory (Tony Moran's HIStory Lesson) 8:00 Iw[zN[oz  
2 HIStory (Tony Moran's Historical Dub) 7:56 ES,JdImZ|  
3 HIStory (Mark!'s Vocal Club Mix) 9:10 ;FwUUKj  
4 HIStory (The Ummah Radio Mix) 4:59 EK>x\]O%T  
5 HIStory (The Ummah Urban Mix) 4:19 ?8grK  
Ye|gW=FUR  
~g[D!HV|yu  
u$nmnd`g  
E}w5.1  
56c3tgVF  
:O,,fJ<x.O  
Exact Audio Copy V1.0 beta 6 from 9. April 2015 #Sy~t{4  
`K$;K8!1  
EAC 抓取日志文件从23. 十一月 2016, 2:10 Kzt:rhiB  
C2iOF/4  
Michael Jackson / History (CD2) [UK] us8ce+  
5M8   
使用驱动器  :MATSHITADVD-RAM UJ890AS   Adapter: 1  ID: 1 {c1wJ  
T sJ71  
读取模式      : 可靠Secure ]/R>nT  
使用精确流     : 是 0eCjK.   
清空音频缓存    : 否 zb9vUxN [  
使用 C2 指示器 : 是 Uzn  
wz:w6q  
读取偏移校正:               : 102 sg]g;U  
读取 Lead-In 和 Lead-Out : 否 M?$tHA~OX  
用静音填充抓取中丢失偏移的采样       : 是 =4x-x nA  
去除首尾静音块               : 否 RQn3y-N]  
在CRC 计算中使用了空样本       : 是 tkix@Q!;\  
已用接口                  : Win NT 及 2000 本地 Win32 接口 klj.\wg/p{  
kZ 9n@($B  
所用输出模式: : 内部 WAV 函数 yj`xOncE}  
样本格式    : 44.100 Hz; 16 Bit; 立体声 0h2MmI#  
]jJ4\O`  
[6Nzz]yy  
已抓取 CD 的 TOC ^TY8,qDA  
2HvzMo-4  
     音轨 |    起始    |    长度    |  起始扇区  |  结束扇区   e?b<-rL   
    -------------------------------------------- 6NqLo^ "g  
      1 |  0:00.00 |  8:02.27 |      0 |  36176 Z$a4@W9o  
      2 |  8:02.27 |  7:57.00 |  36177 |  71951 rO{"jJ  
      3 | 15:59.27 |  9:13.00 |  71952 | 113426 ?rH=<#@  
      4 | 25:12.27 |  5:00.25 | 113427 | 135951 84dej<   
      5 | 30:12.52 |  4:18.45 | 135952 | 155346 QCWk[Gx  
$$G^#t1=XZ  
k||DcwO  
范围状态及错误  goT:\2  
,Pd2ZfZ  
已选择范围 \:?H_^^ d  
w,.Hdd6  
     文件名 J:\12 Music*音乐\1997 HIStory/Ghosts [CD2] (UK - 664796 5) 5''\CDImage.wav n1W}h@>8  
':w6 {b  
     峰值电平 98.8 % HF\L`dJX?  
     抓取速度 5.6 X  . yu  
     范围质量 100.0 % +o/;bm*U<K  
     复制 CRC 9B802D1E XfsCu>  
     复制成功 <$njU=YE&  
nhCB ])u8l  
没有错误发生 ($W9 ?  
  6^: l  
3^su%z_%  
AccurateRip 摘要 {Ue6DK %  
dadMwe_l0  
音轨  1  精确地校准抓取  2)  [58E14004]  (AR v2) t583Q/1@  
音轨  2  精确地校准抓取  2)  [FBD994EB]  (AR v2) 2iG(v._x  
音轨  3  精确地校准抓取  2)  [BECFF04B]  (AR v2) Nm081ic2<  
音轨  4  精确地校准抓取  2)  [5DF21E3A]  (AR v2) (7wR*vO^  
音轨  5  精确地校准抓取  2)  [5DAF62B0]  (AR v2) `i:0dVs  
\9?<E[  
所有音轨精确校准抓取 '_<`dzz  
Zs{R O  
状态报告结尾
&aQ)x   
y m{/0&7  
链接:http://pan.baidu.com/s/1i4XjZc5 密码: e;'T?&t  
此帖售价 10 金钱,已有 13 人购买 [记录] [购买]
购买后,将显示帖子中所有出售内容。
若发现会员采用欺骗的方法获取财富,请立刻举报,我们会对会员处以2-N倍的罚金,严重者封掉ID!
此段为出售的内容,购买后显示

发帖
477
金钱
13879
威望
35
贡献值
13
交易币
530
只看该作者 1楼 发表于: 2017-01-03
又是压缩包吗?
离线小李

发帖
232
金钱
230
威望
99
贡献值
8
交易币
204
只看该作者 2楼 发表于: 2017-01-03
谢谢 分享.....
离线Moses

发帖
5059
金钱
37305
威望
2951
贡献值
1521
交易币
2745
只看该作者 3楼 发表于: 2017-01-03
那个器乐版听过 很古怪的混音
http://blog.sina.com.cn/mjjcfc
离线魏聪

发帖
168
金钱
2713
威望
41
贡献值
21
交易币
103
只看该作者 4楼 发表于: 2017-01-03
谢谢分享。
离线wannam

发帖
2701
金钱
86995
威望
382
贡献值
189
交易币
3344
只看该作者 5楼 发表于: 2017-01-03
楼主收了好多CD 啊,谢谢分享!
离线小杰克逊

发帖
1592
金钱
5626
威望
883
贡献值
994
交易币
702
只看该作者 6楼 发表于: 2017-01-04
谢谢幽灵兄
http://gcb918.taobao.com/
离线marlene55555

发帖
1165
金钱
34275
威望
293
贡献值
98
交易币
1341
只看该作者 7楼 发表于: 2017-01-04
好一个历史混 O(∩_∩)O哈哈~

发帖
2729
金钱
31485
威望
620
贡献值
37
交易币
382
只看该作者 8楼 发表于: 2017-01-05
感谢分享。

离线lifan_npl

发帖
2173
金钱
16819
威望
782
贡献值
347
交易币
2526
只看该作者 9楼 发表于: 2017-01-05
谢谢幽灵分享,辛苦了
我的淘宝:
http://shop63152617.taobao.com  
快速回复
限100 字节
 
上一个 下一个