论坛风格切换切换到宽版
  • 1189阅读
  • 15回复

[亲传][Single] 1997 HIStory/Ghosts [CD2] (UK - 664796 5) - WAV整轨 ♬by幽灵 [复制链接]

上一主题 下一主题
离线mjghosts
 

发帖
8251
金钱
218537
威望
9176
贡献值
2723
交易币
4762
只看楼主 倒序阅读 楼主  发表于: 2017-01-03
— 本帖被 mjghosts 执行加亮操作(2017-01-03) —
*1997英国发行单曲CD2,封面有别于CD1 ,直接以《HIStory》命名,顾名思义全为HIStory的混音,完美精确校准抓轨! ! n13B  
5e}adHjM  
注:独家整理,转载请注明出处!EAC无损整轨(压缩包内含CD图片) ~ NZC0&  
$@^*lUw  
解压密码:www.mjsunny.com
-"uOh,G}  
5/YGu=,  
Tracklist IF'Tj`yD  
1 HIStory (Tony Moran's HIStory Lesson) 8:00 JBk >|q"  
2 HIStory (Tony Moran's Historical Dub) 7:56  BDfJ  
3 HIStory (Mark!'s Vocal Club Mix) 9:10 eY\w ?pT2  
4 HIStory (The Ummah Radio Mix) 4:59 TY;%nT  
5 HIStory (The Ummah Urban Mix) 4:19 @id!F<+%oD  
2$TwD*[  
-BcnJK0  
A9Icn>3?`(  
08G${@D+X0  
L(o#)I>j  
Zk~~`h  
Exact Audio Copy V1.0 beta 6 from 9. April 2015 }'`}| pM$  
@Y !Jm  
EAC 抓取日志文件从23. 十一月 2016, 2:10 EGVS8YP>h  
sA2esA@C<o  
Michael Jackson / History (CD2) [UK] &} r-C97  
G@P+M1c  
使用驱动器  :MATSHITADVD-RAM UJ890AS   Adapter: 1  ID: 1 |[!7^tU*  
~9Qd83`UH  
读取模式      : 可靠Secure y({lE3P  
使用精确流     : 是 9Ed=`c  
清空音频缓存    : 否 vj9'5]!~q  
使用 C2 指示器 : 是 W`uq,r0Xsy  
rvuasr~  
读取偏移校正:               : 102 {r%T_BfY  
读取 Lead-In 和 Lead-Out : 否 DE+k'8\T  
用静音填充抓取中丢失偏移的采样       : 是 Jl<pWjkZZ  
去除首尾静音块               : 否 &"( zK"O  
在CRC 计算中使用了空样本       : 是 $[ oRbH8g  
已用接口                  : Win NT 及 2000 本地 Win32 接口 YJ|U| [  
wjXv{EsMq  
所用输出模式: : 内部 WAV 函数 U/-k'6=M  
样本格式    : 44.100 Hz; 16 Bit; 立体声 m d `=2l  
Yv.7-DHNl  
qh+&Zx~  
已抓取 CD 的 TOC a$\ Bt_  
AH-BZ8  
     音轨 |    起始    |    长度    |  起始扇区  |  结束扇区   `O5427Im  
    -------------------------------------------- OZA^L;#>  
      1 |  0:00.00 |  8:02.27 |      0 |  36176 [^W +^3V  
      2 |  8:02.27 |  7:57.00 |  36177 |  71951 T;]Ob3(BpW  
      3 | 15:59.27 |  9:13.00 |  71952 | 113426 b +Z/nfS  
      4 | 25:12.27 |  5:00.25 | 113427 | 135951 o=6 <?v7  
      5 | 30:12.52 |  4:18.45 | 135952 | 155346 X`J86G)  
HYL['B?Wid  
v!$:t<-5N  
范围状态及错误 J~n|5* cz  
nSRNd A  
已选择范围 T Y% =Y=  
4oL .Bt  
     文件名 J:\12 Music*音乐\1997 HIStory/Ghosts [CD2] (UK - 664796 5) 5''\CDImage.wav Lz!JLiMEET  
PT }J.Dwx  
     峰值电平 98.8 % v*&j A 8D  
     抓取速度 5.6 X c2Exga_  
     范围质量 100.0 % | KY-kRN7  
     复制 CRC 9B802D1E ANJL8t-m  
     复制成功 8&nb@l  
;mRZ_^V;  
没有错误发生 ^d@2Y0hH  
^B%c3U$o  
*X{7m]5  
AccurateRip 摘要 N&eo;Ti  
=@S a\;  
音轨  1  精确地校准抓取  2)  [58E14004]  (AR v2) cy)-Rfg  
音轨  2  精确地校准抓取  2)  [FBD994EB]  (AR v2) ^#Mp@HK  
音轨  3  精确地校准抓取  2)  [BECFF04B]  (AR v2) '2hy%  
音轨  4  精确地校准抓取  2)  [5DF21E3A]  (AR v2) em5~4;&'  
音轨  5  精确地校准抓取  2)  [5DAF62B0]  (AR v2) ;obOr~Jx'5  
y:^o ._  
所有音轨精确校准抓取 ^yqRa&  
(z.n9lkfi  
状态报告结尾
x0jaTlU/  
2K{'F1"RM  
链接:http://pan.baidu.com/s/1i4XjZc5 密码: ^1vKhO+p$  
此帖售价 10 金钱,已有 14 人购买 [记录] [购买]
购买后,将显示帖子中所有出售内容。
若发现会员采用欺骗的方法获取财富,请立刻举报,我们会对会员处以2-N倍的罚金,严重者封掉ID!
此段为出售的内容,购买后显示

发帖
481
金钱
13861
威望
35
贡献值
13
交易币
534
只看该作者 1楼 发表于: 2017-01-03
又是压缩包吗?
离线小李

发帖
238
金钱
1115
威望
9
贡献值
8
交易币
210
只看该作者 2楼 发表于: 2017-01-03
谢谢 分享.....
离线Moses

发帖
5062
金钱
37320
威望
2951
贡献值
1521
交易币
2748
只看该作者 3楼 发表于: 2017-01-03
那个器乐版听过 很古怪的混音
http://blog.sina.com.cn/mjjcfc
离线魏聪

发帖
168
金钱
2713
威望
41
贡献值
21
交易币
103
只看该作者 4楼 发表于: 2017-01-03
谢谢分享。
离线wannam

发帖
2702
金钱
87018
威望
382
贡献值
189
交易币
3345
只看该作者 5楼 发表于: 2017-01-03
楼主收了好多CD 啊,谢谢分享!
离线小杰克逊

发帖
1594
金钱
5583
威望
883
贡献值
994
交易币
704
只看该作者 6楼 发表于: 2017-01-04
谢谢幽灵兄
http://gcb918.taobao.com/
离线marlene55555

发帖
1165
金钱
34275
威望
293
贡献值
98
交易币
1341
只看该作者 7楼 发表于: 2017-01-04
好一个历史混 O(∩_∩)O哈哈~

发帖
2740
金钱
30927
威望
620
贡献值
37
交易币
393
只看该作者 8楼 发表于: 2017-01-05
感谢分享。

离线lifan_npl

发帖
2196
金钱
31917
威望
851
贡献值
428
交易币
2569
只看该作者 9楼 发表于: 2017-01-05
谢谢幽灵分享,辛苦了
我的淘宝:
http://shop63152617.taobao.com  
快速回复
限100 字节
 
上一个 下一个