论坛风格切换切换到宽版
  • 423阅读
  • 12回复

[亲传][Single] 1997 HIStory/Ghosts [CD2] (UK - 664796 5) - WAV整轨 ♬by幽灵 [复制链接]

上一主题 下一主题
离线mjghosts
 

发帖
8233
金钱
208923
威望
9161
贡献值
2712
交易币
4672
只看楼主 倒序阅读 楼主  发表于: 01-03
— 本帖被 mjghosts 执行加亮操作(2017-01-03) —
*1997英国发行单曲CD2,封面有别于CD1 ,直接以《HIStory》命名,顾名思义全为HIStory的混音,完美精确校准抓轨! ~-'nEATE  
#l{qb]n]  
注:独家整理,转载请注明出处!EAC无损整轨(压缩包内含CD图片) CX\# |Q8q  
#J1a `}x  
解压密码:www.mjsunny.com
>&Bg F*mm  
?XW+&!ar  
Tracklist -u)06C*39  
1 HIStory (Tony Moran's HIStory Lesson) 8:00 GRlA 9Q  
2 HIStory (Tony Moran's Historical Dub) 7:56 N[r@Y{  
3 HIStory (Mark!'s Vocal Club Mix) 9:10 &S c0l/  
4 HIStory (The Ummah Radio Mix) 4:59 -XD\,y%zi  
5 HIStory (The Ummah Urban Mix) 4:19 a08B8  
PP$Ig2Q  
<}.)kg${O  
/`2VJw  
)pJ}o&J  
WV?iYX!  
("mW=Ln  
Exact Audio Copy V1.0 beta 6 from 9. April 2015 O(WFjmHx  
$W` &7  
EAC 抓取日志文件从23. 十一月 2016, 2:10 zz02F+H$Y  
0@3g'TGl  
Michael Jackson / History (CD2) [UK] Fd|:7NRA<  
VO++(G)  
使用驱动器  :MATSHITADVD-RAM UJ890AS   Adapter: 1  ID: 1 .%~ L  
:gQc@)jZ(*  
读取模式      : 可靠Secure /R@(yT=t  
使用精确流     : 是 )Tb{O  
清空音频缓存    : 否 {n.g7S~  
使用 C2 指示器 : 是 ojyG|Y  
P[gk9{sv  
读取偏移校正:               : 102 T 0^U ]C  
读取 Lead-In 和 Lead-Out : 否 bh+R9~  
用静音填充抓取中丢失偏移的采样       : 是 frGUT#9?n  
去除首尾静音块               : 否 fI"`[cA"]  
在CRC 计算中使用了空样本       : 是 fI}-?@  
已用接口                  : Win NT 及 2000 本地 Win32 接口 ~Bu~?ZJmd  
p8F|]6Z  
所用输出模式: : 内部 WAV 函数 &dOV0y_  
样本格式    : 44.100 Hz; 16 Bit; 立体声 1b_ ->_9  
urtcSq&H'  
U?>zq!C&R  
已抓取 CD 的 TOC %81tVhg  
EH,uX{`e  
     音轨 |    起始    |    长度    |  起始扇区  |  结束扇区   );,#H`'  
    -------------------------------------------- _@"Y3Lqi  
      1 |  0:00.00 |  8:02.27 |      0 |  36176 czHO)uQ?d`  
      2 |  8:02.27 |  7:57.00 |  36177 |  71951 c 6?5?_ne  
      3 | 15:59.27 |  9:13.00 |  71952 | 113426 ?]P&3UU>0z  
      4 | 25:12.27 |  5:00.25 | 113427 | 135951 m6 IZG l7%  
      5 | 30:12.52 |  4:18.45 | 135952 | 155346 KNK0w5  
- iJ[9O  
Hq%`DWus\  
范围状态及错误 4!monaB"e  
<p<gx*%  
已选择范围 uF< F4m;  
@<w$QD  
     文件名 J:\12 Music*音乐\1997 HIStory/Ghosts [CD2] (UK - 664796 5) 5''\CDImage.wav ^ 0TJys%  
*^NC5=A(d  
     峰值电平 98.8 % $?'z%a{  
     抓取速度 5.6 X np)-Yzr  
     范围质量 100.0 % 3S.rIai+  
     复制 CRC 9B802D1E vK$T$SL  
     复制成功 os#j;C]l  
~v<r\8`OI2  
没有错误发生 5V%K'a(  
}TYCF@  
Y6g[y\*t  
AccurateRip 摘要 JU"!qXQr  
d5bj$oH  
音轨  1  精确地校准抓取  2)  [58E14004]  (AR v2) 7p2x}[ .\  
音轨  2  精确地校准抓取  2)  [FBD994EB]  (AR v2) >.M `Fz.  
音轨  3  精确地校准抓取  2)  [BECFF04B]  (AR v2) x}F.<`  
音轨  4  精确地校准抓取  2)  [5DF21E3A]  (AR v2) } #%sI"9  
音轨  5  精确地校准抓取  2)  [5DAF62B0]  (AR v2) @dcW0WQ\  
)vy<q/o+  
所有音轨精确校准抓取 l65'EO|  
y(N-1  
状态报告结尾
z.[L1AGa|s  
n>iPA D  
链接:http://pan.baidu.com/s/1i4XjZc5 密码: u1nv'\*  
此帖售价 10 金钱,已有 10 人购买 [记录] [购买]
购买后,将显示帖子中所有出售内容。
若发现会员采用欺骗的方法获取财富,请立刻举报,我们会对会员处以2-N倍的罚金,严重者封掉ID!
此段为出售的内容,购买后显示

发帖
429
金钱
14185
威望
34
贡献值
13
交易币
482
只看该作者 1楼 发表于: 01-03
又是压缩包吗?
离线小李

发帖
207
金钱
182
威望
98
贡献值
7
交易币
175
只看该作者 2楼 发表于: 01-03
谢谢 分享.....
离线Moses

发帖
5027
金钱
37145
威望
2951
贡献值
1521
交易币
2713
只看该作者 3楼 发表于: 01-03
那个器乐版听过 很古怪的混音
离线魏聪

发帖
159
金钱
2897
威望
41
贡献值
21
交易币
94
只看该作者 4楼 发表于: 01-03
谢谢分享。
离线wannam

发帖
2680
金钱
86709
威望
382
贡献值
189
交易币
3323
只看该作者 5楼 发表于: 01-03
楼主收了好多CD 啊,谢谢分享!
离线小杰克逊

发帖
1583
金钱
1002
威望
883
贡献值
994
交易币
693
只看该作者 6楼 发表于: 01-04
谢谢幽灵兄
http://gcb918.taobao.com/
离线marlene55555

发帖
1161
金钱
34314
威望
293
贡献值
98
交易币
1337
只看该作者 7楼 发表于: 01-04
好一个历史混 O(∩_∩)O哈哈~

发帖
2650
金钱
28497
威望
617
贡献值
34
交易币
291
只看该作者 8楼 发表于: 01-05
感谢分享。

离线lifan_npl

发帖
2086
金钱
18040
威望
787
贡献值
347
交易币
2439
只看该作者 9楼 发表于: 01-05
谢谢幽灵分享,辛苦了
我的淘宝:
http://shop63152617.taobao.com  
快速回复
限100 字节
 
上一个 下一个