论坛风格切换切换到宽版
  • 1532阅读
  • 16回复

[亲传][Single] 1997 HIStory/Ghosts [CD2] (UK - 664796 5) - WAV整轨 ♬by幽灵 [复制链接]

上一主题 下一主题
离线mjghosts
 

发帖
8257
金钱
219515
威望
9187
贡献值
2734
交易币
4792
只看楼主 倒序阅读 楼主  发表于: 2017-01-03
— 本帖被 mjghosts 执行加亮操作(2017-01-03) —
*1997英国发行单曲CD2,封面有别于CD1 ,直接以《HIStory》命名,顾名思义全为HIStory的混音,完美精确校准抓轨! X#(?V[F]  
CJ&0<Z}{m  
注:独家整理,转载请注明出处!EAC无损整轨(压缩包内含CD图片) 0W9,uC2:N  
M=e]v9  
解压密码:www.mjsunny.com
[a 5L WW  
S[{#AX=0  
Tracklist :sFP{rFx~  
1 HIStory (Tony Moran's HIStory Lesson) 8:00 91r#lDR  
2 HIStory (Tony Moran's Historical Dub) 7:56 gc7S_D~;  
3 HIStory (Mark!'s Vocal Club Mix) 9:10 KDuM;  
4 HIStory (The Ummah Radio Mix) 4:59 &n6mXFF#>P  
5 HIStory (The Ummah Urban Mix) 4:19 "ZNiTND  
B[!wo  
|%g^6RN  
j Aw&5,  
v-3In\T=^  
KTD# a1W  
a=&a)FR  
Exact Audio Copy V1.0 beta 6 from 9. April 2015 8xs[{?|:  
Y'&A~/Adf  
EAC 抓取日志文件从23. 十一月 2016, 2:10 1D&Q{?RM  
<->Nex  
Michael Jackson / History (CD2) [UK] yjaX\Wb[z[  
`$\g8Mo  
使用驱动器  :MATSHITADVD-RAM UJ890AS   Adapter: 1  ID: 1 ;t{Ew+s  
q{HfT d  
读取模式      : 可靠Secure Fd*)1FQKT  
使用精确流     : 是 ` =g9Rg/<  
清空音频缓存    : 否 G.OAzA13!t  
使用 C2 指示器 : 是 47.c  
mD{<Lp=  
读取偏移校正:               : 102 6!bp;iLKy  
读取 Lead-In 和 Lead-Out : 否 P,r9  <  
用静音填充抓取中丢失偏移的采样       : 是 qP{S!Z(  
去除首尾静音块               : 否 64;F g/t  
在CRC 计算中使用了空样本       : 是 eIBHAdU+g/  
已用接口                  : Win NT 及 2000 本地 Win32 接口 7?a@i; E<  
m99j]w r~c  
所用输出模式: : 内部 WAV 函数 |M]#D0v  
样本格式    : 44.100 Hz; 16 Bit; 立体声 #U45;idp  
PhF.\W b  
 +]Ca_`  
已抓取 CD 的 TOC GyI(1O AW  
W/_=S+CvK  
     音轨 |    起始    |    长度    |  起始扇区  |  结束扇区   :K&>  
    -------------------------------------------- MG ,exN @  
      1 |  0:00.00 |  8:02.27 |      0 |  36176 O%?TxzX;  
      2 |  8:02.27 |  7:57.00 |  36177 |  71951 Z#7T!/28  
      3 | 15:59.27 |  9:13.00 |  71952 | 113426 mD }&X7  
      4 | 25:12.27 |  5:00.25 | 113427 | 135951 L B`=+FD  
      5 | 30:12.52 |  4:18.45 | 135952 | 155346 @ k+Z?Hp  
j" wX7  
Z9-HQ5>  
范围状态及错误 w)I!q&`Y  
@91Q=S  
已选择范围 4u5^I;4pL  
', -4o-  
     文件名 J:\12 Music*音乐\1997 HIStory/Ghosts [CD2] (UK - 664796 5) 5''\CDImage.wav I}oxwc  
W]|;ZzZ=m  
     峰值电平 98.8 % b~\gV_Z  
     抓取速度 5.6 X 6hKavzSi  
     范围质量 100.0 % e9r#r~Qq|  
     复制 CRC 9B802D1E xM85^B'  
     复制成功 (mXV5IM  
eN]0]9JO  
没有错误发生 fx|$(D@9  
Y<Y5HI"  
E@QsuS2&  
AccurateRip 摘要 F;yq/e#Q  
j<!rc>)2+L  
音轨  1  精确地校准抓取  2)  [58E14004]  (AR v2) 1fwCQM   
音轨  2  精确地校准抓取  2)  [FBD994EB]  (AR v2) `/ix[:}m^  
音轨  3  精确地校准抓取  2)  [BECFF04B]  (AR v2) ~Bn#A kL  
音轨  4  精确地校准抓取  2)  [5DF21E3A]  (AR v2) LKY4rY!|@d  
音轨  5  精确地校准抓取  2)  [5DAF62B0]  (AR v2) {c|nIwdB  
DIodQkF  
所有音轨精确校准抓取 P"W$ZX  
K^?yD   
状态报告结尾
\\ M2_mT  
sLzcTGa2:z  
链接:http://pan.baidu.com/s/1i4XjZc5 密码: &$jg *Kr  
此帖售价 10 金钱,已有 15 人购买 [记录] [购买]
购买后,将显示帖子中所有出售内容。
若发现会员采用欺骗的方法获取财富,请立刻举报,我们会对会员处以2-N倍的罚金,严重者封掉ID!
此段为出售的内容,购买后显示

发帖
482
金钱
13869
威望
35
贡献值
13
交易币
535
只看该作者 1楼 发表于: 2017-01-03
又是压缩包吗?
离线小李

发帖
240
金钱
1125
威望
9
贡献值
8
交易币
212
只看该作者 2楼 发表于: 2017-01-03
谢谢 分享.....
离线Moses

发帖
5062
金钱
37320
威望
2951
贡献值
1521
交易币
2748
只看该作者 3楼 发表于: 2017-01-03
那个器乐版听过 很古怪的混音
http://blog.sina.com.cn/mjjcfc
离线魏聪

发帖
168
金钱
2713
威望
41
贡献值
21
交易币
103
只看该作者 4楼 发表于: 2017-01-03
谢谢分享。
离线wannam

发帖
2703
金钱
87077
威望
382
贡献值
189
交易币
3346
只看该作者 5楼 发表于: 2017-01-03
楼主收了好多CD 啊,谢谢分享!
离线小杰克逊

发帖
1595
金钱
5582
威望
883
贡献值
994
交易币
705
只看该作者 6楼 发表于: 2017-01-04
谢谢幽灵兄
http://gcb918.taobao.com/
离线marlene55555

发帖
1165
金钱
34275
威望
293
贡献值
98
交易币
1341
只看该作者 7楼 发表于: 2017-01-04
好一个历史混 O(∩_∩)O哈哈~

发帖
2753
金钱
30915
威望
621
贡献值
38
交易币
410
只看该作者 8楼 发表于: 2017-01-05
感谢分享。

离线lifan_npl

发帖
2213
金钱
31997
威望
853
贡献值
430
交易币
2594
只看该作者 9楼 发表于: 2017-01-05
谢谢幽灵分享,辛苦了
我的淘宝店:
http://shop63152617.taobao.com  
快速回复
限100 字节
 
上一个 下一个