论坛风格切换切换到宽版
  • 1432阅读
  • 13回复

[亲传][Album] 1972 Got To Be There (JP - POCT-1837) - WAV整轨 ♬by幽灵 [复制链接]

上一主题 下一主题
离线mjghosts
 

发帖
8262
金钱
219556
威望
9187
贡献值
2734
交易币
4797
只看楼主 倒序阅读 楼主  发表于: 2017-01-03
— 本帖被 mjghosts 执行加亮操作(2017-01-03) —
*MJ首张个人专辑,是他演艺生涯中又一个重要的里程碑,经典程度无需多介绍!资源取自1992年日本初次CD化首版,完美精确校准抓轨! zh?4K*>.k  
JK^[{1 JI  
注:独家整理,转载请注明出处!EAC无损整轨(压缩包内含CD图片) 4K,''7N3  
gb_X?j%p7  
解压密码:www.mjsunny.com
Xu%d,T$G  
+2yF|/WW#  
Tracklist 9l l|JeNi  
1 Ain't No Sunshine 4:11 ;+9(;  
2 I Wanna Be Where You Are 2:59 ||fvKyKW>  
3 Girl Don't Take Your Love From Me 3:47 @#CF".fuN>  
4 In Our Small Way 3:38 I4ctxMVP  
5 Got To Be There 3:23 pj@Yqg/  
6 Rockin' Robin 2:31 oB}K[3uB:t  
7 Wings Of My Love 3:21 ?q6Z's[  
8 Maria (You Were The Only One) 3:41 d}VALjXHX!  
9 Love Is Here And Now You're Gone 2:51 Yg|"-  
10 You've Got A Friend 4:52
? KF=W  
QSv^l-<  
1V0sl0i4  
+/(|?7i@  
p&QmIX]BZ  
bu_/R~&3{  
Exact Audio Copy V1.0 beta 6 from 9. April 2015 /[6:LnaE  
2*Va9HP!q  
EAC 抓取日志文件从10. 十二月 2016, 0:28 Q|Nzbmwh  
8F\~Wz7K  
Michael Jackson / Got To Be There j6RJC  
sC!1B6:  
使用驱动器  :MATSHITADVD-RAM UJ890AS   Adapter: 1  ID: 1 =obt"K%n  
@>+^W&  
读取模式      : 可靠Secure ZUv ZN f  
使用精确流     : 是 .mC~Ry+t  
清空音频缓存    : 否 (6e!09P&  
使用 C2 指示器 : 是 6.k^m&-A  
}m9S(Wal  
读取偏移校正:               : 102 |*lH9lWJ  
读取 Lead-In 和 Lead-Out : 否 Fsnw3/Nr  
用静音填充抓取中丢失偏移的采样       : 是 ( K^YD K  
去除首尾静音块               : 否 }K#iCby4  
在CRC 计算中使用了空样本       : 是 /&~nM  
已用接口                  : Win NT 及 2000 本地 Win32 接口 ~r(g|?}P  
*5ka.=Qs  
所用输出模式: : 内部 WAV 函数 wJ;9),fL  
样本格式    : 44.100 Hz; 16 Bit; 立体声 #R~">g:w  
BZ]&uD|f  
H}u)%qY+~  
已抓取 CD 的 TOC v*vub#wP  
avYh\xZ  
     音轨 |    起始    |    长度    |  起始扇区  |  结束扇区   G#_(7X&  
    -------------------------------------------- aufcd57  
      1 |  0:00.37 |  4:13.32 |     37 |  19043 LH?gJ8`  
      2 |  4:13.69 |  3:02.53 |  19044 |  32746 cOj +}Hz58  
      3 |  7:16.47 |  3:51.05 |  32747 |  50076 HQ-N!pf9  
      4 | 11:07.52 |  3:41.27 |  50077 |  66678 T1g:gfw@  
      5 | 14:49.04 |  3:24.70 |  66679 |  82048 K284R=j -&  
      6 | 18:13.74 |  2:34.48 |  82049 |  93646 K4K3< Pg  
      7 | 20:48.47 |  3:24.70 |  93647 | 109016 Aw_R $  
      8 | 24:13.42 |  3:43.32 | 109017 | 125773 uMq\];7I  
      9 | 27:56.74 |  2:53.73 | 125774 | 138821 IAt+S-q0  
     10 | 30:50.72 |  4:53.55 | 138822 | 160851 YA/H;707l  
7\Yq]:;O  
<iY 9cV|}3  
范围状态及错误 HjE Tinm"  
'&o> %V  
已选择范围 k%bTs+] *  
EZu  
     文件名 J:\12 Music*音乐\1992 Got To Be There (JP - POCT-1837)\CDImage.wav B+e~k?O]1  
E`Zh\u)  
     峰值电平 100.0 % 4 9+}OIX  
     抓取速度 5.6 X hJtghG6v  
     范围质量 100.0 % ,\">ovV33  
     复制 CRC DEC77A36 r|sy_Sk/{  
     复制成功 d`rDEa  
P24    
没有错误发生 ;Q%19f3,6  
Zi'8~iEH  
E!]rh,mYK  
AccurateRip 摘要 ^*T{-U'  
5L'@WB|{4u  
音轨  1  精确地校准抓取  1)  [C298D8E7]  (AR v2) oz7udY=]0  
音轨  2  精确地校准抓取  1)  [9A1E4249]  (AR v2) Vam8NnZ|r  
音轨  3  精确地校准抓取  1)  [E9052BA8]  (AR v2) Ib<+m%Ac  
音轨  4  精确地校准抓取  1)  [3175D0BF]  (AR v2) [aVJYr2  
音轨  5  精确地校准抓取  1)  [06E7012D]  (AR v2) |zegnq~  
音轨  6  精确地校准抓取  1)  [F0954442]  (AR v2) M> l+[U  
音轨  7  精确地校准抓取  1)  [74D60627]  (AR v2) }Z%{QJ$z  
音轨  8  精确地校准抓取  1)  [8BEFF100]  (AR v2)  l3 Bc g  
音轨  9  精确地校准抓取  1)  [7233CF70]  (AR v2) I>\?t4t  
音轨 10  精确地校准抓取  1)  [5A34BE68]  (AR v2) U0=zuRr n  
?DTP-#5Ba  
所有音轨精确校准抓取 [_B&7#3>7  
z:? <aT  
状态报告结尾
m.X+sP-e  
9O_N iu0  
链接:http://pan.baidu.com/s/1jH8f2Rk 密码: 0p2O8>w^%  
此帖售价 5 金钱,已有 13 人购买 [记录] [购买]
购买后,将显示帖子中所有出售内容。
若发现会员采用欺骗的方法获取财富,请立刻举报,我们会对会员处以2-N倍的罚金,严重者封掉ID!
此段为出售的内容,购买后显示
tXuxTVhoT  
离线魏聪

发帖
168
金钱
2713
威望
41
贡献值
21
交易币
103
只看该作者 1楼 发表于: 2017-01-03
简直太棒了
离线wannam

发帖
2703
金钱
87101
威望
382
贡献值
189
交易币
3346
只看该作者 2楼 发表于: 2017-01-03
之前只有mp3版本的,谢谢楼主!
离线mich008

发帖
857
金钱
6834
威望
24
贡献值
15
交易币
919
只看该作者 3楼 发表于: 2017-01-04
无损版的 收下了

发帖
2767
金钱
30998
威望
622
贡献值
39
交易币
428
只看该作者 4楼 发表于: 2017-01-05
感谢分享

离线lifan_npl

发帖
2224
金钱
31752
威望
853
贡献值
430
交易币
2605
只看该作者 5楼 发表于: 2017-01-05
谢谢幽灵分享,辛苦了
我的淘宝店:
http://shop63152617.taobao.com  
离线Mr灬W

发帖
1130
金钱
12952
威望
161
贡献值
56
交易币
1283
只看该作者 6楼 发表于: 2017-01-08
感谢分享!
Heal The World
离线mjnet

发帖
381
金钱
30546
威望
104
贡献值
54
交易币
558
只看该作者 7楼 发表于: 2017-02-07
謝謝樓主!!
离线mjbad25

发帖
168
金钱
4677
威望
0
贡献值
1
交易币
173
只看该作者 8楼 发表于: 2017-04-02
这里面有非常好的歌
离线michael0829

发帖
958
金钱
10744
威望
90
贡献值
70
交易币
1207
只看该作者 9楼 发表于: 2017-04-19
谢谢分享!
I Love You Michael Jackson Forever!
I Just Can't Stop Loving You Michel!
快速回复
限100 字节
 
上一个 下一个