论坛风格切换切换到宽版
  • 1291阅读
  • 13回复

[亲传][Album] 1972 Got To Be There (JP - POCT-1837) - WAV整轨 ♬by幽灵 [复制链接]

上一主题 下一主题
离线mjghosts
 

发帖
8257
金钱
219515
威望
9187
贡献值
2734
交易币
4792
只看楼主 倒序阅读 楼主  发表于: 2017-01-03
— 本帖被 mjghosts 执行加亮操作(2017-01-03) —
*MJ首张个人专辑,是他演艺生涯中又一个重要的里程碑,经典程度无需多介绍!资源取自1992年日本初次CD化首版,完美精确校准抓轨! * t6 XU  
]as_7  
注:独家整理,转载请注明出处!EAC无损整轨(压缩包内含CD图片) [hTGWT3  
oJe9H<  
解压密码:www.mjsunny.com
/%C6e )7BL  
I'2:>44>I6  
Tracklist LWHP31{R  
1 Ain't No Sunshine 4:11 @iK=1\-2  
2 I Wanna Be Where You Are 2:59 O&l(`*P  
3 Girl Don't Take Your Love From Me 3:47 *#1&IJPI  
4 In Our Small Way 3:38 : Q X~bq  
5 Got To Be There 3:23 @%&;V(  
6 Rockin' Robin 2:31 PxzeN6f  
7 Wings Of My Love 3:21 @?iLz7SPk  
8 Maria (You Were The Only One) 3:41 )hm U/E@  
9 Love Is Here And Now You're Gone 2:51 ~R/w~Kc!/A  
10 You've Got A Friend 4:52
6~zR(HzV{  
wVkms  
]\5@N7h  
6cz%>@  
?xh_qy;  
='u'/g$'&  
Exact Audio Copy V1.0 beta 6 from 9. April 2015 fl _k5Q'&p  
MV6 %~T  
EAC 抓取日志文件从10. 十二月 2016, 0:28 I8HUH* |)n  
S+>&O3m  
Michael Jackson / Got To Be There _?<Y>B, E  
zf $&+E-  
使用驱动器  :MATSHITADVD-RAM UJ890AS   Adapter: 1  ID: 1 {YZ)IaqZ  
8=gr F  
读取模式      : 可靠Secure I=D{(%+^d  
使用精确流     : 是 5Zs"CDU  
清空音频缓存    : 否 }D dg  
使用 C2 指示器 : 是 %_u*5,w  
I'"*#QOX  
读取偏移校正:               : 102 g_;5"  
读取 Lead-In 和 Lead-Out : 否 :eS7"EG{3  
用静音填充抓取中丢失偏移的采样       : 是 nhk +9  
去除首尾静音块               : 否 \^EjE  
在CRC 计算中使用了空样本       : 是 GEA@AD=^f  
已用接口                  : Win NT 及 2000 本地 Win32 接口 ,!kyrk6  
\ :})R{  
所用输出模式: : 内部 WAV 函数 pSQ3 SM  
样本格式    : 44.100 Hz; 16 Bit; 立体声 |Y(].G,  
TuIeaH%x  
=eac,]31  
已抓取 CD 的 TOC i=o>Bl@f  
=AgY8cF!sl  
     音轨 |    起始    |    长度    |  起始扇区  |  结束扇区   MLBZmM '  
    -------------------------------------------- 7{<F6F^P  
      1 |  0:00.37 |  4:13.32 |     37 |  19043 qh.c#t  
      2 |  4:13.69 |  3:02.53 |  19044 |  32746 aOYd "S}u  
      3 |  7:16.47 |  3:51.05 |  32747 |  50076 }ZYK3F  
      4 | 11:07.52 |  3:41.27 |  50077 |  66678 @ K@~4!  
      5 | 14:49.04 |  3:24.70 |  66679 |  82048 r<|\4zIo/  
      6 | 18:13.74 |  2:34.48 |  82049 |  93646 ;U7\pc;S  
      7 | 20:48.47 |  3:24.70 |  93647 | 109016 }kOhwT8sI  
      8 | 24:13.42 |  3:43.32 | 109017 | 125773 uO^{+=;A =  
      9 | 27:56.74 |  2:53.73 | 125774 | 138821 a,j!B hu  
     10 | 30:50.72 |  4:53.55 | 138822 | 160851 Q ?Nzt;)!.  
2l!"OiB.P  
b _u&%  
范围状态及错误 \7C >4  
F)%; gzs  
已选择范围 2 G"p:iPp  
w_{z"VeD  
     文件名 J:\12 Music*音乐\1992 Got To Be There (JP - POCT-1837)\CDImage.wav 7"[lWC!As5  
+(/Z=4;,[  
     峰值电平 100.0 % z`Q5J9_<cV  
     抓取速度 5.6 X n$P v2qw  
     范围质量 100.0 % ,AD| u_pP  
     复制 CRC DEC77A36 '~f@p~P  
     复制成功 U'lD|R,g  
c,-x}i0c  
没有错误发生 BJq}1mn*  
mQvKreo~  
IL=v[)en4  
AccurateRip 摘要 ]EcZ|c7o9y  
O1ha'@qID  
音轨  1  精确地校准抓取  1)  [C298D8E7]  (AR v2) &`Di cfD  
音轨  2  精确地校准抓取  1)  [9A1E4249]  (AR v2) _%2Umy|  
音轨  3  精确地校准抓取  1)  [E9052BA8]  (AR v2) =zjUd  5  
音轨  4  精确地校准抓取  1)  [3175D0BF]  (AR v2) Uaj=}p\+.p  
音轨  5  精确地校准抓取  1)  [06E7012D]  (AR v2) |Hm'.-   
音轨  6  精确地校准抓取  1)  [F0954442]  (AR v2) s4gNS eA  
音轨  7  精确地校准抓取  1)  [74D60627]  (AR v2) (K6`nWk2  
音轨  8  精确地校准抓取  1)  [8BEFF100]  (AR v2) $ tNhwF  
音轨  9  精确地校准抓取  1)  [7233CF70]  (AR v2) k4$q|x7+%  
音轨 10  精确地校准抓取  1)  [5A34BE68]  (AR v2) YU=ZZEVi  
^CPfo/!  
所有音轨精确校准抓取 H 1D;:n  
ING_:XpnJ  
状态报告结尾
qysa!B  
3rdfg  
链接:http://pan.baidu.com/s/1jH8f2Rk 密码: 8M|)ojH  
此帖售价 5 金钱,已有 13 人购买 [记录] [购买]
购买后,将显示帖子中所有出售内容。
若发现会员采用欺骗的方法获取财富,请立刻举报,我们会对会员处以2-N倍的罚金,严重者封掉ID!
此段为出售的内容,购买后显示
@qPyrgy  
离线魏聪

发帖
168
金钱
2713
威望
41
贡献值
21
交易币
103
只看该作者 1楼 发表于: 2017-01-03
简直太棒了
离线wannam

发帖
2703
金钱
87079
威望
382
贡献值
189
交易币
3346
只看该作者 2楼 发表于: 2017-01-03
之前只有mp3版本的,谢谢楼主!
离线mich008

发帖
854
金钱
6411
威望
24
贡献值
15
交易币
916
只看该作者 3楼 发表于: 2017-01-04
无损版的 收下了

发帖
2753
金钱
30915
威望
621
贡献值
38
交易币
410
只看该作者 4楼 发表于: 2017-01-05
感谢分享

离线lifan_npl

发帖
2213
金钱
31997
威望
853
贡献值
430
交易币
2594
只看该作者 5楼 发表于: 2017-01-05
谢谢幽灵分享,辛苦了
我的淘宝店:
http://shop63152617.taobao.com  
离线Mr灬W

发帖
1130
金钱
12952
威望
161
贡献值
56
交易币
1283
只看该作者 6楼 发表于: 2017-01-08
感谢分享!
Heal The World
离线mjnet

发帖
381
金钱
30546
威望
104
贡献值
54
交易币
558
只看该作者 7楼 发表于: 2017-02-07
謝謝樓主!!
离线mjbad25

发帖
168
金钱
4677
威望
0
贡献值
1
交易币
173
只看该作者 8楼 发表于: 2017-04-02
这里面有非常好的歌
离线michael0829

发帖
957
金钱
10414
威望
90
贡献值
70
交易币
1206
只看该作者 9楼 发表于: 2017-04-19
谢谢分享!
I Love You Michael Jackson Forever!
I Just Can't Stop Loving You Michel!
快速回复
限100 字节
 
上一个 下一个