论坛风格切换切换到宽版
  • 948阅读
  • 12回复

[亲传][Album] 1972 Got To Be There (JP - POCT-1837) - WAV整轨 ♬by幽灵 [复制链接]

上一主题 下一主题
离线mjghosts
 

发帖
8244
金钱
217720
威望
9174
贡献值
2723
交易币
4755
只看楼主 倒序阅读 楼主  发表于: 2017-01-03
— 本帖被 mjghosts 执行加亮操作(2017-01-03) —
*MJ首张个人专辑,是他演艺生涯中又一个重要的里程碑,经典程度无需多介绍!资源取自1992年日本初次CD化首版,完美精确校准抓轨! t <#Yr%a  
mi3yiR  
注:独家整理,转载请注明出处!EAC无损整轨(压缩包内含CD图片) VHB5  
dM7-,9Vc  
解压密码:www.mjsunny.com
m ^Btr  
~FM5]<X)  
Tracklist _Y*]'?g`  
1 Ain't No Sunshine 4:11 QVI4<Rxg  
2 I Wanna Be Where You Are 2:59 =ex71qj)  
3 Girl Don't Take Your Love From Me 3:47 %X O97  
4 In Our Small Way 3:38 p0UR5A>p  
5 Got To Be There 3:23 <MI>>$seiJ  
6 Rockin' Robin 2:31 B3]q*ERAo  
7 Wings Of My Love 3:21 )}1 J.>5  
8 Maria (You Were The Only One) 3:41 3VbMW,_&"  
9 Love Is Here And Now You're Gone 2:51 3G dWq*  
10 You've Got A Friend 4:52
)'KkO$^&  
Wqy|Y*$qT  
!jGe_xB}~  
j BS$xW  
[QEV6 S]  
*]NG@^y  
Exact Audio Copy V1.0 beta 6 from 9. April 2015 ]KdSwIbi  
1t wC-rC  
EAC 抓取日志文件从10. 十二月 2016, 0:28 7yM=$"'d  
RC'4%++Nz  
Michael Jackson / Got To Be There Z0HfrK#oU  
fUj[E0yOF  
使用驱动器  :MATSHITADVD-RAM UJ890AS   Adapter: 1  ID: 1 q@k/"ee*?  
$eHYy,,  
读取模式      : 可靠Secure Qw>~] d,Z  
使用精确流     : 是 )oqNQ'yZ  
清空音频缓存    : 否 B xAyjA6  
使用 C2 指示器 : 是 g0({$2Q7R  
75v7w  
读取偏移校正:               : 102 x%h4'Sm  
读取 Lead-In 和 Lead-Out : 否 RE._Ov>  
用静音填充抓取中丢失偏移的采样       : 是 '=AqC,\#  
去除首尾静音块               : 否 pyUzHF0  
在CRC 计算中使用了空样本       : 是 6~34L{u  
已用接口                  : Win NT 及 2000 本地 Win32 接口 d9iVuw0u<  
D :)HK D.  
所用输出模式: : 内部 WAV 函数 nt:ZO,C:R  
样本格式    : 44.100 Hz; 16 Bit; 立体声 |zbM$37 ?k  
$bU.6  
8\F|{vt#  
已抓取 CD 的 TOC !_q=r[D\  
/&H l62Ak  
     音轨 |    起始    |    长度    |  起始扇区  |  结束扇区   WN $KS"b6}  
    -------------------------------------------- ~ #jnkD  
      1 |  0:00.37 |  4:13.32 |     37 |  19043 _Tf %<E  
      2 |  4:13.69 |  3:02.53 |  19044 |  32746 HBNX a  
      3 |  7:16.47 |  3:51.05 |  32747 |  50076 >}bkX 6c5  
      4 | 11:07.52 |  3:41.27 |  50077 |  66678 vjVa),2  
      5 | 14:49.04 |  3:24.70 |  66679 |  82048 B1j^qoC.5  
      6 | 18:13.74 |  2:34.48 |  82049 |  93646 uF ;8B]"  
      7 | 20:48.47 |  3:24.70 |  93647 | 109016 _PLZ_c:O  
      8 | 24:13.42 |  3:43.32 | 109017 | 125773 xouBBb=  
      9 | 27:56.74 |  2:53.73 | 125774 | 138821 +f}w+  
     10 | 30:50.72 |  4:53.55 | 138822 | 160851 =I9hGj6  
{qm5H7sL  
DG=_E\"#  
范围状态及错误 {M23a _t\  
6|Crc$4l  
已选择范围 T2to!*T  
:io~{a#.2\  
     文件名 J:\12 Music*音乐\1992 Got To Be There (JP - POCT-1837)\CDImage.wav 6f J5Y iQ  
<2\Q Y  
     峰值电平 100.0 % n* z;%'0  
     抓取速度 5.6 X CasFj9,  
     范围质量 100.0 % Z-i$KF  
     复制 CRC DEC77A36 (!<G` ;}u  
     复制成功 jAD{?/RB}  
1c $iW>0K  
没有错误发生 t2z@"e   
LMYO>]dg  
4Bq4d.0  
AccurateRip 摘要 V, e  
iLkP@OYgQ  
音轨  1  精确地校准抓取  1)  [C298D8E7]  (AR v2) [3hOc/]s  
音轨  2  精确地校准抓取  1)  [9A1E4249]  (AR v2) lmr:PX  
音轨  3  精确地校准抓取  1)  [E9052BA8]  (AR v2) Qtn%h:i S~  
音轨  4  精确地校准抓取  1)  [3175D0BF]  (AR v2) #k<j`0kiq  
音轨  5  精确地校准抓取  1)  [06E7012D]  (AR v2) Tg.}rNA4  
音轨  6  精确地校准抓取  1)  [F0954442]  (AR v2) k M' :.QT  
音轨  7  精确地校准抓取  1)  [74D60627]  (AR v2) F]~>qt<ia  
音轨  8  精确地校准抓取  1)  [8BEFF100]  (AR v2) yPza  
音轨  9  精确地校准抓取  1)  [7233CF70]  (AR v2) 2hI|] p  
音轨 10  精确地校准抓取  1)  [5A34BE68]  (AR v2) qA6;Q$  
G\1\L*+0  
所有音轨精确校准抓取 S @ MO  
3B5GsI  
状态报告结尾
?@i_\<A2  
;NHZD  
链接:http://pan.baidu.com/s/1jH8f2Rk 密码: r{T}pc>^  
此帖售价 5 金钱,已有 12 人购买 [记录] [购买]
购买后,将显示帖子中所有出售内容。
若发现会员采用欺骗的方法获取财富,请立刻举报,我们会对会员处以2-N倍的罚金,严重者封掉ID!
此段为出售的内容,购买后显示
<!s+X_^  
离线魏聪

发帖
168
金钱
2713
威望
41
贡献值
21
交易币
103
只看该作者 1楼 发表于: 2017-01-03
简直太棒了
离线wannam

发帖
2702
金钱
87012
威望
382
贡献值
189
交易币
3345
只看该作者 2楼 发表于: 2017-01-03
之前只有mp3版本的,谢谢楼主!
离线mich008

发帖
832
金钱
5931
威望
24
贡献值
15
交易币
894
只看该作者 3楼 发表于: 2017-01-04
无损版的 收下了

发帖
2735
金钱
31355
威望
620
贡献值
37
交易币
388
只看该作者 4楼 发表于: 2017-01-05
感谢分享

离线lifan_npl

发帖
2189
金钱
19354
威望
816
贡献值
395
交易币
2550
只看该作者 5楼 发表于: 2017-01-05
谢谢幽灵分享,辛苦了
我的淘宝:
http://shop63152617.taobao.com  
离线Mr灬W

发帖
1129
金钱
12950
威望
161
贡献值
56
交易币
1282
只看该作者 6楼 发表于: 2017-01-08
感谢分享!
Heal The World
离线mjnet

发帖
380
金钱
30479
威望
104
贡献值
54
交易币
557
只看该作者 7楼 发表于: 2017-02-07
謝謝樓主!!
离线mjbad25

发帖
160
金钱
5532
威望
0
贡献值
1
交易币
165
只看该作者 8楼 发表于: 2017-04-02
这里面有非常好的歌
离线michael0829

发帖
955
金钱
9569
威望
90
贡献值
70
交易币
1204
只看该作者 9楼 发表于: 2017-04-19
谢谢分享!
I Love You Michael Jackson Forever!
I Just Can't Stop Loving You Michel!
快速回复
限100 字节
 
上一个 下一个