论坛风格切换切换到宽版
  • 127阅读
  • 6回复

[亲传][Album] 1972 Got To Be There (JP - POCT-1837) - WAV整轨 ♬by幽灵 [复制链接]

上一主题 下一主题
离线mjghosts
 

发帖
8164
金钱
198371
威望
8946
贡献值
2637
交易币
4507
只看楼主 倒序阅读 楼主  发表于: 01-03
— 本帖被 mjghosts 执行加亮操作(2017-01-03) —
*MJ首张个人专辑,是他演艺生涯中又一个重要的里程碑,经典程度无需多介绍!资源取自1992年日本初次CD化首版,完美精确校准抓轨! 3Z#WAhfS:  
WA:r4V  
注:独家整理,转载请注明出处!EAC无损整轨(压缩包内含CD图片) +#<Z/  
M,bs`amz  
解压密码:www.mjsunny.com
@tD (<*f+  
L*vKIP<EMM  
Tracklist BIe:7cR%  
1 Ain't No Sunshine 4:11 Jo~fri([%Q  
2 I Wanna Be Where You Are 2:59 B_b5&M@  
3 Girl Don't Take Your Love From Me 3:47 ;G3?Sa7+  
4 In Our Small Way 3:38 x.] tGS  
5 Got To Be There 3:23 &%t&[Se_~  
6 Rockin' Robin 2:31 've[Mx  
7 Wings Of My Love 3:21 ReA-.j_2@  
8 Maria (You Were The Only One) 3:41 \/V#,O  
9 Love Is Here And Now You're Gone 2:51 @>V;guJC%  
10 You've Got A Friend 4:52
Np ru  
uhp.Yv@c  
d2-oy5cEB  
wEJzLFCn  
Qh-:P`CN  
dh&> E  
Exact Audio Copy V1.0 beta 6 from 9. April 2015 7v0AG:  
V{A`?Jl6{  
EAC 抓取日志文件从10. 十二月 2016, 0:28 d)acWF\  
P+OS  
Michael Jackson / Got To Be There $60`Hh 4/  
1<_/Qu>V  
使用驱动器  :MATSHITADVD-RAM UJ890AS   Adapter: 1  ID: 1 |5X[/Q*K`W  
< *;GJ{  
读取模式      : 可靠Secure M6Np!0G  
使用精确流     : 是 #Nco|v  
清空音频缓存    : 否 /7:+.#Ag`  
使用 C2 指示器 : 是 dl6U]v=  
hh*('n>[  
读取偏移校正:               : 102 ?h%Jb^#9  
读取 Lead-In 和 Lead-Out : 否 &vn2u bauS  
用静音填充抓取中丢失偏移的采样       : 是 A>2_I)  
去除首尾静音块               : 否 g=@d!]Z~[  
在CRC 计算中使用了空样本       : 是 @DY"~c cH  
已用接口                  : Win NT 及 2000 本地 Win32 接口 7}6CUo  
v:yU+s|kN  
所用输出模式: : 内部 WAV 函数 B%MdJ D>  
样本格式    : 44.100 Hz; 16 Bit; 立体声 A8Fe@$<#8  
xdM'v{N#m  
 HG?+b  
已抓取 CD 的 TOC q` IY;"~  
fi`\e W  
     音轨 |    起始    |    长度    |  起始扇区  |  结束扇区   m|{^T/kIbQ  
    -------------------------------------------- -eyF9++`  
      1 |  0:00.37 |  4:13.32 |     37 |  19043 {tY1$}R  
      2 |  4:13.69 |  3:02.53 |  19044 |  32746 :-JryiI  
      3 |  7:16.47 |  3:51.05 |  32747 |  50076 seBmhe5qR  
      4 | 11:07.52 |  3:41.27 |  50077 |  66678 K.Y`/<  
      5 | 14:49.04 |  3:24.70 |  66679 |  82048 @*Ry`)T  
      6 | 18:13.74 |  2:34.48 |  82049 |  93646 t(uvc{K *  
      7 | 20:48.47 |  3:24.70 |  93647 | 109016 -$[&{ .B.  
      8 | 24:13.42 |  3:43.32 | 109017 | 125773 p'2IlQ\  
      9 | 27:56.74 |  2:53.73 | 125774 | 138821 F=1 #qo<?  
     10 | 30:50.72 |  4:53.55 | 138822 | 160851 :;]9,n  
ob;|%_  
~o"=4q`>  
范围状态及错误 ~h;   
n{sk  
已选择范围 kodd7 AD  
W3/bM>1  
     文件名 J:\12 Music*音乐\1992 Got To Be There (JP - POCT-1837)\CDImage.wav D^US2B  
<a @7's  
     峰值电平 100.0 % qfE0J;e   
     抓取速度 5.6 X [B)!  
     范围质量 100.0 % "j,vlG  
     复制 CRC DEC77A36 \\KjiT'  
     复制成功 :1j8!R5  
:!oJmvy  
没有错误发生 n*wQgC'vw  
m]>zdP+  
ya8p 4N{_  
AccurateRip 摘要 {jB> ]7  
S=!WFKcJR  
音轨  1  精确地校准抓取  1)  [C298D8E7]  (AR v2) B\c_GXUw  
音轨  2  精确地校准抓取  1)  [9A1E4249]  (AR v2) -|#{V.G3'  
音轨  3  精确地校准抓取  1)  [E9052BA8]  (AR v2) {k_\1t(/  
音轨  4  精确地校准抓取  1)  [3175D0BF]  (AR v2) x'x5tg  
音轨  5  精确地校准抓取  1)  [06E7012D]  (AR v2) VGeTX 4h  
音轨  6  精确地校准抓取  1)  [F0954442]  (AR v2) fc*>ky.v  
音轨  7  精确地校准抓取  1)  [74D60627]  (AR v2) rxgSQ+G_  
音轨  8  精确地校准抓取  1)  [8BEFF100]  (AR v2) F~ 5,-atDM  
音轨  9  精确地校准抓取  1)  [7233CF70]  (AR v2) lK=Is v+  
音轨 10  精确地校准抓取  1)  [5A34BE68]  (AR v2) IRm}?hHf  
W-s6+ DY  
所有音轨精确校准抓取 cj>UxU][eS  
@Z ==B%`  
状态报告结尾
0>BxS9?w  
hi!A9T3%}M  
链接:http://pan.baidu.com/s/1jH8f2Rk 密码: qKfUm:7Q_  
此帖售价 5 金钱,已有 6 人购买 [记录] [购买]
购买后,将显示帖子中所有出售内容。
若发现会员采用欺骗的方法获取财富,请立刻举报,我们会对会员处以2-N倍的罚金,严重者封掉ID!
此段为出售的内容,购买后显示
TUnAsE/J&  
离线魏聪

发帖
153
金钱
2809
威望
41
贡献值
21
交易币
88
只看该作者 1楼 发表于: 01-03
简直太棒了
离线wannam

发帖
2415
金钱
65792
威望
363
贡献值
169
交易币
3058
只看该作者 2楼 发表于: 01-03
之前只有mp3版本的,谢谢楼主!
离线mich008

发帖
738
金钱
4652
威望
24
贡献值
15
交易币
800
只看该作者 3楼 发表于: 01-04
无损版的 收下了

发帖
2620
金钱
27617
威望
598
贡献值
30
交易币
245
只看该作者 4楼 发表于: 01-05
感谢分享

离线lifan_npl

发帖
2046
金钱
18376
威望
776
贡献值
336
交易币
2395
只看该作者 5楼 发表于: 01-05
谢谢幽灵分享,辛苦了
我的淘宝:
http://shop63152617.taobao.com  
离线Mr灬W

发帖
1140
金钱
13023
威望
152
贡献值
46
交易币
1265
只看该作者 6楼 发表于: 01-08
感谢分享!
Heal The World
快速回复
限100 字节
 
上一个 下一个