论坛风格切换切换到宽版
  • 526阅读
  • 10回复

[亲传][Album] 1972 Got To Be There (JP - POCT-1837) - WAV整轨 ♬by幽灵 [复制链接]

上一主题 下一主题
离线mjghosts
 

发帖
8258
金钱
212473
威望
9166
贡献值
2715
交易币
4709
只看楼主 倒序阅读 楼主  发表于: 01-03
— 本帖被 mjghosts 执行加亮操作(2017-01-03) —
*MJ首张个人专辑,是他演艺生涯中又一个重要的里程碑,经典程度无需多介绍!资源取自1992年日本初次CD化首版,完美精确校准抓轨! / w_ Sc{  
0Ny0#;P  
注:独家整理,转载请注明出处!EAC无损整轨(压缩包内含CD图片) mrqCW]#u  
miZ{V%  
解压密码:www.mjsunny.com
1 YMaUyL 1  
Yah3I@xGy  
Tracklist }YU#} Ip@  
1 Ain't No Sunshine 4:11 {'"A hiR/  
2 I Wanna Be Where You Are 2:59 Ad@))o2  
3 Girl Don't Take Your Love From Me 3:47 JF: QQ\  
4 In Our Small Way 3:38 u$t*jw\fHg  
5 Got To Be There 3:23 ,EcmMI^A  
6 Rockin' Robin 2:31 *: e^yi  
7 Wings Of My Love 3:21 ]hF[f|V  
8 Maria (You Were The Only One) 3:41 (G#)[0<fX  
9 Love Is Here And Now You're Gone 2:51 .A\9|sRZ5  
10 You've Got A Friend 4:52
[NeOd77y  
P8DJv-f`  
o6xl,T%  
Va(R*38k  
SQ>.P  
Fd5{pM3  
Exact Audio Copy V1.0 beta 6 from 9. April 2015 W qci51y>#  
eW\7X%I  
EAC 抓取日志文件从10. 十二月 2016, 0:28 Z7k {7  
{-Yp~HQF  
Michael Jackson / Got To Be There tz1iabZ{  
],qG!,V  
使用驱动器  :MATSHITADVD-RAM UJ890AS   Adapter: 1  ID: 1 W$?1" F.  
l:j9lBS  
读取模式      : 可靠Secure qIA!m .GC  
使用精确流     : 是 CWCE}WU>4  
清空音频缓存    : 否 e#FaK^V  
使用 C2 指示器 : 是 c!{.BgGN  
r^WO$u|@i  
读取偏移校正:               : 102 <MT_zET  
读取 Lead-In 和 Lead-Out : 否 e/#4)@]  
用静音填充抓取中丢失偏移的采样       : 是 ;`X-.45  
去除首尾静音块               : 否 d cPh @3  
在CRC 计算中使用了空样本       : 是 ;\4}Hcg  
已用接口                  : Win NT 及 2000 本地 Win32 接口 RL.%o?<&?  
| 2p\M?@  
所用输出模式: : 内部 WAV 函数 t8]u#bx"?  
样本格式    : 44.100 Hz; 16 Bit; 立体声 [#3:CDT  
dL6sb;7R  
o=;.RYi  
已抓取 CD 的 TOC MI',E?#yB  
F[RhuNa&'W  
     音轨 |    起始    |    长度    |  起始扇区  |  结束扇区   {\C$Bz  
    -------------------------------------------- .7~Kfm@2  
      1 |  0:00.37 |  4:13.32 |     37 |  19043 ;bP7|  
      2 |  4:13.69 |  3:02.53 |  19044 |  32746 8ru@ 8|r  
      3 |  7:16.47 |  3:51.05 |  32747 |  50076 0S/&^  
      4 | 11:07.52 |  3:41.27 |  50077 |  66678 !Q#u i[0q  
      5 | 14:49.04 |  3:24.70 |  66679 |  82048 3,N7Nfe  
      6 | 18:13.74 |  2:34.48 |  82049 |  93646 eA{,=, v)  
      7 | 20:48.47 |  3:24.70 |  93647 | 109016 zs[t<`2  
      8 | 24:13.42 |  3:43.32 | 109017 | 125773 ^]E| >~\  
      9 | 27:56.74 |  2:53.73 | 125774 | 138821 ]vKxgfF  
     10 | 30:50.72 |  4:53.55 | 138822 | 160851 i,;Q  
nez5z:7F  
(z^2LaM `8  
范围状态及错误 eUF PzioW  
F^`sIrZvs  
已选择范围 \f /<#'  
{) Y &Vr5  
     文件名 J:\12 Music*音乐\1992 Got To Be There (JP - POCT-1837)\CDImage.wav 8 hWQ  
P 3lN ns3  
     峰值电平 100.0 % sI*( MhU  
     抓取速度 5.6 X Pw$'TE}  
     范围质量 100.0 % `DWzp5Ax  
     复制 CRC DEC77A36 W%vh7>.  
     复制成功 8&dmH&  
(_<ruwV]`  
没有错误发生 QD\S E  
8&`s wu&  
|6_<4lmTxF  
AccurateRip 摘要 }o)GBWqHR  
r}*2~;:pW  
音轨  1  精确地校准抓取  1)  [C298D8E7]  (AR v2) y6:=2(]w<p  
音轨  2  精确地校准抓取  1)  [9A1E4249]  (AR v2) 9J2% 9,^  
音轨  3  精确地校准抓取  1)  [E9052BA8]  (AR v2) T(ponLh  
音轨  4  精确地校准抓取  1)  [3175D0BF]  (AR v2) QKCk. 0Xe  
音轨  5  精确地校准抓取  1)  [06E7012D]  (AR v2) E37`g}ZS  
音轨  6  精确地校准抓取  1)  [F0954442]  (AR v2) p?Yovckm  
音轨  7  精确地校准抓取  1)  [74D60627]  (AR v2) mYa0_P%^  
音轨  8  精确地校准抓取  1)  [8BEFF100]  (AR v2) _NqEhf:8  
音轨  9  精确地校准抓取  1)  [7233CF70]  (AR v2) $lV0TCgba8  
音轨 10  精确地校准抓取  1)  [5A34BE68]  (AR v2) `$MO.K{  
1j0yON  
所有音轨精确校准抓取 S~Nx;sB  
&a48DCZ  
状态报告结尾
7/aJ?:gX  
(M5=8g%>d  
链接:http://pan.baidu.com/s/1jH8f2Rk 密码: rJ!xzge;G  
此帖售价 5 金钱,已有 10 人购买 [记录] [购买]
购买后,将显示帖子中所有出售内容。
若发现会员采用欺骗的方法获取财富,请立刻举报,我们会对会员处以2-N倍的罚金,严重者封掉ID!
此段为出售的内容,购买后显示
S' TF7u  
离线魏聪

发帖
168
金钱
2713
威望
41
贡献值
21
交易币
103
只看该作者 1楼 发表于: 01-03
简直太棒了
离线wannam

发帖
2698
金钱
86901
威望
382
贡献值
189
交易币
3341
只看该作者 2楼 发表于: 01-03
之前只有mp3版本的,谢谢楼主!
离线mich008

发帖
810
金钱
5282
威望
24
贡献值
15
交易币
872
只看该作者 3楼 发表于: 01-04
无损版的 收下了

发帖
2708
金钱
28329
威望
619
贡献值
36
交易币
357
只看该作者 4楼 发表于: 01-05
感谢分享

离线lifan_npl

发帖
2156
金钱
17106
威望
782
贡献值
347
交易币
2509
只看该作者 5楼 发表于: 01-05
谢谢幽灵分享,辛苦了
我的淘宝:
http://shop63152617.taobao.com  
离线Mr灬W

发帖
1129
金钱
12894
威望
161
贡献值
56
交易币
1282
只看该作者 6楼 发表于: 01-08
感谢分享!
Heal The World
离线mjnet

发帖
375
金钱
30482
威望
104
贡献值
54
交易币
552
只看该作者 7楼 发表于: 02-07
謝謝樓主!!
离线mjbad25

发帖
134
金钱
6006
威望
0
贡献值
1
交易币
139
只看该作者 8楼 发表于: 04-02
这里面有非常好的歌
离线michael0829

发帖
946
金钱
9122
威望
90
贡献值
70
交易币
1195
只看该作者 9楼 发表于: 04-19
谢谢分享!
I Love You Michael Jackson Forever!
I Just Can't Stop Loving You Michel!
快速回复
限100 字节
 
上一个 下一个