论坛风格切换切换到宽版
  • 1020阅读
  • 13回复

[亲传][Album] 1972 Got To Be There (JP - POCT-1837) - WAV整轨 ♬by幽灵 [复制链接]

上一主题 下一主题
离线mjghosts
 

发帖
8251
金钱
218667
威望
9176
贡献值
2723
交易币
4762
只看楼主 倒序阅读 楼主  发表于: 2017-01-03
— 本帖被 mjghosts 执行加亮操作(2017-01-03) —
*MJ首张个人专辑,是他演艺生涯中又一个重要的里程碑,经典程度无需多介绍!资源取自1992年日本初次CD化首版,完美精确校准抓轨! W5Jy"]^I  
[-"ZuUG  
注:独家整理,转载请注明出处!EAC无损整轨(压缩包内含CD图片) _,v?rFLE  
YM NLn9  
解压密码:www.mjsunny.com
@*L-lx  
w'_|X&@H  
Tracklist .X(qs1  
1 Ain't No Sunshine 4:11 5kWzD'!^  
2 I Wanna Be Where You Are 2:59 fuCt9Kjo<  
3 Girl Don't Take Your Love From Me 3:47 U6wy^!_X9  
4 In Our Small Way 3:38 )K::WqR%w)  
5 Got To Be There 3:23 z0a`*3 -2  
6 Rockin' Robin 2:31 v@2@9/  
7 Wings Of My Love 3:21 hMvJNI6O  
8 Maria (You Were The Only One) 3:41 wL]#]DiE  
9 Love Is Here And Now You're Gone 2:51 E+e),qsbO  
10 You've Got A Friend 4:52
c=?6`m,"M  
8'qlg|{!~  
N7}3?wS  
-bSM]86  
cH:&S=>h  
*wd=&Z^19  
Exact Audio Copy V1.0 beta 6 from 9. April 2015 [ybK  
`)KGajB  
EAC 抓取日志文件从10. 十二月 2016, 0:28 7)2Q  
"H@I~X=  
Michael Jackson / Got To Be There FzCXA=m  
SdMLO6-  
使用驱动器  :MATSHITADVD-RAM UJ890AS   Adapter: 1  ID: 1 3fZoF`<a  
*A}td8(  
读取模式      : 可靠Secure M%Vp_ 0  
使用精确流     : 是 saQo]6#  
清空音频缓存    : 否 MYz!zI  
使用 C2 指示器 : 是 eOXu^M>:F  
QR~4Fe  
读取偏移校正:               : 102 Nr)DU.f  
读取 Lead-In 和 Lead-Out : 否 4k<U5J  
用静音填充抓取中丢失偏移的采样       : 是 on5\rY<I:@  
去除首尾静音块               : 否 gQu!(7WLI  
在CRC 计算中使用了空样本       : 是 tO1k2<Z"Y&  
已用接口                  : Win NT 及 2000 本地 Win32 接口 U;u4ey  
s,/C^E  
所用输出模式: : 内部 WAV 函数 10r!p: D  
样本格式    : 44.100 Hz; 16 Bit; 立体声 At[SkG}b  
3KkJQ5a  
cf"!U+x  
已抓取 CD 的 TOC > hGB o  
hM="9] i.  
     音轨 |    起始    |    长度    |  起始扇区  |  结束扇区   1E4`&?  
    -------------------------------------------- +R{~%ZTK  
      1 |  0:00.37 |  4:13.32 |     37 |  19043 VtU2&  
      2 |  4:13.69 |  3:02.53 |  19044 |  32746 h:FN&E c}  
      3 |  7:16.47 |  3:51.05 |  32747 |  50076 JLu$UR4  
      4 | 11:07.52 |  3:41.27 |  50077 |  66678 ka(3ONbG  
      5 | 14:49.04 |  3:24.70 |  66679 |  82048 GGZ9DC\{  
      6 | 18:13.74 |  2:34.48 |  82049 |  93646 UxMei  
      7 | 20:48.47 |  3:24.70 |  93647 | 109016 z`u$C+Ov  
      8 | 24:13.42 |  3:43.32 | 109017 | 125773 \]S)PDqR  
      9 | 27:56.74 |  2:53.73 | 125774 | 138821 [IHG9Xg  
     10 | 30:50.72 |  4:53.55 | 138822 | 160851 Ar_Yl|a  
,#0#1k<Dm  
cmd7-2  
范围状态及错误 2<AQ{ c  
6vU%Y_n=y]  
已选择范围 rV-Xsf7Z  
G#E8xA"{/  
     文件名 J:\12 Music*音乐\1992 Got To Be There (JP - POCT-1837)\CDImage.wav 4>B=k  
mWLiXKnb  
     峰值电平 100.0 % \,!Qo*vj  
     抓取速度 5.6 X AmCymT3P*e  
     范围质量 100.0 % $}0\sj%  
     复制 CRC DEC77A36 #??[;xjs!  
     复制成功 :#N]s  
F"23v G>3  
没有错误发生 7Fzr\&  
ezm*9Jc~p  
VY=YI}E  
AccurateRip 摘要 OU?.}qc<wE  
f]Rh<N$  
音轨  1  精确地校准抓取  1)  [C298D8E7]  (AR v2) ArT@BqWd  
音轨  2  精确地校准抓取  1)  [9A1E4249]  (AR v2) Z:,`hW*A6  
音轨  3  精确地校准抓取  1)  [E9052BA8]  (AR v2) sv6m)pwh  
音轨  4  精确地校准抓取  1)  [3175D0BF]  (AR v2) C+Wa(K  
音轨  5  精确地校准抓取  1)  [06E7012D]  (AR v2) _+Pz~_+kS  
音轨  6  精确地校准抓取  1)  [F0954442]  (AR v2) # 3FsK  
音轨  7  精确地校准抓取  1)  [74D60627]  (AR v2) ))7CqN  
音轨  8  精确地校准抓取  1)  [8BEFF100]  (AR v2) TCkMJs?  
音轨  9  精确地校准抓取  1)  [7233CF70]  (AR v2) ' 'p<C)Q  
音轨 10  精确地校准抓取  1)  [5A34BE68]  (AR v2) 6R#igLm  
E>u U6#v  
所有音轨精确校准抓取 EO/41O  
=9:gW5F69  
状态报告结尾
]L k- -\  
nJwP|P_  
链接:http://pan.baidu.com/s/1jH8f2Rk 密码: l,UOP[j  
此帖售价 5 金钱,已有 13 人购买 [记录] [购买]
购买后,将显示帖子中所有出售内容。
若发现会员采用欺骗的方法获取财富,请立刻举报,我们会对会员处以2-N倍的罚金,严重者封掉ID!
此段为出售的内容,购买后显示
R}D[ z7  
离线魏聪

发帖
168
金钱
2713
威望
41
贡献值
21
交易币
103
只看该作者 1楼 发表于: 2017-01-03
简直太棒了
离线wannam

发帖
2702
金钱
87018
威望
382
贡献值
189
交易币
3345
只看该作者 2楼 发表于: 2017-01-03
之前只有mp3版本的,谢谢楼主!
离线mich008

发帖
839
金钱
5917
威望
24
贡献值
15
交易币
901
只看该作者 3楼 发表于: 2017-01-04
无损版的 收下了

发帖
2740
金钱
30927
威望
620
贡献值
37
交易币
393
只看该作者 4楼 发表于: 2017-01-05
感谢分享

离线lifan_npl

发帖
2196
金钱
31917
威望
851
贡献值
428
交易币
2569
只看该作者 5楼 发表于: 2017-01-05
谢谢幽灵分享,辛苦了
我的淘宝:
http://shop63152617.taobao.com  
离线Mr灬W

发帖
1130
金钱
12952
威望
161
贡献值
56
交易币
1283
只看该作者 6楼 发表于: 2017-01-08
感谢分享!
Heal The World
离线mjnet

发帖
380
金钱
30579
威望
104
贡献值
54
交易币
557
只看该作者 7楼 发表于: 2017-02-07
謝謝樓主!!
离线mjbad25

发帖
167
金钱
4672
威望
0
贡献值
1
交易币
172
只看该作者 8楼 发表于: 2017-04-02
这里面有非常好的歌
离线michael0829

发帖
955
金钱
9809
威望
90
贡献值
70
交易币
1204
只看该作者 9楼 发表于: 2017-04-19
谢谢分享!
I Love You Michael Jackson Forever!
I Just Can't Stop Loving You Michel!
快速回复
限100 字节
 
上一个 下一个