论坛风格切换切换到宽版
  • 187阅读
  • 7回复

[亲传][Album] 1972 Got To Be There (JP - POCT-1837) - WAV整轨 ♬by幽灵 [复制链接]

上一主题 下一主题
离线mjghosts
 

发帖
8191
金钱
204337
威望
9035
贡献值
2641
交易币
4550
只看楼主 倒序阅读 楼主  发表于: 01-03
— 本帖被 mjghosts 执行加亮操作(2017-01-03) —
*MJ首张个人专辑,是他演艺生涯中又一个重要的里程碑,经典程度无需多介绍!资源取自1992年日本初次CD化首版,完美精确校准抓轨! Rg+# (y  
{+[ Ex2b$  
注:独家整理,转载请注明出处!EAC无损整轨(压缩包内含CD图片) 3(nnN[?N,5  
#?,"/Btq  
解压密码:www.mjsunny.com
7\ZSXQy1W  
)jt?X}  
Tracklist nLC5FA7<  
1 Ain't No Sunshine 4:11 1o_6WU  
2 I Wanna Be Where You Are 2:59 ^~6gkS }  
3 Girl Don't Take Your Love From Me 3:47 d @ l  
4 In Our Small Way 3:38 `M. I.Z_  
5 Got To Be There 3:23 b'z\|jY  
6 Rockin' Robin 2:31 lN0u1)'2  
7 Wings Of My Love 3:21 ]!N=Z }LD  
8 Maria (You Were The Only One) 3:41 |[>yJXxEL@  
9 Love Is Here And Now You're Gone 2:51 7+IRI|d  
10 You've Got A Friend 4:52
g!o2vTt5  
^".6~{  
+_u~Np  
TJ_6:;4,|_  
DsD? &:  
s&<76kwl  
Exact Audio Copy V1.0 beta 6 from 9. April 2015 jA[")RVG  
[N}QCy  
EAC 抓取日志文件从10. 十二月 2016, 0:28 m6]6 !_  
9sd}Z,l  
Michael Jackson / Got To Be There (d (>0YMv  
x5Fo?E  
使用驱动器  :MATSHITADVD-RAM UJ890AS   Adapter: 1  ID: 1 jUgx ;=  
M)AvcZNs  
读取模式      : 可靠Secure fakad#O  
使用精确流     : 是 wu &lG!#  
清空音频缓存    : 否 ~C>Q+tR8  
使用 C2 指示器 : 是 }UQ,B  
" vc4QH$  
读取偏移校正:               : 102 }gB^C3b6  
读取 Lead-In 和 Lead-Out : 否 (I'{ pF)  
用静音填充抓取中丢失偏移的采样       : 是 -mmQ]'.0  
去除首尾静音块               : 否 o_[~{@RoR  
在CRC 计算中使用了空样本       : 是 &0"*.:J9  
已用接口                  : Win NT 及 2000 本地 Win32 接口  H{Lt,#  
[p}~M-$V8Y  
所用输出模式: : 内部 WAV 函数 Wm5[+z|2?9  
样本格式    : 44.100 Hz; 16 Bit; 立体声 1uR@ZK  
bAuiMw7!  
a? PH`5O  
已抓取 CD 的 TOC J$s p6 g>K  
a|#pl!  
     音轨 |    起始    |    长度    |  起始扇区  |  结束扇区   UvB\kIH  
    -------------------------------------------- OL:hNbw'~T  
      1 |  0:00.37 |  4:13.32 |     37 |  19043 7!FiPH~kM  
      2 |  4:13.69 |  3:02.53 |  19044 |  32746 #F2DEo^0  
      3 |  7:16.47 |  3:51.05 |  32747 |  50076 kM=&Tfpj  
      4 | 11:07.52 |  3:41.27 |  50077 |  66678 |ITb1O`_P  
      5 | 14:49.04 |  3:24.70 |  66679 |  82048 BM)a,fIgo  
      6 | 18:13.74 |  2:34.48 |  82049 |  93646 0Q8iX)  
      7 | 20:48.47 |  3:24.70 |  93647 | 109016 2Ur&_c6 P  
      8 | 24:13.42 |  3:43.32 | 109017 | 125773 ,!g/1m  
      9 | 27:56.74 |  2:53.73 | 125774 | 138821 b&1hj[`)  
     10 | 30:50.72 |  4:53.55 | 138822 | 160851 4gdXO  
,H mGp  
m39.j:BG5  
范围状态及错误 6"}F KRR  
0b8=94a{>  
已选择范围 P c5C*{C  
/RxqFpu|.  
     文件名 J:\12 Music*音乐\1992 Got To Be There (JP - POCT-1837)\CDImage.wav I3T;|;P7  
]~f-8!$$R  
     峰值电平 100.0 % v4uQ0~k~X  
     抓取速度 5.6 X Ukf:m&G  
     范围质量 100.0 % vS3Y9|-:  
     复制 CRC DEC77A36 U7f o4y1}  
     复制成功 \ :q@I]2  
&G\C[L  
没有错误发生 9(vp`Z8B4  
.RmoO\ ,Gm  
|o(te  
AccurateRip 摘要 m6 xbO  
oblw!)  
音轨  1  精确地校准抓取  1)  [C298D8E7]  (AR v2) }S13]Kk?=  
音轨  2  精确地校准抓取  1)  [9A1E4249]  (AR v2) *p0n^XZ% ?  
音轨  3  精确地校准抓取  1)  [E9052BA8]  (AR v2) HTMo.hr  
音轨  4  精确地校准抓取  1)  [3175D0BF]  (AR v2) c5O8,sT  
音轨  5  精确地校准抓取  1)  [06E7012D]  (AR v2) cSG(kFQ  
音轨  6  精确地校准抓取  1)  [F0954442]  (AR v2) 6!*zgA5M'  
音轨  7  精确地校准抓取  1)  [74D60627]  (AR v2) Iq6EoDoq  
音轨  8  精确地校准抓取  1)  [8BEFF100]  (AR v2) qxZf!NX5  
音轨  9  精确地校准抓取  1)  [7233CF70]  (AR v2) !A|}_K1Cr  
音轨 10  精确地校准抓取  1)  [5A34BE68]  (AR v2) %.\+j,G7  
<&)zT#"  
所有音轨精确校准抓取 QAY:H@Gt:  
7/BjWU5*  
状态报告结尾
d+ $:u  
k{ZQM  
链接:http://pan.baidu.com/s/1jH8f2Rk 密码: Tpkt'|8  
此帖售价 5 金钱,已有 7 人购买 [记录] [购买]
购买后,将显示帖子中所有出售内容。
若发现会员采用欺骗的方法获取财富,请立刻举报,我们会对会员处以2-N倍的罚金,严重者封掉ID!
此段为出售的内容,购买后显示
uLI;_,/:  
离线魏聪

发帖
159
金钱
2897
威望
41
贡献值
21
交易币
94
只看该作者 1楼 发表于: 01-03
简直太棒了
离线wannam

发帖
2546
金钱
69469
威望
363
贡献值
169
交易币
3189
只看该作者 2楼 发表于: 01-03
之前只有mp3版本的,谢谢楼主!
离线mich008

发帖
749
金钱
4931
威望
24
贡献值
15
交易币
811
只看该作者 3楼 发表于: 01-04
无损版的 收下了

发帖
2626
金钱
27927
威望
599
贡献值
31
交易币
255
只看该作者 4楼 发表于: 01-05
感谢分享

离线lifan_npl

发帖
2058
金钱
18220
威望
777
贡献值
337
交易币
2411
只看该作者 5楼 发表于: 01-05
谢谢幽灵分享,辛苦了
我的淘宝:
http://shop63152617.taobao.com  
离线Mr灬W

发帖
1146
金钱
13022
威望
152
贡献值
46
交易币
1271
只看该作者 6楼 发表于: 01-08
感谢分享!
Heal The World
离线mjnet

发帖
314
金钱
24322
威望
95
贡献值
50
交易币
475
只看该作者 7楼 发表于: 02-07
謝謝樓主!!
快速回复
限100 字节
 
上一个 下一个