论坛风格切换切换到宽版
  • 347阅读
  • 9回复

[亲传][Album] 1972 Got To Be There (JP - POCT-1837) - WAV整轨 ♬by幽灵 [复制链接]

上一主题 下一主题
离线mjghosts
 

发帖
8233
金钱
208923
威望
9161
贡献值
2712
交易币
4672
只看楼主 倒序阅读 楼主  发表于: 01-03
— 本帖被 mjghosts 执行加亮操作(2017-01-03) —
*MJ首张个人专辑,是他演艺生涯中又一个重要的里程碑,经典程度无需多介绍!资源取自1992年日本初次CD化首版,完美精确校准抓轨! rJa$9B*^  
ur vduE  
注:独家整理,转载请注明出处!EAC无损整轨(压缩包内含CD图片) ~>0qZ{3J_  
p~.8\bI=  
解压密码:www.mjsunny.com
Iyd?|f"  
/)xlJUq  
Tracklist kQaSbpNmH  
1 Ain't No Sunshine 4:11 pq:7F  
2 I Wanna Be Where You Are 2:59 >a1{397Y}  
3 Girl Don't Take Your Love From Me 3:47 =pA IvU  
4 In Our Small Way 3:38 ;pD)m/$h`  
5 Got To Be There 3:23 8F)G7 H ,  
6 Rockin' Robin 2:31 9_fePS|Z4  
7 Wings Of My Love 3:21 `o79g"kxe  
8 Maria (You Were The Only One) 3:41 l7JY]?p  
9 Love Is Here And Now You're Gone 2:51 7n)&FX K`  
10 You've Got A Friend 4:52
@c'|Iqy`  
aFY_:.o2k`  
k:A|'NK~  
 Voh hQ  
">dq0gD  
'#O_}|ZN  
Exact Audio Copy V1.0 beta 6 from 9. April 2015 Oajv^H,Em  
Qq0l* )mX  
EAC 抓取日志文件从10. 十二月 2016, 0:28 tn/T6C^)  
tPuut\ee  
Michael Jackson / Got To Be There ARh6V&Hi-  
3$M3Q]z  
使用驱动器  :MATSHITADVD-RAM UJ890AS   Adapter: 1  ID: 1 ySdN;d:q  
['X[qn  
读取模式      : 可靠Secure >cOei K  
使用精确流     : 是 ,8K'F  
清空音频缓存    : 否 utO.WfWP  
使用 C2 指示器 : 是 Jj"HpK>[  
EZr6oO@Nc  
读取偏移校正:               : 102 H/cTJ9zz  
读取 Lead-In 和 Lead-Out : 否 RR25Q. c  
用静音填充抓取中丢失偏移的采样       : 是 sk X]8  
去除首尾静音块               : 否 cx(2jk}6  
在CRC 计算中使用了空样本       : 是 12gw#J/)9h  
已用接口                  : Win NT 及 2000 本地 Win32 接口 n9}RW;N+u  
Ph)| j&]  
所用输出模式: : 内部 WAV 函数 z\Ui8jo:;  
样本格式    : 44.100 Hz; 16 Bit; 立体声 YN#XmX%  
1xC`ZhjcD  
fOBN=y6x  
已抓取 CD 的 TOC bF6gBM@*  
NhDA7z`b'J  
     音轨 |    起始    |    长度    |  起始扇区  |  结束扇区   Xiju"Cup"  
    -------------------------------------------- X%`KYo%  
      1 |  0:00.37 |  4:13.32 |     37 |  19043 \^s2W:c  
      2 |  4:13.69 |  3:02.53 |  19044 |  32746 msG3 ~@q  
      3 |  7:16.47 |  3:51.05 |  32747 |  50076 X 7&U3v  
      4 | 11:07.52 |  3:41.27 |  50077 |  66678 _#(s2.h~J  
      5 | 14:49.04 |  3:24.70 |  66679 |  82048 TU-c9"7M~  
      6 | 18:13.74 |  2:34.48 |  82049 |  93646 5% 'S  
      7 | 20:48.47 |  3:24.70 |  93647 | 109016 Vku#;:yUb^  
      8 | 24:13.42 |  3:43.32 | 109017 | 125773 }bCK  
      9 | 27:56.74 |  2:53.73 | 125774 | 138821 +i4P,Lp  
     10 | 30:50.72 |  4:53.55 | 138822 | 160851 q /:T1a7!  
d[" x= [f  
IY0 3"  
范围状态及错误 InP[yFV-z  
oFb\T iLu  
已选择范围 V*>73I  
sD2*x T  
     文件名 J:\12 Music*音乐\1992 Got To Be There (JP - POCT-1837)\CDImage.wav ;,mBT[_ZO  
'lxLnX  
     峰值电平 100.0 % x`Vy<h 33  
     抓取速度 5.6 X |GJBwrL^0  
     范围质量 100.0 % 7ytm .lU  
     复制 CRC DEC77A36 H<v c\r  
     复制成功 zC<'fT/rG  
qJ#L)  
没有错误发生 Q,OkO?uY  
}".\ 4B$n  
]$*$0  
AccurateRip 摘要 P&qy.0  
'?&B5C  
音轨  1  精确地校准抓取  1)  [C298D8E7]  (AR v2) ,apd3X%g  
音轨  2  精确地校准抓取  1)  [9A1E4249]  (AR v2) + TPbIRA  
音轨  3  精确地校准抓取  1)  [E9052BA8]  (AR v2) ;`X`c  
音轨  4  精确地校准抓取  1)  [3175D0BF]  (AR v2) mafAC73  
音轨  5  精确地校准抓取  1)  [06E7012D]  (AR v2) Qs#9X=6e@  
音轨  6  精确地校准抓取  1)  [F0954442]  (AR v2) mI{CM: :  
音轨  7  精确地校准抓取  1)  [74D60627]  (AR v2) -y7l?N5F>  
音轨  8  精确地校准抓取  1)  [8BEFF100]  (AR v2) I(iGs I  
音轨  9  精确地校准抓取  1)  [7233CF70]  (AR v2) %j 9vX$Hj  
音轨 10  精确地校准抓取  1)  [5A34BE68]  (AR v2) _BeX7  
g*"J10hyP  
所有音轨精确校准抓取 S%a}ip&  
1*eWvYo1  
状态报告结尾
YA/H;707l  
$)i"[  
链接:http://pan.baidu.com/s/1jH8f2Rk 密码: p lz=G}Y  
此帖售价 5 金钱,已有 9 人购买 [记录] [购买]
购买后,将显示帖子中所有出售内容。
若发现会员采用欺骗的方法获取财富,请立刻举报,我们会对会员处以2-N倍的罚金,严重者封掉ID!
此段为出售的内容,购买后显示
 hE?GO,  
离线魏聪

发帖
159
金钱
2897
威望
41
贡献值
21
交易币
94
只看该作者 1楼 发表于: 01-03
简直太棒了
离线wannam

发帖
2680
金钱
86709
威望
382
贡献值
189
交易币
3323
只看该作者 2楼 发表于: 01-03
之前只有mp3版本的,谢谢楼主!
离线mich008

发帖
784
金钱
5134
威望
24
贡献值
15
交易币
846
只看该作者 3楼 发表于: 01-04
无损版的 收下了

发帖
2650
金钱
28497
威望
617
贡献值
34
交易币
291
只看该作者 4楼 发表于: 01-05
感谢分享

离线lifan_npl

发帖
2086
金钱
18040
威望
787
贡献值
347
交易币
2439
只看该作者 5楼 发表于: 01-05
谢谢幽灵分享,辛苦了
我的淘宝:
http://shop63152617.taobao.com  
离线Mr灬W

发帖
1156
金钱
12831
威望
161
贡献值
56
交易币
1281
只看该作者 6楼 发表于: 01-08
感谢分享!
Heal The World
离线mjnet

发帖
352
金钱
30861
威望
104
贡献值
54
交易币
529
只看该作者 7楼 发表于: 02-07
謝謝樓主!!
离线mjbad25

发帖
134
金钱
6006
威望
0
贡献值
1
交易币
139
只看该作者 8楼 发表于: 04-02
这里面有非常好的歌
离线michael0829

发帖
946
金钱
8587
威望
90
贡献值
70
交易币
1195
只看该作者 9楼 发表于: 04-19
谢谢分享!
I Love You Michael Jackson Forever!
I Just Can't Stop Loving You Michel!
快速回复
限100 字节
 
上一个 下一个