论坛风格切换切换到宽版
  • 772阅读
  • 12回复

[亲传][Album] 1972 Got To Be There (JP - POCT-1837) - WAV整轨 ♬by幽灵 [复制链接]

上一主题 下一主题
离线mjghosts
 

发帖
8240
金钱
216247
威望
9172
贡献值
2721
交易币
4743
只看楼主 倒序阅读 楼主  发表于: 2017-01-03
— 本帖被 mjghosts 执行加亮操作(2017-01-03) —
*MJ首张个人专辑,是他演艺生涯中又一个重要的里程碑,经典程度无需多介绍!资源取自1992年日本初次CD化首版,完美精确校准抓轨! &Va="HNKt  
Pi+pQFz5  
注:独家整理,转载请注明出处!EAC无损整轨(压缩包内含CD图片) )]}G8A  
BG|m5f  
解压密码:www.mjsunny.com
R + ~b@  
@An}  
Tracklist arIEd VfNa  
1 Ain't No Sunshine 4:11 Brts ig,4  
2 I Wanna Be Where You Are 2:59 #x qiGK  
3 Girl Don't Take Your Love From Me 3:47 8.,d`~  
4 In Our Small Way 3:38 @XJ#oxM^  
5 Got To Be There 3:23 }DQTy.d;P  
6 Rockin' Robin 2:31 UX+vU@Co[  
7 Wings Of My Love 3:21 zYrJ Hn#vB  
8 Maria (You Were The Only One) 3:41 ue^HhZ9  
9 Love Is Here And Now You're Gone 2:51 J5(0J7C  
10 You've Got A Friend 4:52
,-hbwd~M  
k3H0$1  
81"` B2  
51JB,}dGH}  
?m5E Xe  
T>]T=  
Exact Audio Copy V1.0 beta 6 from 9. April 2015 i(pHJP:a:  
1cv~_jFh  
EAC 抓取日志文件从10. 十二月 2016, 0:28 2mn AL#  
'prHXzi(h  
Michael Jackson / Got To Be There ! ig& 8:  
2?GMKd)  
使用驱动器  :MATSHITADVD-RAM UJ890AS   Adapter: 1  ID: 1 ?*yyne  
^e_LnJ+  
读取模式      : 可靠Secure n V7Vc;  
使用精确流     : 是 ?' .AeoE-  
清空音频缓存    : 否 @2/|rq  
使用 C2 指示器 : 是 s{Y4wvQyB  
8^>c_%e}  
读取偏移校正:               : 102 :R,M Y"(  
读取 Lead-In 和 Lead-Out : 否 ^ *"fC  
用静音填充抓取中丢失偏移的采样       : 是 P[ WkW#  
去除首尾静音块               : 否 Z 5>~l  
在CRC 计算中使用了空样本       : 是 g[O?wH-a  
已用接口                  : Win NT 及 2000 本地 Win32 接口 25)9R^  
Reikf}9Q  
所用输出模式: : 内部 WAV 函数 [yXmnrxA  
样本格式    : 44.100 Hz; 16 Bit; 立体声 bV8+E u  
,x8;| o5  
8%7%[WC#  
已抓取 CD 的 TOC /I`TN5~  
OyZR&,q  
     音轨 |    起始    |    长度    |  起始扇区  |  结束扇区   Tc6cBe,  
    -------------------------------------------- +`HMl;0m  
      1 |  0:00.37 |  4:13.32 |     37 |  19043 ,n/]ALz>~  
      2 |  4:13.69 |  3:02.53 |  19044 |  32746 uY& 1[(Pb  
      3 |  7:16.47 |  3:51.05 |  32747 |  50076 V?u#WJy/  
      4 | 11:07.52 |  3:41.27 |  50077 |  66678 Pd91<L  
      5 | 14:49.04 |  3:24.70 |  66679 |  82048 UR sx>yx  
      6 | 18:13.74 |  2:34.48 |  82049 |  93646 /Q1*Vh4  
      7 | 20:48.47 |  3:24.70 |  93647 | 109016 s@\3|e5g  
      8 | 24:13.42 |  3:43.32 | 109017 | 125773 `OfhzOp  
      9 | 27:56.74 |  2:53.73 | 125774 | 138821 4=yzf  
     10 | 30:50.72 |  4:53.55 | 138822 | 160851 !nBbt?*  
|bnd92fvks  
zj`c%9N+  
范围状态及错误 lJK]S=cd  
jX7K- L  
已选择范围 iJTG +gx  
7Jb&~{DVk  
     文件名 J:\12 Music*音乐\1992 Got To Be There (JP - POCT-1837)\CDImage.wav :,8y8z$+  
| R,dsBd  
     峰值电平 100.0 % &GH [$(  
     抓取速度 5.6 X yCjc5d|tT  
     范围质量 100.0 % /E6)>y66  
     复制 CRC DEC77A36 5H._Q  
     复制成功 ,88B@a  
SrA6}kS  
没有错误发生 (CQ! &Z8  
mLq0;uGL|  
+HE,Q6-A  
AccurateRip 摘要 .3EEi3z6z  
>(:3H+  
音轨  1  精确地校准抓取  1)  [C298D8E7]  (AR v2) <_/etw86Z  
音轨  2  精确地校准抓取  1)  [9A1E4249]  (AR v2) []OS p&  
音轨  3  精确地校准抓取  1)  [E9052BA8]  (AR v2) Q*1Avy6]  
音轨  4  精确地校准抓取  1)  [3175D0BF]  (AR v2) 2Jo|P A` 9  
音轨  5  精确地校准抓取  1)  [06E7012D]  (AR v2) i@{b+5$  
音轨  6  精确地校准抓取  1)  [F0954442]  (AR v2) %m|BXyf]_B  
音轨  7  精确地校准抓取  1)  [74D60627]  (AR v2) =>*}qen  
音轨  8  精确地校准抓取  1)  [8BEFF100]  (AR v2) g9GPy U  
音轨  9  精确地校准抓取  1)  [7233CF70]  (AR v2) m[ S1  
音轨 10  精确地校准抓取  1)  [5A34BE68]  (AR v2) B_!S\?}$  
\hJLa  
所有音轨精确校准抓取 _)CCD33$  
wC1) \ld  
状态报告结尾
_=w=!U&W  
`=TJw,q  
链接:http://pan.baidu.com/s/1jH8f2Rk 密码: iA2TvP#  
此帖售价 5 金钱,已有 12 人购买 [记录] [购买]
购买后,将显示帖子中所有出售内容。
若发现会员采用欺骗的方法获取财富,请立刻举报,我们会对会员处以2-N倍的罚金,严重者封掉ID!
此段为出售的内容,购买后显示
u_=>r_J[b  
离线魏聪

发帖
168
金钱
2713
威望
41
贡献值
21
交易币
103
只看该作者 1楼 发表于: 2017-01-03
简直太棒了
离线wannam

发帖
2701
金钱
86995
威望
382
贡献值
189
交易币
3344
只看该作者 2楼 发表于: 2017-01-03
之前只有mp3版本的,谢谢楼主!
离线mich008

发帖
824
金钱
5499
威望
24
贡献值
15
交易币
886
只看该作者 3楼 发表于: 2017-01-04
无损版的 收下了

发帖
2729
金钱
31485
威望
620
贡献值
37
交易币
382
只看该作者 4楼 发表于: 2017-01-05
感谢分享

离线lifan_npl

发帖
2173
金钱
16819
威望
782
贡献值
347
交易币
2526
只看该作者 5楼 发表于: 2017-01-05
谢谢幽灵分享,辛苦了
我的淘宝:
http://shop63152617.taobao.com  
离线Mr灬W

发帖
1129
金钱
12950
威望
161
贡献值
56
交易币
1282
只看该作者 6楼 发表于: 2017-01-08
感谢分享!
Heal The World
离线mjnet

发帖
380
金钱
30464
威望
104
贡献值
54
交易币
557
只看该作者 7楼 发表于: 2017-02-07
謝謝樓主!!
离线mjbad25

发帖
134
金钱
6006
威望
0
贡献值
1
交易币
139
只看该作者 8楼 发表于: 2017-04-02
这里面有非常好的歌
离线michael0829

发帖
954
金钱
9364
威望
90
贡献值
70
交易币
1203
只看该作者 9楼 发表于: 2017-04-19
谢谢分享!
I Love You Michael Jackson Forever!
I Just Can't Stop Loving You Michel!
快速回复
限100 字节
 
上一个 下一个