论坛风格切换切换到宽版
  • 424阅读
  • 10回复

[亲传][Album] 1972 Got To Be There (JP - POCT-1837) - WAV整轨 ♬by幽灵 [复制链接]

上一主题 下一主题
离线mjghosts
 

发帖
8247
金钱
210503
威望
9164
贡献值
2715
交易币
4698
只看楼主 倒序阅读 楼主  发表于: 01-03
— 本帖被 mjghosts 执行加亮操作(2017-01-03) —
*MJ首张个人专辑,是他演艺生涯中又一个重要的里程碑,经典程度无需多介绍!资源取自1992年日本初次CD化首版,完美精确校准抓轨! lO dw H"  
g'{hp:  
注:独家整理,转载请注明出处!EAC无损整轨(压缩包内含CD图片) g)#.|d+  
TrC :CL  
解压密码:www.mjsunny.com
)Qx&m}  
Z*Jp?[##  
Tracklist jq"iLgEMO  
1 Ain't No Sunshine 4:11 M8iI e:{ c  
2 I Wanna Be Where You Are 2:59 =}Xw}X+[WY  
3 Girl Don't Take Your Love From Me 3:47 O^yD b  
4 In Our Small Way 3:38 ECEDNib  
5 Got To Be There 3:23 (D rDWD4_  
6 Rockin' Robin 2:31 VA0p1AD  
7 Wings Of My Love 3:21  MuCnBx  
8 Maria (You Were The Only One) 3:41 4Hcds9y9  
9 Love Is Here And Now You're Gone 2:51 J|GEt@o3  
10 You've Got A Friend 4:52
(jB_uMuS  
#Mmr{4m  
5fVm392+  
\"W _\&X  
4c/.#?  
H`028^CH$  
Exact Audio Copy V1.0 beta 6 from 9. April 2015 i!9|R)c  
mbh;oX+  
EAC 抓取日志文件从10. 十二月 2016, 0:28 skR I \  
i4 Vv6Sx1  
Michael Jackson / Got To Be There 6}9`z8  
sLh %k  
使用驱动器  :MATSHITADVD-RAM UJ890AS   Adapter: 1  ID: 1 ,Xt!dT-  
Q!_@Am"h  
读取模式      : 可靠Secure AD/7k3:  
使用精确流     : 是 ;^`WX}]C(  
清空音频缓存    : 否 G)'(%rl  
使用 C2 指示器 : 是 'E#;`}&Ah  
FaUc"J  
读取偏移校正:               : 102 4`mF6%UC  
读取 Lead-In 和 Lead-Out : 否 -6./bB g  
用静音填充抓取中丢失偏移的采样       : 是 [hT|]|fJS;  
去除首尾静音块               : 否 v%%;Cp73  
在CRC 计算中使用了空样本       : 是 #MhieG5  
已用接口                  : Win NT 及 2000 本地 Win32 接口 ~^u#Q\KE"  
j%y)%4F8  
所用输出模式: : 内部 WAV 函数 l~v BA$,  
样本格式    : 44.100 Hz; 16 Bit; 立体声 DKGZm<G>  
;0!rq^JG  
~ [4oA$[a|  
已抓取 CD 的 TOC d].(x)|st  
O)4P)KAO<  
     音轨 |    起始    |    长度    |  起始扇区  |  结束扇区   ;.g <u  
    -------------------------------------------- zwyK \j  
      1 |  0:00.37 |  4:13.32 |     37 |  19043 tLzX L *  
      2 |  4:13.69 |  3:02.53 |  19044 |  32746 \?X'U:  
      3 |  7:16.47 |  3:51.05 |  32747 |  50076 * ydU3LG7  
      4 | 11:07.52 |  3:41.27 |  50077 |  66678 ayb fBC  
      5 | 14:49.04 |  3:24.70 |  66679 |  82048 'n)]"G|  
      6 | 18:13.74 |  2:34.48 |  82049 |  93646 XZk?aik}`  
      7 | 20:48.47 |  3:24.70 |  93647 | 109016 $M(ZKS3,j  
      8 | 24:13.42 |  3:43.32 | 109017 | 125773 GGY WvGE+  
      9 | 27:56.74 |  2:53.73 | 125774 | 138821 Rf~? u)h1  
     10 | 30:50.72 |  4:53.55 | 138822 | 160851 ?+WSYg0  
%Z"I=;=nxI  
O\(0{qu  
范围状态及错误 :&/b}b!)AX  
C6XZZ  
已选择范围 . >{.!a  
X8Xw'  
     文件名 J:\12 Music*音乐\1992 Got To Be There (JP - POCT-1837)\CDImage.wav e uF@SS  
jo-qP4w  
     峰值电平 100.0 % iA^GA8dn  
     抓取速度 5.6 X j;|rI`67~  
     范围质量 100.0 % A;4O,p@   
     复制 CRC DEC77A36 <L72nwcK  
     复制成功 % e@Jc 3  
{M5[gr%  
没有错误发生 Z|z+[V}[  
nEZo F  
Vko1{$}t  
AccurateRip 摘要 M] +FTz  
UY_'F5X  
音轨  1  精确地校准抓取  1)  [C298D8E7]  (AR v2) K'`N(WiL  
音轨  2  精确地校准抓取  1)  [9A1E4249]  (AR v2) ZkyH<Aa  
音轨  3  精确地校准抓取  1)  [E9052BA8]  (AR v2) ;n9r;$!f  
音轨  4  精确地校准抓取  1)  [3175D0BF]  (AR v2) 483BrFV  
音轨  5  精确地校准抓取  1)  [06E7012D]  (AR v2) 2xchjU-  
音轨  6  精确地校准抓取  1)  [F0954442]  (AR v2) v\Y362Xv  
音轨  7  精确地校准抓取  1)  [74D60627]  (AR v2) H!D?;X  
音轨  8  精确地校准抓取  1)  [8BEFF100]  (AR v2) 6NO_S  
音轨  9  精确地校准抓取  1)  [7233CF70]  (AR v2) H)s$0Xd  
音轨 10  精确地校准抓取  1)  [5A34BE68]  (AR v2) %lw!4Z\gg  
Y6|8;2E  
所有音轨精确校准抓取 FM c9oyU~  
;_yp@.,\T  
状态报告结尾
^<0azza/(  
p+O 2 :  
链接:http://pan.baidu.com/s/1jH8f2Rk 密码: +%$'( t s  
此帖售价 5 金钱,已有 10 人购买 [记录] [购买]
购买后,将显示帖子中所有出售内容。
若发现会员采用欺骗的方法获取财富,请立刻举报,我们会对会员处以2-N倍的罚金,严重者封掉ID!
此段为出售的内容,购买后显示
u0;FQr2  
离线魏聪

发帖
159
金钱
2897
威望
41
贡献值
21
交易币
94
只看该作者 1楼 发表于: 01-03
简直太棒了
离线wannam

发帖
2697
金钱
86875
威望
382
贡献值
189
交易币
3340
只看该作者 2楼 发表于: 01-03
之前只有mp3版本的,谢谢楼主!
离线mich008

发帖
796
金钱
5092
威望
24
贡献值
15
交易币
858
只看该作者 3楼 发表于: 01-04
无损版的 收下了

发帖
2658
金钱
28594
威望
617
贡献值
34
交易币
299
只看该作者 4楼 发表于: 01-05
感谢分享

离线lifan_npl

发帖
2117
金钱
17682
威望
787
贡献值
347
交易币
2470
只看该作者 5楼 发表于: 01-05
谢谢幽灵分享,辛苦了
我的淘宝:
http://shop63152617.taobao.com  
离线Mr灬W

发帖
1156
金钱
12819
威望
161
贡献值
56
交易币
1281
只看该作者 6楼 发表于: 01-08
感谢分享!
Heal The World
离线mjnet

发帖
368
金钱
30506
威望
104
贡献值
54
交易币
545
只看该作者 7楼 发表于: 02-07
謝謝樓主!!
离线mjbad25

发帖
134
金钱
6006
威望
0
贡献值
1
交易币
139
只看该作者 8楼 发表于: 04-02
这里面有非常好的歌
在线michael0829

发帖
946
金钱
8862
威望
90
贡献值
70
交易币
1195
只看该作者 9楼 发表于: 04-19
谢谢分享!
I Love You Michael Jackson Forever!
I Just Can't Stop Loving You Michel!
快速回复
限100 字节
 
上一个 下一个