论坛风格切换切换到宽版
  • 1122阅读
  • 13回复

[亲传][Album] 1972 Got To Be There (JP - POCT-1837) - WAV整轨 ♬by幽灵 [复制链接]

上一主题 下一主题
离线mjghosts
 

发帖
8256
金钱
219309
威望
9187
贡献值
2734
交易币
4791
只看楼主 倒序阅读 楼主  发表于: 2017-01-03
— 本帖被 mjghosts 执行加亮操作(2017-01-03) —
*MJ首张个人专辑,是他演艺生涯中又一个重要的里程碑,经典程度无需多介绍!资源取自1992年日本初次CD化首版,完美精确校准抓轨! U} w@,6  
>7~,w1t  
注:独家整理,转载请注明出处!EAC无损整轨(压缩包内含CD图片) ~ H/ZiBL@  
h0I5zQZm  
解压密码:www.mjsunny.com
*B9xL[}  
m_,Jbf  
Tracklist v5U'ky :  
1 Ain't No Sunshine 4:11 l}&2A*c.  
2 I Wanna Be Where You Are 2:59 ]q4(%Q  
3 Girl Don't Take Your Love From Me 3:47 'f CSP|  
4 In Our Small Way 3:38 PZlPC#E-  
5 Got To Be There 3:23 xvomn`X1  
6 Rockin' Robin 2:31 y O,Jgn  
7 Wings Of My Love 3:21 M^>l>?#rl  
8 Maria (You Were The Only One) 3:41 VL'wrgk  
9 Love Is Here And Now You're Gone 2:51 e,lLHg  
10 You've Got A Friend 4:52
TQ0ZBhd  
F^S]7{  
rBy0hGx  
!hHX8TD^J  
{<-wm-]mo  
pZ3sp!  
Exact Audio Copy V1.0 beta 6 from 9. April 2015  |=![J?  
Lo5pn  
EAC 抓取日志文件从10. 十二月 2016, 0:28 Q1rEUbvCE  
P#`M8k  
Michael Jackson / Got To Be There WWH<s%C  
^S?f"''y3  
使用驱动器  :MATSHITADVD-RAM UJ890AS   Adapter: 1  ID: 1 #y[omla8  
j+{cc: h"X  
读取模式      : 可靠Secure jZ:/d!$S  
使用精确流     : 是 cMnN} '  
清空音频缓存    : 否 !H{>c@i  
使用 C2 指示器 : 是 |v5 ge3-  
* fj`+J  
读取偏移校正:               : 102 5MD'AP:  
读取 Lead-In 和 Lead-Out : 否 .Dl ?a>I  
用静音填充抓取中丢失偏移的采样       : 是 /!A"[Tyt  
去除首尾静音块               : 否 yFQaNuZPC  
在CRC 计算中使用了空样本       : 是 ~J> ;l s1  
已用接口                  : Win NT 及 2000 本地 Win32 接口 \~(kGE--+  
\%.oi@A  
所用输出模式: : 内部 WAV 函数 -)3+/4Q(  
样本格式    : 44.100 Hz; 16 Bit; 立体声 Kg2Du'WQ^  
+PI}$c-|`  
|G$-5 7fk  
已抓取 CD 的 TOC _>kc:  
^Jq('@  
     音轨 |    起始    |    长度    |  起始扇区  |  结束扇区   (_>Su QK  
    -------------------------------------------- B)1(  
      1 |  0:00.37 |  4:13.32 |     37 |  19043 cfa1"u""e  
      2 |  4:13.69 |  3:02.53 |  19044 |  32746 e@TwZ6l  
      3 |  7:16.47 |  3:51.05 |  32747 |  50076 !6RDq`  
      4 | 11:07.52 |  3:41.27 |  50077 |  66678 92A9gY  
      5 | 14:49.04 |  3:24.70 |  66679 |  82048 N[Ei%I  
      6 | 18:13.74 |  2:34.48 |  82049 |  93646 G)t-W %D&  
      7 | 20:48.47 |  3:24.70 |  93647 | 109016 (l-= /6-  
      8 | 24:13.42 |  3:43.32 | 109017 | 125773 qm:C1#<p   
      9 | 27:56.74 |  2:53.73 | 125774 | 138821 .r6x9t  
     10 | 30:50.72 |  4:53.55 | 138822 | 160851 <bSPKTKL  
eL(<p]  
$L6R,%c  
范围状态及错误 ~&qvS  
!bYVLFp=\_  
已选择范围 at@tS>Dv  
Ew| Z<(  
     文件名 J:\12 Music*音乐\1992 Got To Be There (JP - POCT-1837)\CDImage.wav 7g+T  
yF.Gz`yi  
     峰值电平 100.0 % .IdbaH _a  
     抓取速度 5.6 X ]j6pd*H  
     范围质量 100.0 % &,jUaC5I  
     复制 CRC DEC77A36 u^{p' a'  
     复制成功 `pZX!6Wn  
>uq0}HB$a  
没有错误发生 |/n7(!7$[v  
W$NFk(  
-wV2 79^b  
AccurateRip 摘要 UhS:tT]7  
;)CN=J!  
音轨  1  精确地校准抓取  1)  [C298D8E7]  (AR v2) 3Q=\W<Wu  
音轨  2  精确地校准抓取  1)  [9A1E4249]  (AR v2) eQ#i.%   
音轨  3  精确地校准抓取  1)  [E9052BA8]  (AR v2) 2xO[ ?fR  
音轨  4  精确地校准抓取  1)  [3175D0BF]  (AR v2) g*YA~J@  
音轨  5  精确地校准抓取  1)  [06E7012D]  (AR v2) 'hBnV xd&  
音轨  6  精确地校准抓取  1)  [F0954442]  (AR v2) -WqhOZ  
音轨  7  精确地校准抓取  1)  [74D60627]  (AR v2) a_5s'Dh  
音轨  8  精确地校准抓取  1)  [8BEFF100]  (AR v2) JXe~ 9/!  
音轨  9  精确地校准抓取  1)  [7233CF70]  (AR v2) "ckK{kS4~  
音轨 10  精确地校准抓取  1)  [5A34BE68]  (AR v2) 54>0Dv??H  
! Ea!"}  
所有音轨精确校准抓取 ;2`6eyr  
ZJ)Z  
状态报告结尾
"ufSHrZv  
_h}(j Ed!  
链接:http://pan.baidu.com/s/1jH8f2Rk 密码: =oL:|$Pj  
此帖售价 5 金钱,已有 13 人购买 [记录] [购买]
购买后,将显示帖子中所有出售内容。
若发现会员采用欺骗的方法获取财富,请立刻举报,我们会对会员处以2-N倍的罚金,严重者封掉ID!
此段为出售的内容,购买后显示
Q2m[XcnX  
离线魏聪

发帖
168
金钱
2713
威望
41
贡献值
21
交易币
103
只看该作者 1楼 发表于: 2017-01-03
简直太棒了
离线wannam

发帖
2703
金钱
87033
威望
382
贡献值
189
交易币
3346
只看该作者 2楼 发表于: 2017-01-03
之前只有mp3版本的,谢谢楼主!
离线mich008

发帖
849
金钱
5996
威望
24
贡献值
15
交易币
911
只看该作者 3楼 发表于: 2017-01-04
无损版的 收下了

发帖
2751
金钱
30855
威望
621
贡献值
38
交易币
408
只看该作者 4楼 发表于: 2017-01-05
感谢分享

离线lifan_npl

发帖
2212
金钱
31692
威望
853
贡献值
430
交易币
2593
只看该作者 5楼 发表于: 2017-01-05
谢谢幽灵分享,辛苦了
我的淘宝店:
http://shop63152617.taobao.com  
离线Mr灬W

发帖
1130
金钱
12952
威望
161
贡献值
56
交易币
1283
只看该作者 6楼 发表于: 2017-01-08
感谢分享!
Heal The World
离线mjnet

发帖
381
金钱
30548
威望
104
贡献值
54
交易币
558
只看该作者 7楼 发表于: 2017-02-07
謝謝樓主!!
离线mjbad25

发帖
167
金钱
4672
威望
0
贡献值
1
交易币
172
只看该作者 8楼 发表于: 2017-04-02
这里面有非常好的歌
离线michael0829

发帖
955
金钱
10079
威望
90
贡献值
70
交易币
1204
只看该作者 9楼 发表于: 2017-04-19
谢谢分享!
I Love You Michael Jackson Forever!
I Just Can't Stop Loving You Michel!
快速回复
限100 字节
 
上一个 下一个