论坛风格切换切换到宽版
  • 287阅读
  • 9回复

[亲传][Album] 1972 Got To Be There (JP - POCT-1837) - WAV整轨 ♬by幽灵 [复制链接]

上一主题 下一主题
离线mjghosts
 

发帖
8195
金钱
205476
威望
9035
贡献值
2641
交易币
4554
只看楼主 倒序阅读 楼主  发表于: 01-03
— 本帖被 mjghosts 执行加亮操作(2017-01-03) —
*MJ首张个人专辑,是他演艺生涯中又一个重要的里程碑,经典程度无需多介绍!资源取自1992年日本初次CD化首版,完美精确校准抓轨! +J o 3rX'`  
s#+"5&!s  
注:独家整理,转载请注明出处!EAC无损整轨(压缩包内含CD图片) `N|U"s;  
iA55yT+  
解压密码:www.mjsunny.com
lj " Z  
~_DF06G  
Tracklist !Y ;H(.A/  
1 Ain't No Sunshine 4:11 xoqiRtlY:  
2 I Wanna Be Where You Are 2:59 w)45SZ.  
3 Girl Don't Take Your Love From Me 3:47 =)(3Dp  
4 In Our Small Way 3:38 G{@C"H[$<  
5 Got To Be There 3:23 <lC]>L  
6 Rockin' Robin 2:31 t9G}Yd[T  
7 Wings Of My Love 3:21 UH5w7M  
8 Maria (You Were The Only One) 3:41 . _1jk  
9 Love Is Here And Now You're Gone 2:51 6!ZVd#OM%  
10 You've Got A Friend 4:52
HR;/Br  
\M7I&~V  
%m oJF1  
;_iPm?Y8  
{] O`g G  
!/947Rn  
Exact Audio Copy V1.0 beta 6 from 9. April 2015 Mec{_jiH&D  
?L=A2C\_-  
EAC 抓取日志文件从10. 十二月 2016, 0:28 1  o|T  
Uh.Sc:trA  
Michael Jackson / Got To Be There +jtA&1cf  
R*yU<9Mm8  
使用驱动器  :MATSHITADVD-RAM UJ890AS   Adapter: 1  ID: 1 2Pp&d>E4  
u?kD)5Nk  
读取模式      : 可靠Secure 8%[HYgd5)  
使用精确流     : 是 uUG*0Lj  
清空音频缓存    : 否 <*u C  
使用 C2 指示器 : 是 /)9W1U^B  
`5'2Hg+  
读取偏移校正:               : 102 =XT)J6z^"  
读取 Lead-In 和 Lead-Out : 否 |;u}sX1t9  
用静音填充抓取中丢失偏移的采样       : 是 5)'P'kVi7.  
去除首尾静音块               : 否 wqD5d   
在CRC 计算中使用了空样本       : 是 }"zC >eX&  
已用接口                  : Win NT 及 2000 本地 Win32 接口 = .oHnMX2M  
(][LQ6Pc  
所用输出模式: : 内部 WAV 函数 LdTdQ,s<  
样本格式    : 44.100 Hz; 16 Bit; 立体声 <7n]Ai@Y  
t`|,6qEG  
~`eHHgX  
已抓取 CD 的 TOC .L;@=Yg )  
N/~N7MwJj  
     音轨 |    起始    |    长度    |  起始扇区  |  结束扇区   ~]uZy=P? 5  
    -------------------------------------------- AQ{zx1^2>K  
      1 |  0:00.37 |  4:13.32 |     37 |  19043 =AOWeLk*G  
      2 |  4:13.69 |  3:02.53 |  19044 |  32746 Z1,gtl ?  
      3 |  7:16.47 |  3:51.05 |  32747 |  50076 WZFH@I28  
      4 | 11:07.52 |  3:41.27 |  50077 |  66678 '2^ Yw  
      5 | 14:49.04 |  3:24.70 |  66679 |  82048 OXhAha`R  
      6 | 18:13.74 |  2:34.48 |  82049 |  93646 rPiNv 30L  
      7 | 20:48.47 |  3:24.70 |  93647 | 109016 ``QHG&$ /  
      8 | 24:13.42 |  3:43.32 | 109017 | 125773 (#Mp 5C'X  
      9 | 27:56.74 |  2:53.73 | 125774 | 138821 {aj/HFLNY  
     10 | 30:50.72 |  4:53.55 | 138822 | 160851 =Hu0v}i/  
.;I29yk\XS  
zFhgE*5  
范围状态及错误 e<=;i" |  
\,xFg w4  
已选择范围 \cySWP[  
Tj/GClD:%  
     文件名 J:\12 Music*音乐\1992 Got To Be There (JP - POCT-1837)\CDImage.wav mh` |=M]8E  
xAdq+$><  
     峰值电平 100.0 % : d' 5O8  
     抓取速度 5.6 X Zk`#VH  
     范围质量 100.0 % :,UN8L "  
     复制 CRC DEC77A36 S%6U~@hig  
     复制成功 \V%_hl  
AXW!]=?X  
没有错误发生 (FVX57  
(JZ".En#X  
.iv3q?8.b  
AccurateRip 摘要 - q@69q  
SkP[|g'56  
音轨  1  精确地校准抓取  1)  [C298D8E7]  (AR v2) z +VV}:Q  
音轨  2  精确地校准抓取  1)  [9A1E4249]  (AR v2) @$U e$  
音轨  3  精确地校准抓取  1)  [E9052BA8]  (AR v2) ti_u!kNv  
音轨  4  精确地校准抓取  1)  [3175D0BF]  (AR v2) >FFVY{F  
音轨  5  精确地校准抓取  1)  [06E7012D]  (AR v2) Gp|JU Fo  
音轨  6  精确地校准抓取  1)  [F0954442]  (AR v2) A3yi?y{[*  
音轨  7  精确地校准抓取  1)  [74D60627]  (AR v2) Yj8&  
音轨  8  精确地校准抓取  1)  [8BEFF100]  (AR v2) Eo=HNe  
音轨  9  精确地校准抓取  1)  [7233CF70]  (AR v2) O E|+R4M  
音轨 10  精确地校准抓取  1)  [5A34BE68]  (AR v2) !~J WYY  
Vy;_GfT$  
所有音轨精确校准抓取 Oz>io\P94  
RV92qn B  
状态报告结尾
e "_"vbk  
J/7 u7_  
链接:http://pan.baidu.com/s/1jH8f2Rk 密码: {6tx,;r(F  
此帖售价 5 金钱,已有 9 人购买 [记录] [购买]
购买后,将显示帖子中所有出售内容。
若发现会员采用欺骗的方法获取财富,请立刻举报,我们会对会员处以2-N倍的罚金,严重者封掉ID!
此段为出售的内容,购买后显示
q]l\`/R%u  
离线魏聪

发帖
159
金钱
2897
威望
41
贡献值
21
交易币
94
只看该作者 1楼 发表于: 01-03
简直太棒了
离线wannam

发帖
2606
金钱
80603
威望
363
贡献值
169
交易币
3249
只看该作者 2楼 发表于: 01-03
之前只有mp3版本的,谢谢楼主!
离线mich008

发帖
761
金钱
5008
威望
24
贡献值
15
交易币
823
只看该作者 3楼 发表于: 01-04
无损版的 收下了

发帖
2632
金钱
28152
威望
616
贡献值
33
交易币
269
只看该作者 4楼 发表于: 01-05
感谢分享

离线lifan_npl

发帖
2063
金钱
18206
威望
777
贡献值
337
交易币
2416
只看该作者 5楼 发表于: 01-05
谢谢幽灵分享,辛苦了
我的淘宝:
http://shop63152617.taobao.com  
在线Mr灬W

发帖
1148
金钱
12944
威望
151
贡献值
46
交易币
1273
只看该作者 6楼 发表于: 01-08
感谢分享!
Heal The World
离线mjnet

发帖
323
金钱
30306
威望
101
贡献值
51
交易币
488
只看该作者 7楼 发表于: 02-07
謝謝樓主!!
离线mjbad25

发帖
134
金钱
6006
威望
0
贡献值
1
交易币
139
只看该作者 8楼 发表于: 04-02
这里面有非常好的歌
离线michael0829

发帖
928
金钱
8351
威望
91
贡献值
70
交易币
1177
只看该作者 9楼 发表于: 04-19
谢谢分享!
I Love You Michael Jackson Forever!
I Just Can't Stop Loving You Michel!
快速回复
限100 字节
 
上一个 下一个