论坛风格切换切换到宽版
  • 246阅读
  • 9回复

[亲传][Album] 1972 Got To Be There (JP - POCT-1837) - WAV整轨 ♬by幽灵 [复制链接]

上一主题 下一主题
离线mjghosts
 

发帖
8193
金钱
205205
威望
9035
贡献值
2641
交易币
4552
只看楼主 倒序阅读 楼主  发表于: 01-03
— 本帖被 mjghosts 执行加亮操作(2017-01-03) —
*MJ首张个人专辑,是他演艺生涯中又一个重要的里程碑,经典程度无需多介绍!资源取自1992年日本初次CD化首版,完美精确校准抓轨!  X!j{o  
oP2fX_v1x  
注:独家整理,转载请注明出处!EAC无损整轨(压缩包内含CD图片) $&=p+  
)OLq_':^ @  
解压密码:www.mjsunny.com
cDoo*  
X<MO7I  
Tracklist X/; p-KX  
1 Ain't No Sunshine 4:11 ?6k}ii!c  
2 I Wanna Be Where You Are 2:59 cNKUu~C+  
3 Girl Don't Take Your Love From Me 3:47 ^@"H1  
4 In Our Small Way 3:38 y')RT R{>M  
5 Got To Be There 3:23 4#(ZNP  
6 Rockin' Robin 2:31 ]u-02g  
7 Wings Of My Love 3:21 oR~e#<$;  
8 Maria (You Were The Only One) 3:41 D&ve15wL  
9 Love Is Here And Now You're Gone 2:51 yfDAk46->6  
10 You've Got A Friend 4:52
@O}7XRJ_8  
t UR c bwV  
TS"D]Txs  
+"ueq  
o3Vn<Z$/Cl  
6QNs\Ucb+  
Exact Audio Copy V1.0 beta 6 from 9. April 2015 o]LRzI  
oW$s xS  
EAC 抓取日志文件从10. 十二月 2016, 0:28 W0zbxJKjd  
U{ ;l0 2S  
Michael Jackson / Got To Be There *RR[H6B^]X  
C*I(|.i@  
使用驱动器  :MATSHITADVD-RAM UJ890AS   Adapter: 1  ID: 1 )ZejQ}$  
Bd3~EbFL  
读取模式      : 可靠Secure .9|u QEL  
使用精确流     : 是 #*c F8NV-  
清空音频缓存    : 否 p{=QGrxB*  
使用 C2 指示器 : 是 M]HgIL@9#  
gcJF`H/iNK  
读取偏移校正:               : 102 [ut#:1h^  
读取 Lead-In 和 Lead-Out : 否 [rreFSy#@  
用静音填充抓取中丢失偏移的采样       : 是 vtMJ@!MN;  
去除首尾静音块               : 否 ecX/K.8l  
在CRC 计算中使用了空样本       : 是 NNa1EXZ[  
已用接口                  : Win NT 及 2000 本地 Win32 接口 z}.D" P+  
qUf)j\7"Fn  
所用输出模式: : 内部 WAV 函数 Y'Z+, CNf  
样本格式    : 44.100 Hz; 16 Bit; 立体声 kA7(CqUW  
(Btv ClZ  
>Jm"2U}lZW  
已抓取 CD 的 TOC nDlO5 pe"d  
3SARr>HRyI  
     音轨 |    起始    |    长度    |  起始扇区  |  结束扇区   V+w u  
    -------------------------------------------- qSQ@p\O~  
      1 |  0:00.37 |  4:13.32 |     37 |  19043 hteOh#0{   
      2 |  4:13.69 |  3:02.53 |  19044 |  32746 y67uH4&Vm  
      3 |  7:16.47 |  3:51.05 |  32747 |  50076 Zj-BuE&@f  
      4 | 11:07.52 |  3:41.27 |  50077 |  66678 B50 [O!  
      5 | 14:49.04 |  3:24.70 |  66679 |  82048 XKq@]=\F  
      6 | 18:13.74 |  2:34.48 |  82049 |  93646 Dw |3Z  
      7 | 20:48.47 |  3:24.70 |  93647 | 109016 St>`p-  
      8 | 24:13.42 |  3:43.32 | 109017 | 125773 {TL +7kiX/  
      9 | 27:56.74 |  2:53.73 | 125774 | 138821 z/1hqxHl  
     10 | 30:50.72 |  4:53.55 | 138822 | 160851 DzPs!(5[I  
WF/l7u#4i  
;aK.%-s-Z  
范围状态及错误 i=8UBryr'e  
rR!U;  
已选择范围 7C5pAb:  
'XTs -=  
     文件名 J:\12 Music*音乐\1992 Got To Be There (JP - POCT-1837)\CDImage.wav 93I'cWN  
<F=Dj*]  
     峰值电平 100.0 % L#j |2H|  
     抓取速度 5.6 X ozxYH],  
     范围质量 100.0 % VD#!ztcY'  
     复制 CRC DEC77A36 ,#aS/+;[)  
     复制成功 <bdyAUeFw  
baIbf@t/  
没有错误发生 ]xR4->eix  
n{=7 yK  
n4>cERf a  
AccurateRip 摘要 E0`[G]*G  
,xj3w#`zaf  
音轨  1  精确地校准抓取  1)  [C298D8E7]  (AR v2) M]B3vPA/v  
音轨  2  精确地校准抓取  1)  [9A1E4249]  (AR v2) ~@YQ,\Y  
音轨  3  精确地校准抓取  1)  [E9052BA8]  (AR v2) b8HE."*t  
音轨  4  精确地校准抓取  1)  [3175D0BF]  (AR v2) %uEtQh[  
音轨  5  精确地校准抓取  1)  [06E7012D]  (AR v2) Bj&_IDs4  
音轨  6  精确地校准抓取  1)  [F0954442]  (AR v2) )]A9~H  
音轨  7  精确地校准抓取  1)  [74D60627]  (AR v2) 0h:G4  
音轨  8  精确地校准抓取  1)  [8BEFF100]  (AR v2) 3"vRK5Bf  
音轨  9  精确地校准抓取  1)  [7233CF70]  (AR v2) 1C'P)f28  
音轨 10  精确地校准抓取  1)  [5A34BE68]  (AR v2) K>LpN')d  
`x4E;Wjv  
所有音轨精确校准抓取 |>@ -grs  
:K;T Q  
状态报告结尾
H%cp^G  
JE9>8+  
链接:http://pan.baidu.com/s/1jH8f2Rk 密码: X/wmKi  
此帖售价 5 金钱,已有 9 人购买 [记录] [购买]
购买后,将显示帖子中所有出售内容。
若发现会员采用欺骗的方法获取财富,请立刻举报,我们会对会员处以2-N倍的罚金,严重者封掉ID!
此段为出售的内容,购买后显示
&PSTwZd  
离线魏聪

发帖
159
金钱
2897
威望
41
贡献值
21
交易币
94
只看该作者 1楼 发表于: 01-03
简直太棒了
离线wannam

发帖
2582
金钱
75499
威望
363
贡献值
169
交易币
3225
只看该作者 2楼 发表于: 01-03
之前只有mp3版本的,谢谢楼主!
离线mich008

发帖
755
金钱
4918
威望
24
贡献值
15
交易币
817
只看该作者 3楼 发表于: 01-04
无损版的 收下了

发帖
2631
金钱
28098
威望
616
贡献值
33
交易币
268
只看该作者 4楼 发表于: 01-05
感谢分享

离线lifan_npl

发帖
2062
金钱
18203
威望
777
贡献值
337
交易币
2415
只看该作者 5楼 发表于: 01-05
谢谢幽灵分享,辛苦了
我的淘宝:
http://shop63152617.taobao.com  
离线Mr灬W

发帖
1147
金钱
12923
威望
151
贡献值
46
交易币
1272
只看该作者 6楼 发表于: 01-08
感谢分享!
Heal The World
离线mjnet

发帖
322
金钱
30238
威望
101
贡献值
51
交易币
487
只看该作者 7楼 发表于: 02-07
謝謝樓主!!
离线mjbad25

发帖
134
金钱
6
威望
0
贡献值
1
交易币
139
只看该作者 8楼 发表于: 04-02
这里面有非常好的歌
离线michael0829

发帖
922
金钱
5210
威望
91
贡献值
70
交易币
1171
只看该作者 9楼 发表于: 04-19
谢谢分享!
I Love You Michael Jackson Forever!
I Just Can't Stop Loving You Michel!
快速回复
限100 字节
 
上一个 下一个