论坛风格切换切换到宽版
  • 281阅读
  • 9回复

[亲传][Album] 1972 Got To Be There (JP - POCT-1837) - WAV整轨 ♬by幽灵 [复制链接]

上一主题 下一主题
离线mjghosts
 

发帖
8194
金钱
205392
威望
9035
贡献值
2641
交易币
4553
只看楼主 倒序阅读 楼主  发表于: 01-03
— 本帖被 mjghosts 执行加亮操作(2017-01-03) —
*MJ首张个人专辑,是他演艺生涯中又一个重要的里程碑,经典程度无需多介绍!资源取自1992年日本初次CD化首版,完美精确校准抓轨! 1a>TJdoa  
uKE?VNC]  
注:独家整理,转载请注明出处!EAC无损整轨(压缩包内含CD图片) C)xM>M_CB  
?A`8c R=)I  
解压密码:www.mjsunny.com
o"-*,:Qe  
U+wfq%Fz  
Tracklist b!3Y<D*  
1 Ain't No Sunshine 4:11 HHcWyu  
2 I Wanna Be Where You Are 2:59 .*W_;Fo  
3 Girl Don't Take Your Love From Me 3:47 ?3|jB?:k  
4 In Our Small Way 3:38 UG:S!w'  
5 Got To Be There 3:23 [OK(  
6 Rockin' Robin 2:31 1'Y7h;\~\  
7 Wings Of My Love 3:21 Os>^z@x  
8 Maria (You Were The Only One) 3:41 D3xyJ  
9 Love Is Here And Now You're Gone 2:51 {]V+C=`  
10 You've Got A Friend 4:52
w:+wx/\  
;N;['xcx;  
KKJ)BG?qZ  
&2\^S+4  
,wPvv(b]a  
ywj'S7~A  
Exact Audio Copy V1.0 beta 6 from 9. April 2015 fNnX{Wq  
)o%sN'U,1  
EAC 抓取日志文件从10. 十二月 2016, 0:28 "nQ&~KQ  
~H1 ZQ[  
Michael Jackson / Got To Be There |p\vH#6y+  
Q$XNs%7w5,  
使用驱动器  :MATSHITADVD-RAM UJ890AS   Adapter: 1  ID: 1 ngI3.v/R  
Wt 1]9{$  
读取模式      : 可靠Secure NL} Q3Vv1.  
使用精确流     : 是 ;VW->i a6  
清空音频缓存    : 否 zPn 2  
使用 C2 指示器 : 是 2vh@KnNU  
5[5|_H+0  
读取偏移校正:               : 102 %(YU*Tf~  
读取 Lead-In 和 Lead-Out : 否 &8xwR   
用静音填充抓取中丢失偏移的采样       : 是 _6!@>`u~  
去除首尾静音块               : 否 u|{(m_"H  
在CRC 计算中使用了空样本       : 是 QpI\\Zt6  
已用接口                  : Win NT 及 2000 本地 Win32 接口 6i`Y]\X~#  
AJ"a  
所用输出模式: : 内部 WAV 函数 )~2~q7  
样本格式    : 44.100 Hz; 16 Bit; 立体声 +L U.QI'  
tRu j}n+x  
rm?C_  
已抓取 CD 的 TOC \S]` { kY,  
+ J` Qv,0  
     音轨 |    起始    |    长度    |  起始扇区  |  结束扇区   GJTakhj3  
    -------------------------------------------- ,`,1s 9\&t  
      1 |  0:00.37 |  4:13.32 |     37 |  19043 f~t5[D(\Q,  
      2 |  4:13.69 |  3:02.53 |  19044 |  32746 M'|?* aNK  
      3 |  7:16.47 |  3:51.05 |  32747 |  50076 nI7v:h4  
      4 | 11:07.52 |  3:41.27 |  50077 |  66678 Ou7nk:I@  
      5 | 14:49.04 |  3:24.70 |  66679 |  82048 qe2@bG%2+F  
      6 | 18:13.74 |  2:34.48 |  82049 |  93646 2|\WaH9P  
      7 | 20:48.47 |  3:24.70 |  93647 | 109016 KD^n7+w%  
      8 | 24:13.42 |  3:43.32 | 109017 | 125773 rd1EA|T  
      9 | 27:56.74 |  2:53.73 | 125774 | 138821 1A}#j  
     10 | 30:50.72 |  4:53.55 | 138822 | 160851 Uu[dx}y  
`R m<1  
Nh[H[1"J  
范围状态及错误 eZ8DW6l*  
wK!7mZ  
已选择范围 Aaug0X  
'l $ViNq;  
     文件名 J:\12 Music*音乐\1992 Got To Be There (JP - POCT-1837)\CDImage.wav uNf97*~_  
GJIZu&C  
     峰值电平 100.0 % I(uM`g  
     抓取速度 5.6 X )(+q~KA}  
     范围质量 100.0 % $CDRIn50  
     复制 CRC DEC77A36 -,q qQf  
     复制成功 "EBCf.3-  
2(k m]H^  
没有错误发生 "Pl.G[Buc-  
!.{"Ttn;s  
4m!w<c0NL  
AccurateRip 摘要 wufQyT`  
E&dxM{`  
音轨  1  精确地校准抓取  1)  [C298D8E7]  (AR v2) C9 j{:&  
音轨  2  精确地校准抓取  1)  [9A1E4249]  (AR v2) w[g`)8Ib  
音轨  3  精确地校准抓取  1)  [E9052BA8]  (AR v2) DfX~}km  
音轨  4  精确地校准抓取  1)  [3175D0BF]  (AR v2) vG:S(/\>  
音轨  5  精确地校准抓取  1)  [06E7012D]  (AR v2) LKgo(&mY  
音轨  6  精确地校准抓取  1)  [F0954442]  (AR v2) <07]w$m/  
音轨  7  精确地校准抓取  1)  [74D60627]  (AR v2) P6A##z  
音轨  8  精确地校准抓取  1)  [8BEFF100]  (AR v2) M'JCT'(X  
音轨  9  精确地校准抓取  1)  [7233CF70]  (AR v2) QB d4ok: R  
音轨 10  精确地校准抓取  1)  [5A34BE68]  (AR v2) U$WGe >,  
Ec&_&  
所有音轨精确校准抓取 p@U[fv8u  
B:ugEAo_  
状态报告结尾
K%UjPzPWw  
,z#S=I  
链接:http://pan.baidu.com/s/1jH8f2Rk 密码: EY0,Q {  
此帖售价 5 金钱,已有 9 人购买 [记录] [购买]
购买后,将显示帖子中所有出售内容。
若发现会员采用欺骗的方法获取财富,请立刻举报,我们会对会员处以2-N倍的罚金,严重者封掉ID!
此段为出售的内容,购买后显示
_<'?s>(U'  
离线魏聪

发帖
159
金钱
2897
威望
41
贡献值
21
交易币
94
只看该作者 1楼 发表于: 01-03
简直太棒了
离线wannam

发帖
2603
金钱
80583
威望
363
贡献值
169
交易币
3246
只看该作者 2楼 发表于: 01-03
之前只有mp3版本的,谢谢楼主!
离线mich008

发帖
760
金钱
4996
威望
24
贡献值
15
交易币
822
只看该作者 3楼 发表于: 01-04
无损版的 收下了

发帖
2632
金钱
28148
威望
616
贡献值
33
交易币
269
只看该作者 4楼 发表于: 01-05
感谢分享

离线lifan_npl

发帖
2063
金钱
18206
威望
777
贡献值
337
交易币
2416
只看该作者 5楼 发表于: 01-05
谢谢幽灵分享,辛苦了
我的淘宝:
http://shop63152617.taobao.com  
离线Mr灬W

发帖
1147
金钱
12942
威望
151
贡献值
46
交易币
1272
只看该作者 6楼 发表于: 01-08
感谢分享!
Heal The World
离线mjnet

发帖
322
金钱
30298
威望
101
贡献值
51
交易币
487
只看该作者 7楼 发表于: 02-07
謝謝樓主!!
离线mjbad25

发帖
134
金钱
6006
威望
0
贡献值
1
交易币
139
只看该作者 8楼 发表于: 04-02
这里面有非常好的歌
离线michael0829

发帖
926
金钱
8361
威望
91
贡献值
70
交易币
1175
只看该作者 9楼 发表于: 04-19
谢谢分享!
I Love You Michael Jackson Forever!
I Just Can't Stop Loving You Michel!
快速回复
限100 字节
 
上一个 下一个