论坛风格切换切换到宽版
  • 328阅读
  • 9回复

[亲传][Album] 1972 Got To Be There (JP - POCT-1837) - WAV整轨 ♬by幽灵 [复制链接]

上一主题 下一主题
离线mjghosts
 

发帖
8228
金钱
208462
威望
9161
贡献值
2712
交易币
4667
只看楼主 倒序阅读 楼主  发表于: 01-03
— 本帖被 mjghosts 执行加亮操作(2017-01-03) —
*MJ首张个人专辑,是他演艺生涯中又一个重要的里程碑,经典程度无需多介绍!资源取自1992年日本初次CD化首版,完美精确校准抓轨! XP%_|Q2X  
SnXM`v,  
注:独家整理,转载请注明出处!EAC无损整轨(压缩包内含CD图片) BxlhCu  
K8BlEF`  
解压密码:www.mjsunny.com
is^R8a  
Rc4=zimr+  
Tracklist md18q:AG)  
1 Ain't No Sunshine 4:11 uTrzC+\aU  
2 I Wanna Be Where You Are 2:59 p= x &X~  
3 Girl Don't Take Your Love From Me 3:47 (]I=';\  
4 In Our Small Way 3:38 w?nSQBz$  
5 Got To Be There 3:23 MwSfuP  
6 Rockin' Robin 2:31 811QpYA  
7 Wings Of My Love 3:21 p}gA8 o  
8 Maria (You Were The Only One) 3:41 edlf++r~  
9 Love Is Here And Now You're Gone 2:51 =<aFkBX-  
10 You've Got A Friend 4:52
FrLv%tK|  
t*Z5{   
/6y{ ?0S  
BAi0w{  
LZs'hA<L  
6jm/y@|F!  
Exact Audio Copy V1.0 beta 6 from 9. April 2015 itiSZL,  
-*J!Ws(9  
EAC 抓取日志文件从10. 十二月 2016, 0:28 H%Lln#  
\ZE=WvnhZ  
Michael Jackson / Got To Be There oY; C[X  
"d}ey=$h4  
使用驱动器  :MATSHITADVD-RAM UJ890AS   Adapter: 1  ID: 1 1O,8=,K2a  
%yl17:h#  
读取模式      : 可靠Secure }*qj,8-9  
使用精确流     : 是 x_C0=Q|K3  
清空音频缓存    : 否 tB(~:"|8  
使用 C2 指示器 : 是 V s=o@  
$P%cdJT0  
读取偏移校正:               : 102 ?0+g.,9  
读取 Lead-In 和 Lead-Out : 否 u-mD"  
用静音填充抓取中丢失偏移的采样       : 是 Y}<%~z#.4  
去除首尾静音块               : 否 1v,R<1)&  
在CRC 计算中使用了空样本       : 是 &Vgpv#&Cfx  
已用接口                  : Win NT 及 2000 本地 Win32 接口 d~{$,"!-f  
f:J-X~T_f  
所用输出模式: : 内部 WAV 函数 Y~UAE.  
样本格式    : 44.100 Hz; 16 Bit; 立体声 v_WQ<G?  
\[^! ys  
%2g<zdab  
已抓取 CD 的 TOC c-n/E. E  
W g6H~x  
     音轨 |    起始    |    长度    |  起始扇区  |  结束扇区   Qx8(w"k*  
    -------------------------------------------- i.`n^R;N  
      1 |  0:00.37 |  4:13.32 |     37 |  19043 @7C.0>W_A  
      2 |  4:13.69 |  3:02.53 |  19044 |  32746 /sT?p=[.  
      3 |  7:16.47 |  3:51.05 |  32747 |  50076 !Hl]&  
      4 | 11:07.52 |  3:41.27 |  50077 |  66678 g,]m8%GHE  
      5 | 14:49.04 |  3:24.70 |  66679 |  82048 OWT%XUW=  
      6 | 18:13.74 |  2:34.48 |  82049 |  93646 4"(rZWv  
      7 | 20:48.47 |  3:24.70 |  93647 | 109016 &0-oi Y  
      8 | 24:13.42 |  3:43.32 | 109017 | 125773 Y<irNp9   
      9 | 27:56.74 |  2:53.73 | 125774 | 138821 cGgfCF^`  
     10 | 30:50.72 |  4:53.55 | 138822 | 160851 Y_+#|]=$B  
f'@ L|&w  
:,Y1#_\  
范围状态及错误 pa+'0Y]71  
Y'i yfnk  
已选择范围 v>B412l  
ckA\{v  
     文件名 J:\12 Music*音乐\1992 Got To Be There (JP - POCT-1837)\CDImage.wav C`g "Mk8  
9>S)*lU&s  
     峰值电平 100.0 % K%\r[NF  
     抓取速度 5.6 X X_o#!  
     范围质量 100.0 % |du%c`wl  
     复制 CRC DEC77A36 K_)~&Cu*'  
     复制成功 I$t8Ko._"  
Za{O9Qc?D|  
没有错误发生 ]i.N'O<p  
3)EJws!  
1,+<|c)T?  
AccurateRip 摘要 y<FC7  
Fa>f'VXx  
音轨  1  精确地校准抓取  1)  [C298D8E7]  (AR v2) Ih:Q}V#6  
音轨  2  精确地校准抓取  1)  [9A1E4249]  (AR v2) -fPiHKJ  
音轨  3  精确地校准抓取  1)  [E9052BA8]  (AR v2) MMFg{8  
音轨  4  精确地校准抓取  1)  [3175D0BF]  (AR v2) 8+[Vo_]  
音轨  5  精确地校准抓取  1)  [06E7012D]  (AR v2) :u,.(INB  
音轨  6  精确地校准抓取  1)  [F0954442]  (AR v2) 3FR(gr$X  
音轨  7  精确地校准抓取  1)  [74D60627]  (AR v2) @6G)(NGD  
音轨  8  精确地校准抓取  1)  [8BEFF100]  (AR v2) ,}IcQu'O  
音轨  9  精确地校准抓取  1)  [7233CF70]  (AR v2) &'/"=lK  
音轨 10  精确地校准抓取  1)  [5A34BE68]  (AR v2) Zeg'\&w0s  
LKvX~68  
所有音轨精确校准抓取 IQ<G .  
-E\G3/*51  
状态报告结尾
N>3{!K>/Y:  
!y_L~81?  
链接:http://pan.baidu.com/s/1jH8f2Rk 密码: ?M4ig_  
此帖售价 5 金钱,已有 9 人购买 [记录] [购买]
购买后,将显示帖子中所有出售内容。
若发现会员采用欺骗的方法获取财富,请立刻举报,我们会对会员处以2-N倍的罚金,严重者封掉ID!
此段为出售的内容,购买后显示
Lfx a^0  
离线魏聪

发帖
159
金钱
2897
威望
41
贡献值
21
交易币
94
只看该作者 1楼 发表于: 01-03
简直太棒了
离线wannam

发帖
2666
金钱
80618
威望
382
贡献值
189
交易币
3309
只看该作者 2楼 发表于: 01-03
之前只有mp3版本的,谢谢楼主!
离线mich008

发帖
777
金钱
5053
威望
24
贡献值
15
交易币
839
只看该作者 3楼 发表于: 01-04
无损版的 收下了

发帖
2645
金钱
28240
威望
616
贡献值
33
交易币
282
只看该作者 4楼 发表于: 01-05
感谢分享

离线lifan_npl

发帖
2076
金钱
18269
威望
787
贡献值
347
交易币
2429
只看该作者 5楼 发表于: 01-05
谢谢幽灵分享,辛苦了
我的淘宝:
http://shop63152617.taobao.com  
离线Mr灬W

发帖
1156
金钱
12831
威望
161
贡献值
56
交易币
1281
只看该作者 6楼 发表于: 01-08
感谢分享!
Heal The World
在线mjnet

发帖
345
金钱
30692
威望
103
贡献值
53
交易币
518
只看该作者 7楼 发表于: 02-07
謝謝樓主!!
离线mjbad25

发帖
134
金钱
6006
威望
0
贡献值
1
交易币
139
只看该作者 8楼 发表于: 04-02
这里面有非常好的歌
离线michael0829

发帖
946
金钱
8472
威望
90
贡献值
70
交易币
1195
只看该作者 9楼 发表于: 04-19
谢谢分享!
I Love You Michael Jackson Forever!
I Just Can't Stop Loving You Michel!
快速回复
限100 字节
 
上一个 下一个