论坛风格切换切换到宽版
  • 373阅读
  • 9回复

[亲传][Album] 1972 Got To Be There (JP - POCT-1837) - WAV整轨 ♬by幽灵 [复制链接]

上一主题 下一主题
在线mjghosts
 

发帖
8235
金钱
209029
威望
9162
贡献值
2713
交易币
4678
只看楼主 倒序阅读 楼主  发表于: 01-03
— 本帖被 mjghosts 执行加亮操作(2017-01-03) —
*MJ首张个人专辑,是他演艺生涯中又一个重要的里程碑,经典程度无需多介绍!资源取自1992年日本初次CD化首版,完美精确校准抓轨! O%RkU?ME  
l !VPk"s  
注:独家整理,转载请注明出处!EAC无损整轨(压缩包内含CD图片) F\&Sn1>k  
Nu !(7  
解压密码:www.mjsunny.com
o!.\+[  
3I!xa*u  
Tracklist e1Kxqw7  
1 Ain't No Sunshine 4:11 jwsl"zL  
2 I Wanna Be Where You Are 2:59 CNwYQe-i  
3 Girl Don't Take Your Love From Me 3:47 ^`b&fb v  
4 In Our Small Way 3:38 Xk#"rM< Y  
5 Got To Be There 3:23 l#7].-/  
6 Rockin' Robin 2:31 z{h#l!Edh  
7 Wings Of My Love 3:21 >:W7f2%8`  
8 Maria (You Were The Only One) 3:41 aoNTRJ c$  
9 Love Is Here And Now You're Gone 2:51 u`E24~  
10 You've Got A Friend 4:52
^qNh)?V?]I  
Wtl0qug  
;zy[xg.7  
+rEqE/QF  
`x;8,7W;B  
NOOP_:(7H  
Exact Audio Copy V1.0 beta 6 from 9. April 2015 D>& ;K{!  
f"XFf@!  
EAC 抓取日志文件从10. 十二月 2016, 0:28 F\m  
99XbpP55  
Michael Jackson / Got To Be There L||_Jsu  
Y-(),k_Q:  
使用驱动器  :MATSHITADVD-RAM UJ890AS   Adapter: 1  ID: 1 Lo, z7"8  
CbK&.a  
读取模式      : 可靠Secure qX'w}nJ}H}  
使用精确流     : 是 @\gTi;u/x  
清空音频缓存    : 否 F",]*> r  
使用 C2 指示器 : 是 a/@<KnT  
mT N6-V  
读取偏移校正:               : 102 j!r 4p,  
读取 Lead-In 和 Lead-Out : 否 dZ!Wj7K)  
用静音填充抓取中丢失偏移的采样       : 是 x}TDb0V  
去除首尾静音块               : 否 D .3Q0a6  
在CRC 计算中使用了空样本       : 是 '8~cf  
已用接口                  : Win NT 及 2000 本地 Win32 接口 7I;Give{  
f~Dl;f~H_;  
所用输出模式: : 内部 WAV 函数 oF/5mh__(K  
样本格式    : 44.100 Hz; 16 Bit; 立体声 dfB#+wh  
.vRLK  
8$avPD3jx  
已抓取 CD 的 TOC gF% lwq  
qF6YH  
     音轨 |    起始    |    长度    |  起始扇区  |  结束扇区   HMNjQ 1y  
    -------------------------------------------- g~d}?B\<@  
      1 |  0:00.37 |  4:13.32 |     37 |  19043 c L*D_)?8  
      2 |  4:13.69 |  3:02.53 |  19044 |  32746 uF>I0J#z?  
      3 |  7:16.47 |  3:51.05 |  32747 |  50076 <FH3 ePz  
      4 | 11:07.52 |  3:41.27 |  50077 |  66678 '<f4POy!  
      5 | 14:49.04 |  3:24.70 |  66679 |  82048 daBu<0\  
      6 | 18:13.74 |  2:34.48 |  82049 |  93646 !lE (!d3M  
      7 | 20:48.47 |  3:24.70 |  93647 | 109016 P ]2M  
      8 | 24:13.42 |  3:43.32 | 109017 | 125773 (c(c MC'  
      9 | 27:56.74 |  2:53.73 | 125774 | 138821 _,b%t1v  
     10 | 30:50.72 |  4:53.55 | 138822 | 160851 /s6':~4  
zsI0Q47\  
?)Lktn9%  
范围状态及错误 ]M{SM`Ya  
%Zx/XMs}e  
已选择范围 6KhHS@Z  
wpY%"x#-+=  
     文件名 J:\12 Music*音乐\1992 Got To Be There (JP - POCT-1837)\CDImage.wav =KNg "|  
iAf, :g  
     峰值电平 100.0 % {i^ ?XdM  
     抓取速度 5.6 X F=B>0Q5   
     范围质量 100.0 % %xLziF  
     复制 CRC DEC77A36 %kNkDI  
     复制成功 3Q[]lFJ}F  
=0,")aa!  
没有错误发生 P%pB]d.qpi  
]G&?e9OA  
*~4uF  
AccurateRip 摘要 0Qw?.#[9  
Sijwh1j*V  
音轨  1  精确地校准抓取  1)  [C298D8E7]  (AR v2) zo@>~G3$9  
音轨  2  精确地校准抓取  1)  [9A1E4249]  (AR v2) :@_CQc*yB  
音轨  3  精确地校准抓取  1)  [E9052BA8]  (AR v2) \R&`bAdk  
音轨  4  精确地校准抓取  1)  [3175D0BF]  (AR v2) * _C6. %{  
音轨  5  精确地校准抓取  1)  [06E7012D]  (AR v2) BEPDyy  
音轨  6  精确地校准抓取  1)  [F0954442]  (AR v2) dSIMwu6u  
音轨  7  精确地校准抓取  1)  [74D60627]  (AR v2) ICq;jfML  
音轨  8  精确地校准抓取  1)  [8BEFF100]  (AR v2) ,2H5CFX/  
音轨  9  精确地校准抓取  1)  [7233CF70]  (AR v2) ]t0?,q.$7  
音轨 10  精确地校准抓取  1)  [5A34BE68]  (AR v2) bL *;N3#E  
W@"M/<r@/  
所有音轨精确校准抓取 ?]kIztH  
M/d!&Bk  
状态报告结尾
/;HytFP  
A!iH g__/t  
链接:http://pan.baidu.com/s/1jH8f2Rk 密码: $C#~c1w  
此帖售价 5 金钱,已有 9 人购买 [记录] [购买]
购买后,将显示帖子中所有出售内容。
若发现会员采用欺骗的方法获取财富,请立刻举报,我们会对会员处以2-N倍的罚金,严重者封掉ID!
此段为出售的内容,购买后显示
*i5&x/ds  
离线魏聪

发帖
159
金钱
2897
威望
41
贡献值
21
交易币
94
只看该作者 1楼 发表于: 01-03
简直太棒了
离线wannam

发帖
2680
金钱
86748
威望
382
贡献值
189
交易币
3323
只看该作者 2楼 发表于: 01-03
之前只有mp3版本的,谢谢楼主!
在线mich008

发帖
792
金钱
4962
威望
24
贡献值
15
交易币
854
只看该作者 3楼 发表于: 01-04
无损版的 收下了

发帖
2650
金钱
28573
威望
617
贡献值
34
交易币
291
只看该作者 4楼 发表于: 01-05
感谢分享

离线lifan_npl

发帖
2093
金钱
18000
威望
787
贡献值
347
交易币
2446
只看该作者 5楼 发表于: 01-05
谢谢幽灵分享,辛苦了
我的淘宝:
http://shop63152617.taobao.com  
在线Mr灬W

发帖
1156
金钱
12831
威望
161
贡献值
56
交易币
1281
只看该作者 6楼 发表于: 01-08
感谢分享!
Heal The World
离线mjnet

发帖
354
金钱
30856
威望
104
贡献值
54
交易币
531
只看该作者 7楼 发表于: 02-07
謝謝樓主!!
离线mjbad25

发帖
134
金钱
6006
威望
0
贡献值
1
交易币
139
只看该作者 8楼 发表于: 04-02
这里面有非常好的歌
离线michael0829

发帖
946
金钱
8692
威望
90
贡献值
70
交易币
1195
只看该作者 9楼 发表于: 04-19
谢谢分享!
I Love You Michael Jackson Forever!
I Just Can't Stop Loving You Michel!
快速回复
限100 字节
 
上一个 下一个