论坛风格切换切换到宽版
  • 449阅读
  • 12回复

[亲传][Album] 1979 Off The Wall [1st Version] (US - EK 35745) - WAV整轨 ♬by幽灵 [复制链接]

上一主题 下一主题
离线mjghosts
 

发帖
8195
金钱
205476
威望
9035
贡献值
2641
交易币
4554
只看楼主 倒序阅读 楼主  发表于: 01-03
— 本帖被 mjghosts 执行加亮操作(2017-01-03) —
*MJ成年后首张个人专辑,在1979年发行黑胶,直到83年首次发行CD。欧、美首版均由日本压盘!首版中,Rock With You, Get On The Floor, Off The Wall的部分混音有不同,整张专辑的音质偏干涩,很古老的味道。完美精确校准抓轨! PnA?+u2m  
g\Ak;03n  
注:独家整理,转载请注明出处!EAC无损整轨(压缩包内含CD图片) )T1iN(Z  
H=p`T+  
解压密码:www.mjsunny.com
e\F} q)_  
jn JZ# =)  
Tracklist )&,{?$.  
1 Don't Stop 'Til You Get Enough     .TpsJXF  
2 Rock With You     P`(Mk6gE  
3 Working Day And Night     vWjnI*6T#  
4 Get On The Floor     -Q"hZ9  
5 Off The Wall     pHC /(6?  
6 Girlfriend     H:QhrL+7_  
7 She's Out Of My Life     t;NV $!!  
8 I Can't Help It     ezm&]F`  
9 It's The Falling In Love     Bc5+ss  
10 Burn This Disco Out
6%Mt  
}G V X>p  
ac{?+]8}  
~f\G68c  
h^UKT`9vt  
S$,'Q^~K  
Exact Audio Copy V1.0 beta 6 from 9. April 2015 942lSyix  
4<dcB@v  
EAC 抓取日志文件从27. 十一月 2016, 21:03 Mj#-j/{x{5  
D,v U  
Michael Jackson / Off The Wall sUJ%x#u}Fk  
JF&$t}  
使用驱动器  :MATSHITADVD-RAM UJ890AS   Adapter: 1  ID: 1 4fk8*{Y  
nRL. ppUI  
读取模式      : 可靠Secure 4;n6I)&.(  
使用精确流     : 是 wN1niR'  
清空音频缓存    : 否 AjcX  N  
使用 C2 指示器 : 是 \$0F-=w`8  
JD@J[YY5R  
读取偏移校正:               : 102 8Ac)'2t;U  
读取 Lead-In 和 Lead-Out : 否 d>;&9;)H  
用静音填充抓取中丢失偏移的采样       : 是 C<KrMRWh^  
去除首尾静音块               : 否 wP[t0/dl  
在CRC 计算中使用了空样本       : 是 mM`wITy  
已用接口                  : Win NT 及 2000 本地 Win32 接口 J[f;Xlh  
O_Oj|'bBC  
所用输出模式: : 内部 WAV 函数 A&nU]R8S  
样本格式    : 44.100 Hz; 16 Bit; 立体声 =[F<7pvE  
/_ `lz^  
DGzw8|/(  
已抓取 CD 的 TOC P2bZ65>3y  
E9;|'Vy<E  
     音轨 |    起始    |    长度    |  起始扇区  |  结束扇区   HuOIFv  
    -------------------------------------------- OF\rgz  
      1 |  0:00.00 |  6:04.62 |      0 |  27361 ;<leKcvhQ&  
      2 |  6:04.62 |  3:40.00 |  27362 |  43861 V{JAB]?^  
      3 |  9:44.62 |  5:14.13 |  43862 |  67424 b,C aWg  
      4 | 14:59.00 |  4:50.25 |  67425 |  89199 >uSy  
      5 | 19:49.25 |  4:06.12 |  89200 | 107661 ;Rv!k&Df  
      6 | 23:55.37 |  3:04.63 | 107662 | 121524 gSh+}r<7  
      7 | 27:00.25 |  3:38.12 | 121525 | 137886 NUp<e%zB  
      8 | 30:38.37 |  4:29.00 | 137887 | 158061 0PWg;>^'  
      9 | 35:07.37 |  3:48.20 | 158062 | 175181 !P -^O  
     10 | 38:55.57 |  3:42.50 | 175182 | 191881 h-%R<[  
|>#{[wko  
^pYxKU_O  
范围状态及错误 D ^x-^6^  
Dp':oJC  
已选择范围 9_ d pR.  
hUF5fZqii  
     文件名 J:\12 Music*音乐\1979 Off The Wall [1st Version] (US - EK 35745)\CDImage.wav o:_Xv.HRZo  
hX=A)73(  
     峰值电平 100.0 % Ym =FgM\  
     抓取速度 6.1 X ;oy-#p>N%  
     范围质量 100.0 % TL}++e 7+  
     复制 CRC 01B8A2DE orjj' +;X  
     复制成功 @*6 C=LL  
9R7 A8  
没有错误发生 opc/e  
!Rhl f.x  
HBu[gh;b  
AccurateRip 摘要 qLB) XnQ  
5'X ]k@m_  
音轨  1  精确地校准抓取  20)  [5F1B584E]  (AR v2) ]Ccg`AR{  
音轨  2  精确地校准抓取  18)  [B1FCC8BE]  (AR v2) T^Ze3L]  
音轨  3  精确地校准抓取  20)  [B12AA3C6]  (AR v2) FXi{87F2  
音轨  4  精确地校准抓取  20)  [9315FE9D]  (AR v2) R' !  
音轨  5  精确地校准抓取  20)  [C4AC743A]  (AR v2) Wb?8j M  
音轨  6  精确地校准抓取  20)  [2CE4C21B]  (AR v2) U8LtG/  
音轨  7  精确地校准抓取  20)  [C1AD5A13]  (AR v2) BA%pY|"Q  
音轨  8  精确地校准抓取  20)  [66577C11]  (AR v2) +ayos[<0#  
音轨  9  精确地校准抓取  20)  [B8BB8966]  (AR v2) \4-"L>  
音轨 10  精确地校准抓取  20)  [F81A20A3]  (AR v2) X bD4:i%  
LRb{hUt=  
所有音轨精确校准抓取 :F{:Z*Fi0  
YYu6W@m]  
状态报告结尾
17G'jiY H  
2gq9k}38  
链接:http://pan.baidu.com/s/1i5oKRLb 密码: fDvl/|62{  
此帖售价 60 金钱,已有 12 人购买 [记录] [购买]
购买后,将显示帖子中所有出售内容。
若发现会员采用欺骗的方法获取财富,请立刻举报,我们会对会员处以2-N倍的罚金,严重者封掉ID!
此段为出售的内容,购买后显示
离线小杰克逊

发帖
1550
金钱
1154
威望
883
贡献值
994
交易币
660
只看该作者 1楼 发表于: 01-03
沙发,谢谢幽灵兄
http://gcb918.taobao.com/
离线wannam

发帖
2606
金钱
80603
威望
363
贡献值
169
交易币
3249
只看该作者 2楼 发表于: 01-03
很多单曲都是反复听都不会厌的经典!
离线marlene55555

发帖
1161
金钱
34311
威望
293
贡献值
98
交易币
1337
只看该作者 3楼 发表于: 01-04
么么哒 不买了 支持下

发帖
2632
金钱
28152
威望
616
贡献值
33
交易币
269
只看该作者 4楼 发表于: 01-05
感谢分享。

离线lifan_npl

发帖
2063
金钱
18206
威望
777
贡献值
337
交易币
2416
只看该作者 5楼 发表于: 01-05
谢谢幽灵分享,辛苦了
我的淘宝:
http://shop63152617.taobao.com  
在线Mr灬W

发帖
1148
金钱
12944
威望
151
贡献值
46
交易币
1273
只看该作者 6楼 发表于: 01-08
感谢分享
Heal The World
离线solid_snake

发帖
44
金钱
348
威望
31
贡献值
0
交易币
45
只看该作者 7楼 发表于: 02-08
首版,这个一定要支持
离线mjnet

发帖
323
金钱
30306
威望
101
贡献值
51
交易币
488
只看该作者 8楼 发表于: 03-04
謝謝分享!!
离线mjbad25

发帖
134
金钱
6006
威望
0
贡献值
1
交易币
139
只看该作者 9楼 发表于: 04-02
首版和再版连封面都不一样了呢
快速回复
限100 字节
 
上一个 下一个