论坛风格切换切换到宽版
  • 1049阅读
  • 16回复

[亲传][Album] 1979 Off The Wall [1st Version] (US - EK 35745) - WAV整轨 ♬by幽灵 [复制链接]

上一主题 下一主题
离线mjghosts
 

发帖
8240
金钱
216247
威望
9172
贡献值
2721
交易币
4743
只看楼主 倒序阅读 楼主  发表于: 2017-01-03
— 本帖被 mjghosts 执行加亮操作(2017-01-03) —
*MJ成年后首张个人专辑,在1979年发行黑胶,直到83年首次发行CD。欧、美首版均由日本压盘!首版中,Rock With You, Get On The Floor, Off The Wall的部分混音有不同,整张专辑的音质偏干涩,很古老的味道。完美精确校准抓轨! e]k\dj;,^%  
oa q!<lI  
注:独家整理,转载请注明出处!EAC无损整轨(压缩包内含CD图片) {wwkbc*  
tuIQiWHbM  
解压密码:www.mjsunny.com
e4<[|B!O  
R^+,D  
Tracklist q2}6lf,J K  
1 Don't Stop 'Til You Get Enough     *h)|K s  
2 Rock With You     KnxK9  
3 Working Day And Night     \_|g}&}6Y  
4 Get On The Floor     OkfnxknZ|  
5 Off The Wall     k+;XQEH  
6 Girlfriend     q)QM+4  
7 She's Out Of My Life     /&!4oBna  
8 I Can't Help It     .z}*!   
9 It's The Falling In Love     ['JIMcD  
10 Burn This Disco Out
7I;A5f  
F|! ib5  
kDWMget$  
y@2$sK3K  
W`gzMx  
L7OFZ|gUz  
Exact Audio Copy V1.0 beta 6 from 9. April 2015 D5$| vv1  
?CSv;:  
EAC 抓取日志文件从27. 十一月 2016, 21:03 \Jm^XXgS  
? uu,w  
Michael Jackson / Off The Wall ?my2dd,|  
\SyG#.$  
使用驱动器  :MATSHITADVD-RAM UJ890AS   Adapter: 1  ID: 1 HMl M!Xk?  
N"-U)d-.  
读取模式      : 可靠Secure R@A"U[*  
使用精确流     : 是 QUK v :;  
清空音频缓存    : 否 b/6!>qMMk%  
使用 C2 指示器 : 是 cg).b?g  
y1_z(L;I  
读取偏移校正:               : 102 2f0qfF  
读取 Lead-In 和 Lead-Out : 否 K_o[m!:jU  
用静音填充抓取中丢失偏移的采样       : 是 z2IKd'Wy  
去除首尾静音块               : 否 /y[zOT6  
在CRC 计算中使用了空样本       : 是 P&5kO;ia  
已用接口                  : Win NT 及 2000 本地 Win32 接口 (g3@3.Kk)  
V|j{#;  
所用输出模式: : 内部 WAV 函数 P\{ }yd  
样本格式    : 44.100 Hz; 16 Bit; 立体声 V(P 1{g  
n0%5mTUN  
{VT**o  
已抓取 CD 的 TOC /0(c-Dv  
\W+Hzf] W#  
     音轨 |    起始    |    长度    |  起始扇区  |  结束扇区   ,iMdv+  
    -------------------------------------------- Z}yd` 7  
      1 |  0:00.00 |  6:04.62 |      0 |  27361 7_c/wbA#me  
      2 |  6:04.62 |  3:40.00 |  27362 |  43861 {+jO/ZQu5  
      3 |  9:44.62 |  5:14.13 |  43862 |  67424 1{.5X8y1x  
      4 | 14:59.00 |  4:50.25 |  67425 |  89199 _|wnmeL*  
      5 | 19:49.25 |  4:06.12 |  89200 | 107661 f[Xsri  
      6 | 23:55.37 |  3:04.63 | 107662 | 121524 K96N{"{iI%  
      7 | 27:00.25 |  3:38.12 | 121525 | 137886 9{CajtN  
      8 | 30:38.37 |  4:29.00 | 137887 | 158061 'c#AGi9  
      9 | 35:07.37 |  3:48.20 | 158062 | 175181 pMV?vH  
     10 | 38:55.57 |  3:42.50 | 175182 | 191881 cQrXrij;!  
P1dFoQz  
B_S))3   
范围状态及错误 oQK,#>rv  
ZDx1v_xr  
已选择范围 @YbZ"Jb  
\]0+J  
     文件名 J:\12 Music*音乐\1979 Off The Wall [1st Version] (US - EK 35745)\CDImage.wav mNKcaM?h  
gf70 O>E  
     峰值电平 100.0 %  TUq ,  
     抓取速度 6.1 X vDCbD#.6  
     范围质量 100.0 % dpcU`$kt  
     复制 CRC 01B8A2DE J~)JsAXAI  
     复制成功 5h6-aQU[  
5I[6 "o0  
没有错误发生 !im%t9  
}c=YiH,o  
R~BFZF>:  
AccurateRip 摘要 H/l,;/q]b  
p~OX1RBI  
音轨  1  精确地校准抓取  20)  [5F1B584E]  (AR v2) \jr-^n]  
音轨  2  精确地校准抓取  18)  [B1FCC8BE]  (AR v2) r{wf;5d(  
音轨  3  精确地校准抓取  20)  [B12AA3C6]  (AR v2) +de5y]1H,|  
音轨  4  精确地校准抓取  20)  [9315FE9D]  (AR v2) ]L?WC  
音轨  5  精确地校准抓取  20)  [C4AC743A]  (AR v2) h9QQ8}g  
音轨  6  精确地校准抓取  20)  [2CE4C21B]  (AR v2) irMBd8WG  
音轨  7  精确地校准抓取  20)  [C1AD5A13]  (AR v2) \O)u' Bu  
音轨  8  精确地校准抓取  20)  [66577C11]  (AR v2) 5")BCA  
音轨  9  精确地校准抓取  20)  [B8BB8966]  (AR v2) Yu:($//w  
音轨 10  精确地校准抓取  20)  [F81A20A3]  (AR v2) YGhHIziI  
j.:f =`xf  
所有音轨精确校准抓取 5uU{!JuSa  
!L)yI#i4C  
状态报告结尾
caZEZk#r;  
~zDFL15w  
链接:http://pan.baidu.com/s/1i5oKRLb 密码: $YK~7!!  
此帖售价 60 金钱,已有 17 人购买 [记录] [购买]
购买后,将显示帖子中所有出售内容。
若发现会员采用欺骗的方法获取财富,请立刻举报,我们会对会员处以2-N倍的罚金,严重者封掉ID!
此段为出售的内容,购买后显示
离线小杰克逊

发帖
1592
金钱
5626
威望
883
贡献值
994
交易币
702
只看该作者 1楼 发表于: 2017-01-03
沙发,谢谢幽灵兄
http://gcb918.taobao.com/
离线wannam

发帖
2701
金钱
86995
威望
382
贡献值
189
交易币
3344
只看该作者 2楼 发表于: 2017-01-03
很多单曲都是反复听都不会厌的经典!
离线marlene55555

发帖
1165
金钱
34275
威望
293
贡献值
98
交易币
1341
只看该作者 3楼 发表于: 2017-01-04
么么哒 不买了 支持下

发帖
2729
金钱
31485
威望
620
贡献值
37
交易币
382
只看该作者 4楼 发表于: 2017-01-05
感谢分享。

离线lifan_npl

发帖
2173
金钱
16819
威望
782
贡献值
347
交易币
2526
只看该作者 5楼 发表于: 2017-01-05
谢谢幽灵分享,辛苦了
我的淘宝:
http://shop63152617.taobao.com  
离线Mr灬W

发帖
1129
金钱
12950
威望
161
贡献值
56
交易币
1282
只看该作者 6楼 发表于: 2017-01-08
感谢分享
Heal The World
离线solid_snake

发帖
44
金钱
348
威望
31
贡献值
0
交易币
45
只看该作者 7楼 发表于: 2017-02-08
首版,这个一定要支持
离线mjnet

发帖
380
金钱
30464
威望
104
贡献值
54
交易币
557
只看该作者 8楼 发表于: 2017-03-04
謝謝分享!!
离线mjbad25

发帖
134
金钱
6006
威望
0
贡献值
1
交易币
139
只看该作者 9楼 发表于: 2017-04-02
首版和再版连封面都不一样了呢
快速回复
限100 字节
 
上一个 下一个