论坛风格切换切换到宽版
  • 333阅读
  • 11回复

[亲传][Album] 1979 Off The Wall [1st Version] (US - EK 35745) - WAV整轨 ♬by幽灵 [复制链接]

上一主题 下一主题
离线mjghosts
 

发帖
8193
金钱
205205
威望
9035
贡献值
2641
交易币
4552
只看楼主 倒序阅读 楼主  发表于: 01-03
— 本帖被 mjghosts 执行加亮操作(2017-01-03) —
*MJ成年后首张个人专辑,在1979年发行黑胶,直到83年首次发行CD。欧、美首版均由日本压盘!首版中,Rock With You, Get On The Floor, Off The Wall的部分混音有不同,整张专辑的音质偏干涩,很古老的味道。完美精确校准抓轨! [X 9zrGHt  
Z,oCkv("n  
注:独家整理,转载请注明出处!EAC无损整轨(压缩包内含CD图片) 4(dgunP  
4-?zW  
解压密码:www.mjsunny.com
CB0p2WS_  
aH dQi,=z  
Tracklist |=:<[FU  
1 Don't Stop 'Til You Get Enough     FR']Rj  
2 Rock With You     YrsE 88QqI  
3 Working Day And Night     (<}BlL   
4 Get On The Floor     _fccZf(yC.  
5 Off The Wall     mqtYny'  
6 Girlfriend     dJe 3DW :  
7 She's Out Of My Life     _C)\X(;  
8 I Can't Help It     U4[GA4DZ   
9 It's The Falling In Love     KE6 XNG3  
10 Burn This Disco Out
HQNpf1=D  
X/_89<&  
of {K{(M7@  
uvAJJIae'  
#-o 'g!  
+KaVvf  
Exact Audio Copy V1.0 beta 6 from 9. April 2015 dZox;_b  
tAPf#7{|   
EAC 抓取日志文件从27. 十一月 2016, 21:03 v o4U%  
((&5F!+\-  
Michael Jackson / Off The Wall ' &3,qT  
ROXa/  
使用驱动器  :MATSHITADVD-RAM UJ890AS   Adapter: 1  ID: 1 A+j!VM   
;E ,i  
读取模式      : 可靠Secure ;XQ27,K&  
使用精确流     : 是 NTEN  
清空音频缓存    : 否 dtE"1nR  
使用 C2 指示器 : 是 s7sTY   
h?H|)a<^9  
读取偏移校正:               : 102 $ U7#3-'  
读取 Lead-In 和 Lead-Out : 否 h#c7v !g  
用静音填充抓取中丢失偏移的采样       : 是 1=,y +Xpw  
去除首尾静音块               : 否 hzU(XW  
在CRC 计算中使用了空样本       : 是 B*Ey&DAV  
已用接口                  : Win NT 及 2000 本地 Win32 接口 ~ivOSr7s}  
+,]VXH<y  
所用输出模式: : 内部 WAV 函数 *H i}FI  
样本格式    : 44.100 Hz; 16 Bit; 立体声 6^!fuIZ;_  
pp@B]We  
##} 7cFX  
已抓取 CD 的 TOC ?;H}5>^8P  
ktS^^!,l%  
     音轨 |    起始    |    长度    |  起始扇区  |  结束扇区   [ [w |  
    -------------------------------------------- qGX#(,E9;  
      1 |  0:00.00 |  6:04.62 |      0 |  27361 ;TS%e[lFhQ  
      2 |  6:04.62 |  3:40.00 |  27362 |  43861 YaL:6[6  
      3 |  9:44.62 |  5:14.13 |  43862 |  67424 89;@#9  
      4 | 14:59.00 |  4:50.25 |  67425 |  89199 2P)O 0j\/  
      5 | 19:49.25 |  4:06.12 |  89200 | 107661 sei2\l8q  
      6 | 23:55.37 |  3:04.63 | 107662 | 121524 Ibu9A wPm  
      7 | 27:00.25 |  3:38.12 | 121525 | 137886 zsd1n`r  
      8 | 30:38.37 |  4:29.00 | 137887 | 158061 p:K%-^  
      9 | 35:07.37 |  3:48.20 | 158062 | 175181 HsUh5;  
     10 | 38:55.57 |  3:42.50 | 175182 | 191881 lSW'qgh  
pf107S  
*coUHbP9>  
范围状态及错误 >;' 0ymG.`  
-*MY7t3  
已选择范围 * Ogf6  
O,|NOz  
     文件名 J:\12 Music*音乐\1979 Off The Wall [1st Version] (US - EK 35745)\CDImage.wav ]wdE :k,D  
mO]>]   
     峰值电平 100.0 % _^NaP  
     抓取速度 6.1 X $Seh4  
     范围质量 100.0 % DKu$u ]Z  
     复制 CRC 01B8A2DE }8#Ed;%K  
     复制成功 e\ cyiW0  
pCrm `hy(  
没有错误发生 \U]K!K=  
3 dJ362  
(lVMy\  
AccurateRip 摘要 pR93T+X  
8K?}!$fz  
音轨  1  精确地校准抓取  20)  [5F1B584E]  (AR v2) *bf 5A9  
音轨  2  精确地校准抓取  18)  [B1FCC8BE]  (AR v2) ~{tO8 ]  
音轨  3  精确地校准抓取  20)  [B12AA3C6]  (AR v2) `dG;SM$T,  
音轨  4  精确地校准抓取  20)  [9315FE9D]  (AR v2) 1' U  
音轨  5  精确地校准抓取  20)  [C4AC743A]  (AR v2) VGD~) z57  
音轨  6  精确地校准抓取  20)  [2CE4C21B]  (AR v2) 2#R$-* ;#  
音轨  7  精确地校准抓取  20)  [C1AD5A13]  (AR v2) o]Ne|PEpO  
音轨  8  精确地校准抓取  20)  [66577C11]  (AR v2) T@U,<[,   
音轨  9  精确地校准抓取  20)  [B8BB8966]  (AR v2) 1:](=%oM&k  
音轨 10  精确地校准抓取  20)  [F81A20A3]  (AR v2) !zF0 7.(E  
7<!x:G?C  
所有音轨精确校准抓取 g"5Kth  
eG!ma`v  
状态报告结尾
XV]xym~  
I V# 8W  
链接:http://pan.baidu.com/s/1i5oKRLb 密码: .Iqqjk  
此帖售价 60 金钱,已有 11 人购买 [记录] [购买]
购买后,将显示帖子中所有出售内容。
若发现会员采用欺骗的方法获取财富,请立刻举报,我们会对会员处以2-N倍的罚金,严重者封掉ID!
此段为出售的内容,购买后显示
离线小杰克逊

发帖
1550
金钱
1156
威望
883
贡献值
994
交易币
660
只看该作者 1楼 发表于: 01-03
沙发,谢谢幽灵兄
http://gcb918.taobao.com/
离线wannam

发帖
2580
金钱
75499
威望
363
贡献值
169
交易币
3223
只看该作者 2楼 发表于: 01-03
很多单曲都是反复听都不会厌的经典!
离线marlene55555

发帖
1161
金钱
34311
威望
293
贡献值
98
交易币
1337
只看该作者 3楼 发表于: 01-04
么么哒 不买了 支持下

发帖
2631
金钱
28098
威望
616
贡献值
33
交易币
268
只看该作者 4楼 发表于: 01-05
感谢分享。

离线lifan_npl

发帖
2062
金钱
18203
威望
777
贡献值
337
交易币
2415
只看该作者 5楼 发表于: 01-05
谢谢幽灵分享,辛苦了
我的淘宝:
http://shop63152617.taobao.com  
离线Mr灬W

发帖
1147
金钱
12923
威望
151
贡献值
46
交易币
1272
只看该作者 6楼 发表于: 01-08
感谢分享
Heal The World
离线solid_snake

发帖
44
金钱
348
威望
31
贡献值
0
交易币
45
只看该作者 7楼 发表于: 02-08
首版,这个一定要支持
离线mjnet

发帖
322
金钱
30238
威望
101
贡献值
51
交易币
487
只看该作者 8楼 发表于: 03-04
謝謝分享!!
离线mjbad25

发帖
134
金钱
6
威望
0
贡献值
1
交易币
139
只看该作者 9楼 发表于: 04-02
首版和再版连封面都不一样了呢
快速回复
限100 字节
 
上一个 下一个