论坛风格切换切换到宽版
  • 1923阅读
  • 18回复

[亲传][Album] 1979 Off The Wall [1st Version] (US - EK 35745) - WAV整轨 ♬by幽灵 [复制链接]

上一主题 下一主题
离线mjghosts
 

发帖
8263
金钱
219674
威望
9187
贡献值
2734
交易币
4798
只看楼主 倒序阅读 楼主  发表于: 2017-01-03
— 本帖被 mjghosts 执行加亮操作(2017-01-03) —
*MJ成年后首张个人专辑,在1979年发行黑胶,直到83年首次发行CD。欧、美首版均由日本压盘!首版中,Rock With You, Get On The Floor, Off The Wall的部分混音有不同,整张专辑的音质偏干涩,很古老的味道。完美精确校准抓轨! H{tG:KH  
obRYU|T  
注:独家整理,转载请注明出处!EAC无损整轨(压缩包内含CD图片) tAi ~i;?  
_NwB7@ e  
解压密码:www.mjsunny.com
&"R`:`XF  
 mS]&  
Tracklist xG7/[ jG  
1 Don't Stop 'Til You Get Enough     UG,<\k&  
2 Rock With You     =[D '3JB  
3 Working Day And Night     |ZmWhkOX  
4 Get On The Floor     Rch?@O#J  
5 Off The Wall     J;#7dRW{  
6 Girlfriend     wyC1M  
7 She's Out Of My Life     8Ben}j)H  
8 I Can't Help It     NU/:jr.W#  
9 It's The Falling In Love     'p> *4}  
10 Burn This Disco Out
tjWf`#tH>H  
W*jwf@ 0  
K)_DaTmi)  
Q3P*&6wA  
0$1-5XY9  
[W,}&  
Exact Audio Copy V1.0 beta 6 from 9. April 2015 Pp ~:e}  
/j(3 ~%]o4  
EAC 抓取日志文件从27. 十一月 2016, 21:03 s!eB8lkcT  
FAbl5VW'  
Michael Jackson / Off The Wall 5 4vDP9  
u~\I  
使用驱动器  :MATSHITADVD-RAM UJ890AS   Adapter: 1  ID: 1 SQ0t28N3h  
{- Y.C*E  
读取模式      : 可靠Secure o|O|e9m(  
使用精确流     : 是 u{d\3-]/  
清空音频缓存    : 否 _DAj$$ Ru4  
使用 C2 指示器 : 是 pxgVYr.  
+%: /!T@@  
读取偏移校正:               : 102 RI</T3%~  
读取 Lead-In 和 Lead-Out : 否 @kmOz(  
用静音填充抓取中丢失偏移的采样       : 是 IyJHKDFk  
去除首尾静音块               : 否 %{*)-_M  
在CRC 计算中使用了空样本       : 是 =/zb$d cz  
已用接口                  : Win NT 及 2000 本地 Win32 接口 _&xi})E^O]  
\#O}K  
所用输出模式: : 内部 WAV 函数 T2/lvvG  
样本格式    : 44.100 Hz; 16 Bit; 立体声 oTLA&dy@  
>xB[k-C4  
x_VD9  
已抓取 CD 的 TOC ExKjH*gn  
.,+TpP kc  
     音轨 |    起始    |    长度    |  起始扇区  |  结束扇区   7uq/C#N  
    -------------------------------------------- R q |,@  
      1 |  0:00.00 |  6:04.62 |      0 |  27361 wY'w'%A?  
      2 |  6:04.62 |  3:40.00 |  27362 |  43861 %<]4]h  
      3 |  9:44.62 |  5:14.13 |  43862 |  67424 w 8B SY  
      4 | 14:59.00 |  4:50.25 |  67425 |  89199 -g\;B  
      5 | 19:49.25 |  4:06.12 |  89200 | 107661 dn1Fwy.  
      6 | 23:55.37 |  3:04.63 | 107662 | 121524 OUFx M  
      7 | 27:00.25 |  3:38.12 | 121525 | 137886 {$xt.<  
      8 | 30:38.37 |  4:29.00 | 137887 | 158061 G nPrwDB  
      9 | 35:07.37 |  3:48.20 | 158062 | 175181 urhOvC$a  
     10 | 38:55.57 |  3:42.50 | 175182 | 191881 G_]zymXQ  
|i\%> Y,  
gY&WH9sp?9  
范围状态及错误 4;*jE (  
7 !dj&?  
已选择范围 7M)<Sv  
U@9v(TfV  
     文件名 J:\12 Music*音乐\1979 Off The Wall [1st Version] (US - EK 35745)\CDImage.wav iG#9 2e4  
E W`3$J;  
     峰值电平 100.0 % *zQhTYY  
     抓取速度 6.1 X fr'DV/T  
     范围质量 100.0 % \l%##7DRp]  
     复制 CRC 01B8A2DE 'P*OzZ4>$  
     复制成功 k!bG![Ie|  
0"Euf41  
没有错误发生 ?gBFfi  
Khl0~  
u1gD*4+  
AccurateRip 摘要 8 &v)Vi-  
@=%g{  
音轨  1  精确地校准抓取  20)  [5F1B584E]  (AR v2) o^'QGs "  
音轨  2  精确地校准抓取  18)  [B1FCC8BE]  (AR v2) 6oFA=CjU{  
音轨  3  精确地校准抓取  20)  [B12AA3C6]  (AR v2) F>5b[q6~4  
音轨  4  精确地校准抓取  20)  [9315FE9D]  (AR v2) Z$r7Hi  
音轨  5  精确地校准抓取  20)  [C4AC743A]  (AR v2) $~j9{*]5  
音轨  6  精确地校准抓取  20)  [2CE4C21B]  (AR v2) %mD{rG9  
音轨  7  精确地校准抓取  20)  [C1AD5A13]  (AR v2) a8G<x <  
音轨  8  精确地校准抓取  20)  [66577C11]  (AR v2) T\ukJ25!  
音轨  9  精确地校准抓取  20)  [B8BB8966]  (AR v2) g$vOWSI +  
音轨 10  精确地校准抓取  20)  [F81A20A3]  (AR v2) 'i:lV'  
hy@b/Y![M  
所有音轨精确校准抓取 -N6ek`  
ZG{#CC=  
状态报告结尾
\PFjw9s  
;O 5Iu  
链接:http://pan.baidu.com/s/1i5oKRLb 密码: ^#K^WV  
此帖售价 60 金钱,已有 18 人购买 [记录] [购买]
购买后,将显示帖子中所有出售内容。
若发现会员采用欺骗的方法获取财富,请立刻举报,我们会对会员处以2-N倍的罚金,严重者封掉ID!
此段为出售的内容,购买后显示
离线小杰克逊

发帖
1597
金钱
5567
威望
883
贡献值
994
交易币
707
只看该作者 1楼 发表于: 2017-01-03
沙发,谢谢幽灵兄
http://gcb918.taobao.com/
离线wannam

发帖
2703
金钱
87101
威望
382
贡献值
189
交易币
3346
只看该作者 2楼 发表于: 2017-01-03
很多单曲都是反复听都不会厌的经典!
离线marlene55555

发帖
1165
金钱
34275
威望
293
贡献值
98
交易币
1341
只看该作者 3楼 发表于: 2017-01-04
么么哒 不买了 支持下

发帖
2771
金钱
30937
威望
622
贡献值
39
交易币
432
只看该作者 4楼 发表于: 2017-01-05
感谢分享。

离线lifan_npl

发帖
2226
金钱
31750
威望
853
贡献值
430
交易币
2607
只看该作者 5楼 发表于: 2017-01-05
谢谢幽灵分享,辛苦了
我的淘宝店:
http://shop63152617.taobao.com  
离线Mr灬W

发帖
1130
金钱
12952
威望
161
贡献值
56
交易币
1283
只看该作者 6楼 发表于: 2017-01-08
感谢分享
Heal The World
离线solid_snake

发帖
44
金钱
348
威望
31
贡献值
0
交易币
45
只看该作者 7楼 发表于: 2017-02-08
首版,这个一定要支持
离线mjnet

发帖
381
金钱
30546
威望
104
贡献值
54
交易币
558
只看该作者 8楼 发表于: 2017-03-04
謝謝分享!!
离线mjbad25

发帖
168
金钱
4677
威望
0
贡献值
1
交易币
173
只看该作者 9楼 发表于: 2017-04-02
首版和再版连封面都不一样了呢
快速回复
限100 字节
 
上一个 下一个