论坛风格切换切换到宽版
  • 546阅读
  • 12回复

[亲传][Album] 1979 Off The Wall [1st Version] (US - EK 35745) - WAV整轨 ♬by幽灵 [复制链接]

上一主题 下一主题
离线mjghosts
 

发帖
8233
金钱
208923
威望
9161
贡献值
2712
交易币
4672
只看楼主 倒序阅读 楼主  发表于: 01-03
— 本帖被 mjghosts 执行加亮操作(2017-01-03) —
*MJ成年后首张个人专辑,在1979年发行黑胶,直到83年首次发行CD。欧、美首版均由日本压盘!首版中,Rock With You, Get On The Floor, Off The Wall的部分混音有不同,整张专辑的音质偏干涩,很古老的味道。完美精确校准抓轨! N}\Da: _  
MBCA%3z08  
注:独家整理,转载请注明出处!EAC无损整轨(压缩包内含CD图片) 9frx60  
=5&)^  
解压密码:www.mjsunny.com
( 5 d ~0  
yz-IZt(  
Tracklist @M4~,O6-  
1 Don't Stop 'Til You Get Enough     @6GM)N\{[  
2 Rock With You     uqZLlP#&#  
3 Working Day And Night     6__@?XzJ  
4 Get On The Floor     tBG :ECUL  
5 Off The Wall     bi!4I<E>k  
6 Girlfriend     .]ZM2  
7 She's Out Of My Life     ~U8#Iq1  
8 I Can't Help It     #s1M>M)  
9 It's The Falling In Love     ,@!8jar@w}  
10 Burn This Disco Out
%R;cXs4r  
!5`}s9hsF_  
wRPBJ-C)  
|f8by\Q86=  
}p t5.'l  
t@.gmUUA  
Exact Audio Copy V1.0 beta 6 from 9. April 2015 Z;S*fS-_  
ENC_#- 1x  
EAC 抓取日志文件从27. 十一月 2016, 21:03 '! 1ts@  
K?[pCF2C  
Michael Jackson / Off The Wall LEhku4U.  
jT: :o  
使用驱动器  :MATSHITADVD-RAM UJ890AS   Adapter: 1  ID: 1 Pms3X  
0y;&L63>T  
读取模式      : 可靠Secure ~n[LL)v  
使用精确流     : 是 #]lUJ &M}e  
清空音频缓存    : 否 +8^9:w0}  
使用 C2 指示器 : 是 C2<y(GU[Bh  
X8Sk  
读取偏移校正:               : 102 a m<R!(  
读取 Lead-In 和 Lead-Out : 否 WP]<\_r2  
用静音填充抓取中丢失偏移的采样       : 是 %4 SREq  
去除首尾静音块               : 否 h*MR5qa  
在CRC 计算中使用了空样本       : 是 @0 -B&w  
已用接口                  : Win NT 及 2000 本地 Win32 接口 yN>"r2   
&]LwK5SR  
所用输出模式: : 内部 WAV 函数 .qK=lHxT  
样本格式    : 44.100 Hz; 16 Bit; 立体声 22BJOh   
t*qA.xc6  
5)nv  
已抓取 CD 的 TOC HO@T2t[  
(VOKa  
     音轨 |    起始    |    长度    |  起始扇区  |  结束扇区   mr('zpkRq  
    -------------------------------------------- vj^U F(X  
      1 |  0:00.00 |  6:04.62 |      0 |  27361 'nT#3/rL  
      2 |  6:04.62 |  3:40.00 |  27362 |  43861 y:42H tS  
      3 |  9:44.62 |  5:14.13 |  43862 |  67424 p9s~WD/K  
      4 | 14:59.00 |  4:50.25 |  67425 |  89199 -:~`g*3#  
      5 | 19:49.25 |  4:06.12 |  89200 | 107661 > T-O3/KN  
      6 | 23:55.37 |  3:04.63 | 107662 | 121524 D{loX6  
      7 | 27:00.25 |  3:38.12 | 121525 | 137886 z9'0&G L  
      8 | 30:38.37 |  4:29.00 | 137887 | 158061 l?R_wu,Q  
      9 | 35:07.37 |  3:48.20 | 158062 | 175181 1|nB\xgu  
     10 | 38:55.57 |  3:42.50 | 175182 | 191881 4O`h%`M  
UpIf t=@P  
kyjH~mK4  
范围状态及错误 b?Jm)  
f9Xw]G9  
已选择范围 )F$Stg3e  
ho20> vw#  
     文件名 J:\12 Music*音乐\1979 Off The Wall [1st Version] (US - EK 35745)\CDImage.wav |M?HdxPa  
%nCUct@c  
     峰值电平 100.0 % 9@1W=sl  
     抓取速度 6.1 X @i68%6H`?  
     范围质量 100.0 %  qN QsU  
     复制 CRC 01B8A2DE b5|p#&YK~  
     复制成功 Jzdc'3dq  
g.]'0)DMW  
没有错误发生 64vSJx>u  
RnrM rOh  
]03ZrZ! PM  
AccurateRip 摘要 #TWc` 8  
Vj]kJ,j\y  
音轨  1  精确地校准抓取  20)  [5F1B584E]  (AR v2) ^pjez+  
音轨  2  精确地校准抓取  18)  [B1FCC8BE]  (AR v2) +o3g]0  
音轨  3  精确地校准抓取  20)  [B12AA3C6]  (AR v2) nKO&ffb'<  
音轨  4  精确地校准抓取  20)  [9315FE9D]  (AR v2) ?>y-5B[K/(  
音轨  5  精确地校准抓取  20)  [C4AC743A]  (AR v2) S8=4C`>jf  
音轨  6  精确地校准抓取  20)  [2CE4C21B]  (AR v2) TUaK:*x*  
音轨  7  精确地校准抓取  20)  [C1AD5A13]  (AR v2) nX~MoWH1  
音轨  8  精确地校准抓取  20)  [66577C11]  (AR v2) vO_quQ[.  
音轨  9  精确地校准抓取  20)  [B8BB8966]  (AR v2) c6HU'%v  
音轨 10  精确地校准抓取  20)  [F81A20A3]  (AR v2) *[H+8/n_  
%5G BMMn  
所有音轨精确校准抓取 \uk#pL  
$dP)8_Z2  
状态报告结尾
+V@=G &Ou0  
$5b|@  
链接:http://pan.baidu.com/s/1i5oKRLb 密码:  YBD{l  
此帖售价 60 金钱,已有 12 人购买 [记录] [购买]
购买后,将显示帖子中所有出售内容。
若发现会员采用欺骗的方法获取财富,请立刻举报,我们会对会员处以2-N倍的罚金,严重者封掉ID!
此段为出售的内容,购买后显示
离线小杰克逊

发帖
1583
金钱
1002
威望
883
贡献值
994
交易币
693
只看该作者 1楼 发表于: 01-03
沙发,谢谢幽灵兄
http://gcb918.taobao.com/
离线wannam

发帖
2680
金钱
86709
威望
382
贡献值
189
交易币
3323
只看该作者 2楼 发表于: 01-03
很多单曲都是反复听都不会厌的经典!
离线marlene55555

发帖
1161
金钱
34314
威望
293
贡献值
98
交易币
1337
只看该作者 3楼 发表于: 01-04
么么哒 不买了 支持下

发帖
2650
金钱
28497
威望
617
贡献值
34
交易币
291
只看该作者 4楼 发表于: 01-05
感谢分享。

离线lifan_npl

发帖
2086
金钱
18040
威望
787
贡献值
347
交易币
2439
只看该作者 5楼 发表于: 01-05
谢谢幽灵分享,辛苦了
我的淘宝:
http://shop63152617.taobao.com  
离线Mr灬W

发帖
1156
金钱
12831
威望
161
贡献值
56
交易币
1281
只看该作者 6楼 发表于: 01-08
感谢分享
Heal The World
离线solid_snake

发帖
44
金钱
348
威望
31
贡献值
0
交易币
45
只看该作者 7楼 发表于: 02-08
首版,这个一定要支持
离线mjnet

发帖
352
金钱
30861
威望
104
贡献值
54
交易币
529
只看该作者 8楼 发表于: 03-04
謝謝分享!!
离线mjbad25

发帖
134
金钱
6006
威望
0
贡献值
1
交易币
139
只看该作者 9楼 发表于: 04-02
首版和再版连封面都不一样了呢
快速回复
限100 字节
 
上一个 下一个