论坛风格切换切换到宽版
  • 265阅读
  • 8回复

[亲传][Album] 1979 Off The Wall [1st Version] (US - EK 35745) - WAV整轨 ♬by幽灵 [复制链接]

上一主题 下一主题
离线mjghosts
 

发帖
8191
金钱
204337
威望
9035
贡献值
2641
交易币
4550
只看楼主 倒序阅读 楼主  发表于: 01-03
— 本帖被 mjghosts 执行加亮操作(2017-01-03) —
*MJ成年后首张个人专辑,在1979年发行黑胶,直到83年首次发行CD。欧、美首版均由日本压盘!首版中,Rock With You, Get On The Floor, Off The Wall的部分混音有不同,整张专辑的音质偏干涩,很古老的味道。完美精确校准抓轨! 'Sgz\ =K  
9*~";{O.Oa  
注:独家整理,转载请注明出处!EAC无损整轨(压缩包内含CD图片) #zgO_ H  
=oq=``%  
解压密码:www.mjsunny.com
%S`Wu|y  
v.sjWF  
Tracklist 6)ysiAH?  
1 Don't Stop 'Til You Get Enough     X]2x0  
2 Rock With You     Jq"3xj   
3 Working Day And Night     [5!{>L`  
4 Get On The Floor     xY.?OHgG/  
5 Off The Wall     yK"HHdYTV  
6 Girlfriend     Pd;8<UMk  
7 She's Out Of My Life     Ps(oxj7  
8 I Can't Help It     y"8,jm  
9 It's The Falling In Love     A|4 3W =  
10 Burn This Disco Out
JSylQ201  
}Q\+w,pJgN  
B7Zi|-F  
{wk#n.c  
0ap'6  
']sj W'~  
Exact Audio Copy V1.0 beta 6 from 9. April 2015 kaoiSL<[6  
^xScVOdP  
EAC 抓取日志文件从27. 十一月 2016, 21:03 u(hJyo}  
N9*QQ0  
Michael Jackson / Off The Wall 6f t6;*,  
j, *= D6  
使用驱动器  :MATSHITADVD-RAM UJ890AS   Adapter: 1  ID: 1 =HV${+K=~  
,_<|e\>~  
读取模式      : 可靠Secure @A`j Wao  
使用精确流     : 是 Eg}U.ss^  
清空音频缓存    : 否 @)!N{x?  
使用 C2 指示器 : 是 U 9Ea }aN  
d0Ubt  
读取偏移校正:               : 102 ly_8p63-  
读取 Lead-In 和 Lead-Out : 否 Akws I@@  
用静音填充抓取中丢失偏移的采样       : 是 8\C][ y  
去除首尾静音块               : 否 <c<!|<x  
在CRC 计算中使用了空样本       : 是 2}* 8( 32  
已用接口                  : Win NT 及 2000 本地 Win32 接口 ;|$oz{Ll  
.LnknjC  
所用输出模式: : 内部 WAV 函数 4pelIoj  
样本格式    : 44.100 Hz; 16 Bit; 立体声 '{.8tT ?tJ  
a({N}ZDo  
Nz*,m'-1e  
已抓取 CD 的 TOC l[%=S!  
lOe|]pQ.,  
     音轨 |    起始    |    长度    |  起始扇区  |  结束扇区   p-w:l*-`  
    -------------------------------------------- JBZ1DZAWC  
      1 |  0:00.00 |  6:04.62 |      0 |  27361 V,8Z!.MG  
      2 |  6:04.62 |  3:40.00 |  27362 |  43861 F!4V!VWA}  
      3 |  9:44.62 |  5:14.13 |  43862 |  67424 N>Uxq& )!  
      4 | 14:59.00 |  4:50.25 |  67425 |  89199 4%_xT o  
      5 | 19:49.25 |  4:06.12 |  89200 | 107661 wa`c3PQGu  
      6 | 23:55.37 |  3:04.63 | 107662 | 121524 u86@zlzd  
      7 | 27:00.25 |  3:38.12 | 121525 | 137886 =*zde0T?l  
      8 | 30:38.37 |  4:29.00 | 137887 | 158061 <%rm?;PBl  
      9 | 35:07.37 |  3:48.20 | 158062 | 175181 D:z_FNN  
     10 | 38:55.57 |  3:42.50 | 175182 | 191881 ?Pf#~U_  
)~ &gBX  
\j BA4?(S  
范围状态及错误 0 VG;z#{J  
9Nx%Sdu  
已选择范围  ylS6D  
.)p%|A#^  
     文件名 J:\12 Music*音乐\1979 Off The Wall [1st Version] (US - EK 35745)\CDImage.wav xirq$sEl  
^Pu:&:ki  
     峰值电平 100.0 % X?&{< vz  
     抓取速度 6.1 X '=\>n(%Q  
     范围质量 100.0 % ~ F-lO1  
     复制 CRC 01B8A2DE L$+_  
     复制成功 h+Yd \k  
_iEnS4$A8  
没有错误发生 & BY\h:  
"9"  
N7 hlM  
AccurateRip 摘要 ^e ;9_(  
iVf7;M8O  
音轨  1  精确地校准抓取  20)  [5F1B584E]  (AR v2) 3;wiwN'  
音轨  2  精确地校准抓取  18)  [B1FCC8BE]  (AR v2) mO(Y>|mm  
音轨  3  精确地校准抓取  20)  [B12AA3C6]  (AR v2) 4GG>n  
音轨  4  精确地校准抓取  20)  [9315FE9D]  (AR v2) q8;MPXSG3  
音轨  5  精确地校准抓取  20)  [C4AC743A]  (AR v2) C+jXH)|iq  
音轨  6  精确地校准抓取  20)  [2CE4C21B]  (AR v2) %6Vb1?x  
音轨  7  精确地校准抓取  20)  [C1AD5A13]  (AR v2) Z#(Y%6[u  
音轨  8  精确地校准抓取  20)  [66577C11]  (AR v2) F?6Q(mRl  
音轨  9  精确地校准抓取  20)  [B8BB8966]  (AR v2) J4U_utp  
音轨 10  精确地校准抓取  20)  [F81A20A3]  (AR v2) , /jHhKW  
|:4?K*w",  
所有音轨精确校准抓取 -1NR]#P'  
kdx06'4o  
状态报告结尾
6gO(  8  
m']$)Iqw  
链接:http://pan.baidu.com/s/1i5oKRLb 密码: #w\x-i|  
此帖售价 60 金钱,已有 8 人购买 [记录] [购买]
购买后,将显示帖子中所有出售内容。
若发现会员采用欺骗的方法获取财富,请立刻举报,我们会对会员处以2-N倍的罚金,严重者封掉ID!
此段为出售的内容,购买后显示
离线小杰克逊

发帖
1547
金钱
1193
威望
883
贡献值
994
交易币
657
只看该作者 1楼 发表于: 01-03
沙发,谢谢幽灵兄
http://gcb918.taobao.com/
离线wannam

发帖
2546
金钱
69469
威望
363
贡献值
169
交易币
3189
只看该作者 2楼 发表于: 01-03
很多单曲都是反复听都不会厌的经典!
离线marlene55555

发帖
1161
金钱
34311
威望
293
贡献值
98
交易币
1337
只看该作者 3楼 发表于: 01-04
么么哒 不买了 支持下

发帖
2626
金钱
27927
威望
599
贡献值
31
交易币
255
只看该作者 4楼 发表于: 01-05
感谢分享。

离线lifan_npl

发帖
2058
金钱
18220
威望
777
贡献值
337
交易币
2411
只看该作者 5楼 发表于: 01-05
谢谢幽灵分享,辛苦了
我的淘宝:
http://shop63152617.taobao.com  
离线Mr灬W

发帖
1146
金钱
13022
威望
152
贡献值
46
交易币
1271
只看该作者 6楼 发表于: 01-08
感谢分享
Heal The World
离线solid_snake

发帖
44
金钱
348
威望
31
贡献值
0
交易币
45
只看该作者 7楼 发表于: 02-08
首版,这个一定要支持
离线mjnet

发帖
314
金钱
24322
威望
95
贡献值
50
交易币
475
只看该作者 8楼 发表于: 03-04
謝謝分享!!
快速回复
限100 字节
 
上一个 下一个