论坛风格切换切换到宽版
  • 664阅读
  • 13回复

[亲传][Album] 1979 Off The Wall [1st Version] (US - EK 35745) - WAV整轨 ♬by幽灵 [复制链接]

上一主题 下一主题
离线mjghosts
 

发帖
8247
金钱
210503
威望
9164
贡献值
2715
交易币
4698
只看楼主 倒序阅读 楼主  发表于: 01-03
— 本帖被 mjghosts 执行加亮操作(2017-01-03) —
*MJ成年后首张个人专辑,在1979年发行黑胶,直到83年首次发行CD。欧、美首版均由日本压盘!首版中,Rock With You, Get On The Floor, Off The Wall的部分混音有不同,整张专辑的音质偏干涩,很古老的味道。完美精确校准抓轨! o;kxu(>yL'  
{P {h|+;  
注:独家整理,转载请注明出处!EAC无损整轨(压缩包内含CD图片) <jAn~=Uq[,  
v ^R:XdH  
解压密码:www.mjsunny.com
,{C hHnJ%#  
Oq9E$0JW  
Tracklist koa-sy)#L  
1 Don't Stop 'Til You Get Enough     B,fVNpqo  
2 Rock With You     A2.GNk  
3 Working Day And Night     qi*Dd[OG  
4 Get On The Floor     P0/Ctke;  
5 Off The Wall     25j?0P"&  
6 Girlfriend     OFxCV`>ce  
7 She's Out Of My Life     mM r$~^P:  
8 I Can't Help It     Mh2Zj  
9 It's The Falling In Love     ?[|A sw1t  
10 Burn This Disco Out
DL#y_;#3_  
1\%@oD_zG  
?,] eN&`  
M?=I{}!@Q  
>l #D9%  
yeMe2Zx  
Exact Audio Copy V1.0 beta 6 from 9. April 2015 Pe-rwM  
L0I |V[  
EAC 抓取日志文件从27. 十一月 2016, 21:03 k7{|\w%  
? HNuffk  
Michael Jackson / Off The Wall FA;-D5=  
l!KPgRw  
使用驱动器  :MATSHITADVD-RAM UJ890AS   Adapter: 1  ID: 1 ,Vo[mB  
$cc]Av4c2  
读取模式      : 可靠Secure :<k (y?GB  
使用精确流     : 是 5~T+d1md  
清空音频缓存    : 否 >3ZhPvE-p'  
使用 C2 指示器 : 是 @D=%J!!*  
GvgTbCxnN  
读取偏移校正:               : 102 V=th-o3[  
读取 Lead-In 和 Lead-Out : 否 T0"nzukd  
用静音填充抓取中丢失偏移的采样       : 是 =EM<LjO  
去除首尾静音块               : 否 K5T1dBl,0  
在CRC 计算中使用了空样本       : 是 &a e!lB  
已用接口                  : Win NT 及 2000 本地 Win32 接口 $joGda  
EA1&D^nT  
所用输出模式: : 内部 WAV 函数 59SL mj  
样本格式    : 44.100 Hz; 16 Bit; 立体声 X"`[&l1  
qN' 3{jiPL  
i M MKA0JM  
已抓取 CD 的 TOC aJjUy%  
`EvO^L   
     音轨 |    起始    |    长度    |  起始扇区  |  结束扇区   [Y.JC'F#  
    -------------------------------------------- 1R*;U8?  
      1 |  0:00.00 |  6:04.62 |      0 |  27361 :(/1,]bF  
      2 |  6:04.62 |  3:40.00 |  27362 |  43861 }2*qv4},!  
      3 |  9:44.62 |  5:14.13 |  43862 |  67424 <?L5bhq  
      4 | 14:59.00 |  4:50.25 |  67425 |  89199 "d~<{(:N^  
      5 | 19:49.25 |  4:06.12 |  89200 | 107661 ~p{YuW[e  
      6 | 23:55.37 |  3:04.63 | 107662 | 121524 rP"Y.;s  
      7 | 27:00.25 |  3:38.12 | 121525 | 137886 i88`W&tI{  
      8 | 30:38.37 |  4:29.00 | 137887 | 158061 NL-PQ%lUA  
      9 | 35:07.37 |  3:48.20 | 158062 | 175181 TI"Ki$jC  
     10 | 38:55.57 |  3:42.50 | 175182 | 191881 gr.G']9lNq  
_wW"Tn]  
q_>=| b  
范围状态及错误 irB}h!@  
D42!#  
已选择范围 8D^ iQBA  
pM!cF  
     文件名 J:\12 Music*音乐\1979 Off The Wall [1st Version] (US - EK 35745)\CDImage.wav R}OjSiS\  
xw1n;IO4  
     峰值电平 100.0 % \!r,>P   
     抓取速度 6.1 X ?)/&tk9.n  
     范围质量 100.0 % SRyot:l   
     复制 CRC 01B8A2DE u-X P `  
     复制成功 vA@\V)s  
7D)i]68E  
没有错误发生 `1U?^9Nf  
'?v-o)X  
jMB&(r  
AccurateRip 摘要 DAtZp%  
mtg3}etA  
音轨  1  精确地校准抓取  20)  [5F1B584E]  (AR v2) )=c/{  
音轨  2  精确地校准抓取  18)  [B1FCC8BE]  (AR v2) Y$ To)qo  
音轨  3  精确地校准抓取  20)  [B12AA3C6]  (AR v2) ic_q<Y}  
音轨  4  精确地校准抓取  20)  [9315FE9D]  (AR v2) {x#I&ra  
音轨  5  精确地校准抓取  20)  [C4AC743A]  (AR v2) )LP=IT  
音轨  6  精确地校准抓取  20)  [2CE4C21B]  (AR v2) E 9LKVs}  
音轨  7  精确地校准抓取  20)  [C1AD5A13]  (AR v2) 8I X,q  
音轨  8  精确地校准抓取  20)  [66577C11]  (AR v2) uGxh}'&  
音轨  9  精确地校准抓取  20)  [B8BB8966]  (AR v2) G2A^+R0\  
音轨 10  精确地校准抓取  20)  [F81A20A3]  (AR v2) ,a&&y0,  
VX!UT=;  
所有音轨精确校准抓取 sSM^net0  
O$2= Z  
状态报告结尾
)@X `B d  
8op,;Z7Y  
链接:http://pan.baidu.com/s/1i5oKRLb 密码: N^G:m~>  
此帖售价 60 金钱,已有 14 人购买 [记录] [购买]
购买后,将显示帖子中所有出售内容。
若发现会员采用欺骗的方法获取财富,请立刻举报,我们会对会员处以2-N倍的罚金,严重者封掉ID!
此段为出售的内容,购买后显示
离线小杰克逊

发帖
1588
金钱
5953
威望
883
贡献值
994
交易币
698
只看该作者 1楼 发表于: 01-03
沙发,谢谢幽灵兄
http://gcb918.taobao.com/
离线wannam

发帖
2697
金钱
86875
威望
382
贡献值
189
交易币
3340
只看该作者 2楼 发表于: 01-03
很多单曲都是反复听都不会厌的经典!
离线marlene55555

发帖
1161
金钱
34314
威望
293
贡献值
98
交易币
1337
只看该作者 3楼 发表于: 01-04
么么哒 不买了 支持下

发帖
2658
金钱
28594
威望
617
贡献值
34
交易币
299
只看该作者 4楼 发表于: 01-05
感谢分享。

离线lifan_npl

发帖
2117
金钱
17682
威望
787
贡献值
347
交易币
2470
只看该作者 5楼 发表于: 01-05
谢谢幽灵分享,辛苦了
我的淘宝:
http://shop63152617.taobao.com  
离线Mr灬W

发帖
1156
金钱
12819
威望
161
贡献值
56
交易币
1281
只看该作者 6楼 发表于: 01-08
感谢分享
Heal The World
离线solid_snake

发帖
44
金钱
348
威望
31
贡献值
0
交易币
45
只看该作者 7楼 发表于: 02-08
首版,这个一定要支持
离线mjnet

发帖
368
金钱
30506
威望
104
贡献值
54
交易币
545
只看该作者 8楼 发表于: 03-04
謝謝分享!!
离线mjbad25

发帖
134
金钱
6006
威望
0
贡献值
1
交易币
139
只看该作者 9楼 发表于: 04-02
首版和再版连封面都不一样了呢
快速回复
限100 字节
 
上一个 下一个