论坛风格切换切换到宽版
  • 163阅读
  • 6回复

[亲传][Album] 1979 Off The Wall [1st Version] (US - EK 35745) - WAV整轨 ♬by幽灵 [复制链接]

上一主题 下一主题
离线mjghosts
 

发帖
8164
金钱
198371
威望
8946
贡献值
2637
交易币
4507
只看楼主 倒序阅读 楼主  发表于: 01-03
— 本帖被 mjghosts 执行加亮操作(2017-01-03) —
*MJ成年后首张个人专辑,在1979年发行黑胶,直到83年首次发行CD。欧、美首版均由日本压盘!首版中,Rock With You, Get On The Floor, Off The Wall的部分混音有不同,整张专辑的音质偏干涩,很古老的味道。完美精确校准抓轨! oZ!1^o3V  
tW8&:L,m  
注:独家整理,转载请注明出处!EAC无损整轨(压缩包内含CD图片) c?/R=/H  
K!cLEG!G  
解压密码:www.mjsunny.com
d OYEl<!J  
gd,3}@@SH  
Tracklist $-Yq?:  
1 Don't Stop 'Til You Get Enough     ?B5934X  
2 Rock With You     VUF$,F9  
3 Working Day And Night     \8}!aTC  
4 Get On The Floor     p7{%0  
5 Off The Wall     NU <K+k  
6 Girlfriend     MKPw;@-  
7 She's Out Of My Life     |Vj@;+/j  
8 I Can't Help It     ?\.DG`Zxc  
9 It's The Falling In Love     }NgevsV>;  
10 Burn This Disco Out
I%Yeq"5RB  
YK V?I   
1I#]OY#>  
<{Pr(U*7}  
{Y7dE?!`7  
+WTO_J7  
Exact Audio Copy V1.0 beta 6 from 9. April 2015 E8LZ% N#  
y~Ts9AE  
EAC 抓取日志文件从27. 十一月 2016, 21:03 >K@Y8J+ e#  
1. S?(1e"  
Michael Jackson / Off The Wall ^lP;JT?  
<u Kd)l  
使用驱动器  :MATSHITADVD-RAM UJ890AS   Adapter: 1  ID: 1 ^Q9;ro*;ck  
,l )7]p*X  
读取模式      : 可靠Secure O}Mu_edM  
使用精确流     : 是 7ZR0cJw;  
清空音频缓存    : 否 tM DJ,rT  
使用 C2 指示器 : 是 /YrBnccqD  
(M;jnQ0  
读取偏移校正:               : 102 ?? 2x*l1  
读取 Lead-In 和 Lead-Out : 否 b uOpHQn  
用静音填充抓取中丢失偏移的采样       : 是 UfxY D  
去除首尾静音块               : 否 s.IYPH|pn  
在CRC 计算中使用了空样本       : 是 4 >`2vb  
已用接口                  : Win NT 及 2000 本地 Win32 接口 VNT*@^O_=  
jnzOTS   
所用输出模式: : 内部 WAV 函数 ?K!^[aO}=  
样本格式    : 44.100 Hz; 16 Bit; 立体声 /BQB7vL  
< pWk   
duq(K9S  
已抓取 CD 的 TOC CY</v,\:#  
I ]HP  
     音轨 |    起始    |    长度    |  起始扇区  |  结束扇区   );!IGcgF  
    -------------------------------------------- lK"m|Z  
      1 |  0:00.00 |  6:04.62 |      0 |  27361 h6;vOd~%  
      2 |  6:04.62 |  3:40.00 |  27362 |  43861 AO~f=GW  
      3 |  9:44.62 |  5:14.13 |  43862 |  67424 Z!foD^&R  
      4 | 14:59.00 |  4:50.25 |  67425 |  89199 1a]QNl_x  
      5 | 19:49.25 |  4:06.12 |  89200 | 107661 @aC9O 9|~  
      6 | 23:55.37 |  3:04.63 | 107662 | 121524 cUj^aTpm  
      7 | 27:00.25 |  3:38.12 | 121525 | 137886 h]>7Dl]  
      8 | 30:38.37 |  4:29.00 | 137887 | 158061  \<u  
      9 | 35:07.37 |  3:48.20 | 158062 | 175181 X0 ^~`g  
     10 | 38:55.57 |  3:42.50 | 175182 | 191881 pQCocy  
=OamN7V=  
F&u)wI'  
范围状态及错误 mkuK$Mj  
1)t*l;.  
已选择范围 vX}#wDNP  
MRN=-|fV^  
     文件名 J:\12 Music*音乐\1979 Off The Wall [1st Version] (US - EK 35745)\CDImage.wav ` #; "  
HB*H%>L{"B  
     峰值电平 100.0 % {wh, "Ok_  
     抓取速度 6.1 X c|s7 cG$+-  
     范围质量 100.0 % \\P*w$c   
     复制 CRC 01B8A2DE &a!MT^anA~  
     复制成功 tLzb*U8'1w  
k"F\4M  
没有错误发生 >Vph_98|  
#pnB+h&tE  
#c$z&J7e  
AccurateRip 摘要 #<DS-^W!  
dLbSvK<(I  
音轨  1  精确地校准抓取  20)  [5F1B584E]  (AR v2) *h M5pw  
音轨  2  精确地校准抓取  18)  [B1FCC8BE]  (AR v2) .&2~g A  
音轨  3  精确地校准抓取  20)  [B12AA3C6]  (AR v2) o&MOcy D  
音轨  4  精确地校准抓取  20)  [9315FE9D]  (AR v2) \49s;\I]  
音轨  5  精确地校准抓取  20)  [C4AC743A]  (AR v2) x7!gmbMfK'  
音轨  6  精确地校准抓取  20)  [2CE4C21B]  (AR v2) IG90mpLX  
音轨  7  精确地校准抓取  20)  [C1AD5A13]  (AR v2) -"6Z@8=  
音轨  8  精确地校准抓取  20)  [66577C11]  (AR v2) 5;X r0f  
音轨  9  精确地校准抓取  20)  [B8BB8966]  (AR v2) \k3EFSm  
音轨 10  精确地校准抓取  20)  [F81A20A3]  (AR v2) \Vx_$E  
&3 *#h  
所有音轨精确校准抓取 K(#O@Wmjq  
elz0t<V  
状态报告结尾
20/P:;  
U+,RP$r@  
链接:http://pan.baidu.com/s/1i5oKRLb 密码: hv*XuT/  
此帖售价 60 金钱,已有 6 人购买 [记录] [购买]
购买后,将显示帖子中所有出售内容。
若发现会员采用欺骗的方法获取财富,请立刻举报,我们会对会员处以2-N倍的罚金,严重者封掉ID!
此段为出售的内容,购买后显示
离线小杰克逊

发帖
1538
金钱
1419
威望
883
贡献值
994
交易币
648
只看该作者 1楼 发表于: 01-03
沙发,谢谢幽灵兄
http://gcb918.taobao.com/
离线wannam

发帖
2415
金钱
65792
威望
363
贡献值
169
交易币
3058
只看该作者 2楼 发表于: 01-03
很多单曲都是反复听都不会厌的经典!
离线marlene55555

发帖
1158
金钱
34296
威望
293
贡献值
98
交易币
1334
只看该作者 3楼 发表于: 01-04
么么哒 不买了 支持下

发帖
2620
金钱
27617
威望
598
贡献值
30
交易币
245
只看该作者 4楼 发表于: 01-05
感谢分享。

离线lifan_npl

发帖
2046
金钱
18376
威望
776
贡献值
336
交易币
2395
只看该作者 5楼 发表于: 01-05
谢谢幽灵分享,辛苦了
我的淘宝:
http://shop63152617.taobao.com  
离线Mr灬W

发帖
1140
金钱
13023
威望
152
贡献值
46
交易币
1265
只看该作者 6楼 发表于: 01-08
感谢分享
Heal The World
快速回复
限100 字节
 
上一个 下一个