论坛风格切换切换到宽版
  • 1785阅读
  • 17回复

[亲传][Album] 1979 Off The Wall [1st Version] (US - EK 35745) - WAV整轨 ♬by幽灵 [复制链接]

上一主题 下一主题
离线mjghosts
 

发帖
8261
金钱
219535
威望
9187
贡献值
2734
交易币
4796
只看楼主 倒序阅读 楼主  发表于: 2017-01-03
— 本帖被 mjghosts 执行加亮操作(2017-01-03) —
*MJ成年后首张个人专辑,在1979年发行黑胶,直到83年首次发行CD。欧、美首版均由日本压盘!首版中,Rock With You, Get On The Floor, Off The Wall的部分混音有不同,整张专辑的音质偏干涩,很古老的味道。完美精确校准抓轨! Gw{+xz KJ  
jDTUXwx7V  
注:独家整理,转载请注明出处!EAC无损整轨(压缩包内含CD图片) M&yqfb[  
c'0 5{C  
解压密码:www.mjsunny.com
Yy h=G  
7'OPjt M  
Tracklist ETp'oh}?  
1 Don't Stop 'Til You Get Enough     FH*RU1Z  
2 Rock With You     GMm'of#  
3 Working Day And Night     U3F3((EYJ  
4 Get On The Floor     RH1uVdJ1  
5 Off The Wall     e<5Y94YE  
6 Girlfriend     / Z!i;@Wf  
7 She's Out Of My Life     ]MAT2$"le  
8 I Can't Help It     c_1/W{  
9 It's The Falling In Love     BXhWTGiG  
10 Burn This Disco Out
`|<+  ?  
qI2'u%  
 r(`nt-o@  
sR*Nq5F#9  
K t `  
G|9B )`S  
Exact Audio Copy V1.0 beta 6 from 9. April 2015 LfX0Z=<  
9?`RR/w  
EAC 抓取日志文件从27. 十一月 2016, 21:03 40K2uT{cq  
:oa9#c`L  
Michael Jackson / Off The Wall d6.}.*7Whc  
|}S1o0v{(a  
使用驱动器  :MATSHITADVD-RAM UJ890AS   Adapter: 1  ID: 1 6Rz[?-mkLO  
=nhzMU9c\y  
读取模式      : 可靠Secure W_<4WG  
使用精确流     : 是 /V^sJ($V$~  
清空音频缓存    : 否 s~$zWx@v  
使用 C2 指示器 : 是 xo~g78jm7,  
_01Px a2.  
读取偏移校正:               : 102 A&N*F"q  
读取 Lead-In 和 Lead-Out : 否 LK+felL  
用静音填充抓取中丢失偏移的采样       : 是 \"d?=uFe  
去除首尾静音块               : 否 ct0v$ct>f  
在CRC 计算中使用了空样本       : 是 SDc" 4g`  
已用接口                  : Win NT 及 2000 本地 Win32 接口 Ae3,^  
hTTfJDF  
所用输出模式: : 内部 WAV 函数 7bT /KLU  
样本格式    : 44.100 Hz; 16 Bit; 立体声 @L;C_GEa  
0N VI +Z$  
QUp?i  
已抓取 CD 的 TOC `M rBav  
][t 6VA  
     音轨 |    起始    |    长度    |  起始扇区  |  结束扇区   i4VK{G~g"  
    -------------------------------------------- Omb.53+  
      1 |  0:00.00 |  6:04.62 |      0 |  27361 ee<H@LeG  
      2 |  6:04.62 |  3:40.00 |  27362 |  43861 %M6 c0d[9-  
      3 |  9:44.62 |  5:14.13 |  43862 |  67424 ai^t= s  
      4 | 14:59.00 |  4:50.25 |  67425 |  89199 GLcd9|H  
      5 | 19:49.25 |  4:06.12 |  89200 | 107661 eP?~- #  
      6 | 23:55.37 |  3:04.63 | 107662 | 121524 InN{^uN  
      7 | 27:00.25 |  3:38.12 | 121525 | 137886 3W'FcE)|E  
      8 | 30:38.37 |  4:29.00 | 137887 | 158061 f?5A"-NS  
      9 | 35:07.37 |  3:48.20 | 158062 | 175181 D&f!( n  
     10 | 38:55.57 |  3:42.50 | 175182 | 191881 RxMoD.kx  
nj"m^PmWo3  
1~L\s}|2d  
范围状态及错误 UI_v3c3b  
G}q<{<+$  
已选择范围 ;tXY =  
-zR.'x%  
     文件名 J:\12 Music*音乐\1979 Off The Wall [1st Version] (US - EK 35745)\CDImage.wav G-ZhGbAI7  
~\3l!zIq  
     峰值电平 100.0 % ,k\/]9  
     抓取速度 6.1 X Z|}H^0~7S  
     范围质量 100.0 % 3#B@83C0Z  
     复制 CRC 01B8A2DE @f\ X4!e*y  
     复制成功 am3V9 "\  
58 kv#;j  
没有错误发生 w 7Cne%J8  
9zmD6G!}t  
h<+PP]l=  
AccurateRip 摘要 vx({N?  
%i;r]z-  
音轨  1  精确地校准抓取  20)  [5F1B584E]  (AR v2) (O M?aW  
音轨  2  精确地校准抓取  18)  [B1FCC8BE]  (AR v2) X67C;H+  
音轨  3  精确地校准抓取  20)  [B12AA3C6]  (AR v2) &0;{lS[N:L  
音轨  4  精确地校准抓取  20)  [9315FE9D]  (AR v2) !`O_VV`/@  
音轨  5  精确地校准抓取  20)  [C4AC743A]  (AR v2) D7gX,e  
音轨  6  精确地校准抓取  20)  [2CE4C21B]  (AR v2) LX(iuf+l  
音轨  7  精确地校准抓取  20)  [C1AD5A13]  (AR v2) LS2ek*FJO  
音轨  8  精确地校准抓取  20)  [66577C11]  (AR v2) 0^)8*O9$  
音轨  9  精确地校准抓取  20)  [B8BB8966]  (AR v2) q. ,p6D  
音轨 10  精确地校准抓取  20)  [F81A20A3]  (AR v2) ;*37ta  
^b `>/>  
所有音轨精确校准抓取 hiK[!9r  
He71h(BHm  
状态报告结尾
Dxa)7dA|  
f{ 4G  
链接:http://pan.baidu.com/s/1i5oKRLb 密码: a_iQlsU  
此帖售价 60 金钱,已有 17 人购买 [记录] [购买]
购买后,将显示帖子中所有出售内容。
若发现会员采用欺骗的方法获取财富,请立刻举报,我们会对会员处以2-N倍的罚金,严重者封掉ID!
此段为出售的内容,购买后显示
离线小杰克逊

发帖
1597
金钱
5567
威望
883
贡献值
994
交易币
707
只看该作者 1楼 发表于: 2017-01-03
沙发,谢谢幽灵兄
http://gcb918.taobao.com/
离线wannam

发帖
2703
金钱
87081
威望
382
贡献值
189
交易币
3346
只看该作者 2楼 发表于: 2017-01-03
很多单曲都是反复听都不会厌的经典!
离线marlene55555

发帖
1165
金钱
34275
威望
293
贡献值
98
交易币
1341
只看该作者 3楼 发表于: 2017-01-04
么么哒 不买了 支持下

发帖
2765
金钱
30989
威望
622
贡献值
39
交易币
426
只看该作者 4楼 发表于: 2017-01-05
感谢分享。

离线lifan_npl

发帖
2221
金钱
31747
威望
853
贡献值
430
交易币
2602
只看该作者 5楼 发表于: 2017-01-05
谢谢幽灵分享,辛苦了
我的淘宝店:
http://shop63152617.taobao.com  
离线Mr灬W

发帖
1130
金钱
12952
威望
161
贡献值
56
交易币
1283
只看该作者 6楼 发表于: 2017-01-08
感谢分享
Heal The World
离线solid_snake

发帖
44
金钱
348
威望
31
贡献值
0
交易币
45
只看该作者 7楼 发表于: 2017-02-08
首版,这个一定要支持
离线mjnet

发帖
381
金钱
30546
威望
104
贡献值
54
交易币
558
只看该作者 8楼 发表于: 2017-03-04
謝謝分享!!
离线mjbad25

发帖
168
金钱
4677
威望
0
贡献值
1
交易币
173
只看该作者 9楼 发表于: 2017-04-02
首版和再版连封面都不一样了呢
快速回复
限100 字节
 
上一个 下一个