论坛风格切换切换到宽版
  • 1238阅读
  • 13回复

[亲传][Single] 1996 They Don't Care About Us (JP - ESCA 6387) - WAV整轨 ♬by幽灵 [复制链接]

上一主题 下一主题
离线mjghosts
 

发帖
8256
金钱
219309
威望
9187
贡献值
2734
交易币
4791
只看楼主 倒序阅读 楼主  发表于: 2017-01-06
— 本帖被 mjghosts 执行加亮操作(2017-01-06) —
*日本发行单曲,8首歌,与美版单曲内容相同,推荐! AFwdJte9e  
R.<g3"Lm>  
注:独家整理,转载请注明出处!EAC无损整轨(压缩包内含CD图片) SOA,kwHRe  
DZtsy!xA  
解压密码:www.mjsunny.com
sK?twg;D*|  
=[7Av>  
Tracklist  o-B$J?  
1 They Don't Care About Us (Single Version) 4:45 (KZ{^X?a  
2 They Don't Care About Us (Charles' Full Joint Mix) 4:57 :?1Dko^  
3 They Don't Care About Us (Dallas Main Mix) 5:14 gL/9/b4  
4 They Don't Care About Us (Love To Infinity's Walk In The Park Radio Mix) 4:46 iuul7VR-%  
5 They Don't Care About Us (Love To Infinity's Classic Paradise Radio Mix) 4:15 yyTnL 2Y9  
6 They Don't Care About Us (Track Masters Radio Edit) 3:41 b^vQpiz  
7 Rock With You (Frankie's Favorite Club Mix) 7:38 ^E>3|du]O  
8 Earth Song (Hani's Club Experience) 7:56
cQ}{[YO  
6[AL|d DK  
t\O16O7S  
l,aay-E  
9_h[bBx-'Q  
A?OQE9'  
Exact Audio Copy V1.0 beta 6 from 9. April 2015 1s;S aq+  
XW92gI<O  
EAC 抓取日志文件从6. 一月 2017, 3:56 0#gK6o!  
HTTC TR  
Michael Jackson / They Don't Care About Us SSzIih@u  
MomwX  
使用驱动器  :MATSHITADVD-RAM UJ890AS   Adapter: 1  ID: 1 M X]n&  
es0hm2HT3  
读取模式      : 可靠Secure NvX[zqNP_R  
使用精确流     : 是 *lJxH8\  
清空音频缓存    : 否 bpa?C  
使用 C2 指示器 : 是 >^{yF~(  
>y+B  
读取偏移校正:               : 102 }Ou}+^Bc  
读取 Lead-In 和 Lead-Out : 否 @>7%qS  
用静音填充抓取中丢失偏移的采样       : 是 `kSZX:=};  
去除首尾静音块               : 否 ;mi%F3  
在CRC 计算中使用了空样本       : 是 RPbZ(.  
已用接口                  : Win NT 及 2000 本地 Win32 接口 a$fnh3j[  
tX~w{|k  
所用输出模式: : 内部 WAV 函数 &#i"=\d  
样本格式    : 44.100 Hz; 16 Bit; 立体声 %@Jsal'  
X5w$4Kj&4l  
PZzMHK?hP  
已抓取 CD 的 TOC {K!)Ss  
Pc]HP  
     音轨 |    起始    |    长度    |  起始扇区  |  结束扇区   ]I6  J7A[  
    -------------------------------------------- s,_m{ to  
      1 |  0:00.00 |  4:45.07 |      0 |  21381 ` G kX  
      2 |  4:45.07 |  4:57.05 |  21382 |  43661 dgP3@`YS  
      3 |  9:42.12 |  5:14.70 |  43662 |  67281 HE\K@3-  
      4 | 14:57.07 |  4:46.73 |  67282 |  88804 3iU=c&P  
      5 | 19:44.05 |  4:15.07 |  88805 | 107936 FC4wwzb  
      6 | 23:59.12 |  3:41.53 | 107937 | 124564 K.yb ^dg5  
      7 | 27:40.65 |  7:38.10 | 124565 | 158924 7x8  yxE  
      8 | 35:19.00 |  7:56.60 | 158925 | 194684 A<fG}q1#  
L \iFNT}g`  
'E.w=7z&  
范围状态及错误 ^/k*h J{  
bQ5\ ]5M  
已选择范围 LXCx~;{\  
%xt^698&X  
     文件名 J:\12 Music*音乐\1996 They Don't Care About Us (JP - ESCA 6387) 8''\CDImage.wav HLi%%"'  
Yoll?_k+  
     峰值电平 100.0 % E<*xx#p  
     抓取速度 5.9 X a-J.B.A$Z/  
     范围质量 100.0 % AwF:Iu^3n  
     复制 CRC 9792C31F {(?4!rh  
     复制成功 SZCze"`[  
'}#9)}x!  
没有错误发生 '/%H3A#L  
mXs; b 2r^  
ku M$UYTTX  
AccurateRip 摘要 ygl0k \  
hK|Ul]qI  
音轨  1  在数据库中不存在 o3}3p]S\  
音轨  2  在数据库中不存在 Y\'}a+:@Ph  
音轨  3  在数据库中不存在 +[g,B1jt  
音轨  4  在数据库中不存在 Yu2Bkq+  
音轨  5  在数据库中不存在 o#1 $q`Z  
音轨  6  在数据库中不存在 eh#(eua0/  
音轨  7  在数据库中不存在 '@P^0+B!(.  
音轨  8  在数据库中不存在 7"D.L-H  
,UE83j8D^  
没有任何音轨在 AccurateRip 数据库中有记录 %ULr8)R;  
d m%8K6|  
状态报告结尾
<p"iY}x[H  
j"Pv0tehw  
链接:http://pan.baidu.com/s/1eRKzcgq 密码: S ByW[JE  
此帖售价 17 金钱,已有 12 人购买 [记录] [购买]
购买后,将显示帖子中所有出售内容。
若发现会员采用欺骗的方法获取财富,请立刻举报,我们会对会员处以2-N倍的罚金,严重者封掉ID!
此段为出售的内容,购买后显示

发帖
2751
金钱
30829
威望
621
贡献值
38
交易币
408
只看该作者 1楼 发表于: 2017-01-06
感谢分享。

离线魏聪

发帖
168
金钱
2713
威望
41
贡献值
21
交易币
103
只看该作者 2楼 发表于: 2017-01-06
谢谢楼主。
离线lifan_npl

发帖
2212
金钱
31692
威望
853
贡献值
430
交易币
2593
只看该作者 3楼 发表于: 2017-01-06
发布辛苦了
我的淘宝店:
http://shop63152617.taobao.com  
离线小李

发帖
240
金钱
1125
威望
9
贡献值
8
交易币
212
只看该作者 4楼 发表于: 2017-01-06
谢谢,想听听ROCK WITH YOU 那首,Rock With You(Frankie Knuckles Remix)是否这个?
离线wannam

发帖
2703
金钱
87033
威望
382
贡献值
189
交易币
3346
只看该作者 5楼 发表于: 2017-01-07
感谢分享!!!
离线无神论者

发帖
28288
金钱
676821
威望
19309
贡献值
4651
交易币
7231
只看该作者 6楼 发表于: 2017-01-07
东西真多
我的微信号mjxiemeng

离线小杰克逊

发帖
1594
金钱
5579
威望
883
贡献值
994
交易币
704
只看该作者 7楼 发表于: 2017-01-10
谢谢幽灵兄,上传辛苦
http://gcb918.taobao.com/
离线mjnet

发帖
381
金钱
30548
威望
104
贡献值
54
交易币
558
只看该作者 8楼 发表于: 2017-02-07
第一次看到日盤的TDCAU!!!!
离线michael0829

发帖
955
金钱
10069
威望
90
贡献值
70
交易币
1204
只看该作者 9楼 发表于: 2017-04-19
翻看楼主帖子,楼主真的很好啊,谢谢啊!
I Love You Michael Jackson Forever!
I Just Can't Stop Loving You Michel!
快速回复
限100 字节
 
上一个 下一个