论坛风格切换切换到宽版
  • 1131阅读
  • 12回复

[亲传][Single] 1996 They Don't Care About Us (JP - ESCA 6387) - WAV整轨 ♬by幽灵 [复制链接]

上一主题 下一主题
离线mjghosts
 

发帖
8251
金钱
218537
威望
9176
贡献值
2723
交易币
4762
只看楼主 倒序阅读 楼主  发表于: 2017-01-06
— 本帖被 mjghosts 执行加亮操作(2017-01-06) —
*日本发行单曲,8首歌,与美版单曲内容相同,推荐! f&'md  
<>TBM^  
注:独家整理,转载请注明出处!EAC无损整轨(压缩包内含CD图片) Er)b( Kk  
(!s[~O6  
解压密码:www.mjsunny.com
tr Ls4o,  
J7ln6Y  
Tracklist V]2Q92  
1 They Don't Care About Us (Single Version) 4:45 0U'r ia:$  
2 They Don't Care About Us (Charles' Full Joint Mix) 4:57 P1<;:!8'  
3 They Don't Care About Us (Dallas Main Mix) 5:14 JLhp25{x  
4 They Don't Care About Us (Love To Infinity's Walk In The Park Radio Mix) 4:46 $1e@3mzM  
5 They Don't Care About Us (Love To Infinity's Classic Paradise Radio Mix) 4:15 hjE9[{K  
6 They Don't Care About Us (Track Masters Radio Edit) 3:41 F3q5!1  
7 Rock With You (Frankie's Favorite Club Mix) 7:38 lk80)sTZ  
8 Earth Song (Hani's Club Experience) 7:56
(\j<`"n  
08Q:1 '  
wP%;9y2B  
tc[PJH&P  
W6pS.}  
#r1x0s40D  
Exact Audio Copy V1.0 beta 6 from 9. April 2015 &+\wYa,  
(/%}a`2#o  
EAC 抓取日志文件从6. 一月 2017, 3:56 fqcyCu7Ep  
.}tL:^'~o  
Michael Jackson / They Don't Care About Us B7#;tCf  
e"v Eh  
使用驱动器  :MATSHITADVD-RAM UJ890AS   Adapter: 1  ID: 1 og>f1NwS[  
q+K`+& @\  
读取模式      : 可靠Secure I0Vm^\8  
使用精确流     : 是 $1axZ~8sS  
清空音频缓存    : 否 uuq?0t2Z  
使用 C2 指示器 : 是 sx22|j`)V  
A3Su&0uaB  
读取偏移校正:               : 102 ar6Z?v$  
读取 Lead-In 和 Lead-Out : 否 CSs3l  
用静音填充抓取中丢失偏移的采样       : 是 a(m#GES  
去除首尾静音块               : 否 YXmLd'F^3  
在CRC 计算中使用了空样本       : 是 C}M0KDF  
已用接口                  : Win NT 及 2000 本地 Win32 接口 qWWy}5SOm  
1f}Dza9  
所用输出模式: : 内部 WAV 函数 QII>XJ9  
样本格式    : 44.100 Hz; 16 Bit; 立体声 n |(Y?`(  
g >X!Q  
u!t'J+:  
已抓取 CD 的 TOC ^D!UF(H  
U2G\GU1 X  
     音轨 |    起始    |    长度    |  起始扇区  |  结束扇区   9D&ocV3QV  
    -------------------------------------------- Zu5`-[mw  
      1 |  0:00.00 |  4:45.07 |      0 |  21381 &Uzg&eB  
      2 |  4:45.07 |  4:57.05 |  21382 |  43661 c: _l+CgeH  
      3 |  9:42.12 |  5:14.70 |  43662 |  67281 42Z2Mjtk  
      4 | 14:57.07 |  4:46.73 |  67282 |  88804 @*F NWT6  
      5 | 19:44.05 |  4:15.07 |  88805 | 107936  ~UXW  
      6 | 23:59.12 |  3:41.53 | 107937 | 124564 hMi`n6m  
      7 | 27:40.65 |  7:38.10 | 124565 | 158924 $LKniK  
      8 | 35:19.00 |  7:56.60 | 158925 | 194684 S?;&vs9j  
EFV'hMjS)  
O"^KX5  
范围状态及错误 XD9lox  
FhW\23OC  
已选择范围 q0$}MB6  
qY0p)`3!%  
     文件名 J:\12 Music*音乐\1996 They Don't Care About Us (JP - ESCA 6387) 8''\CDImage.wav `5Q0U%`W  
8IbHDDS  
     峰值电平 100.0 % e5C560  
     抓取速度 5.9 X Yaht<Hy  
     范围质量 100.0 %  GVe[)R  
     复制 CRC 9792C31F ;i>|5tEy  
     复制成功 < OCy  
K'Wg_ihA  
没有错误发生 g7rn|<6FI  
?x=;?7  
D!+d]A[r  
AccurateRip 摘要 5_9mA4gs@  
N\BB8<F  
音轨  1  在数据库中不存在 ??Q'| r  
音轨  2  在数据库中不存在 iG^o@*}a  
音轨  3  在数据库中不存在 = a$7OV.  
音轨  4  在数据库中不存在 xp.~i*!`  
音轨  5  在数据库中不存在 |gg 6|,Bt4  
音轨  6  在数据库中不存在 $i;%n1VBg  
音轨  7  在数据库中不存在 TFjb1 a,)  
音轨  8  在数据库中不存在 0[/>> !ws  
9@/ X;zO  
没有任何音轨在 AccurateRip 数据库中有记录 =W$ f +  
Bf1,(^3XH  
状态报告结尾
JvX]^t/}  
CB]#`|f  
链接:http://pan.baidu.com/s/1eRKzcgq 密码: n** W  
此帖售价 17 金钱,已有 11 人购买 [记录] [购买]
购买后,将显示帖子中所有出售内容。
若发现会员采用欺骗的方法获取财富,请立刻举报,我们会对会员处以2-N倍的罚金,严重者封掉ID!
此段为出售的内容,购买后显示

发帖
2740
金钱
30927
威望
620
贡献值
37
交易币
393
只看该作者 1楼 发表于: 2017-01-06
感谢分享。

离线魏聪

发帖
168
金钱
2713
威望
41
贡献值
21
交易币
103
只看该作者 2楼 发表于: 2017-01-06
谢谢楼主。
离线lifan_npl

发帖
2196
金钱
31917
威望
851
贡献值
428
交易币
2569
只看该作者 3楼 发表于: 2017-01-06
发布辛苦了
我的淘宝:
http://shop63152617.taobao.com  
离线小李

发帖
238
金钱
1115
威望
9
贡献值
8
交易币
210
只看该作者 4楼 发表于: 2017-01-06
谢谢,想听听ROCK WITH YOU 那首,Rock With You(Frankie Knuckles Remix)是否这个?
离线wannam

发帖
2702
金钱
87018
威望
382
贡献值
189
交易币
3345
只看该作者 5楼 发表于: 2017-01-07
感谢分享!!!
离线无神论者

发帖
28288
金钱
676821
威望
19309
贡献值
4651
交易币
7231
只看该作者 6楼 发表于: 2017-01-07
东西真多
我的微信号mjxiemeng

离线小杰克逊

发帖
1594
金钱
5583
威望
883
贡献值
994
交易币
704
只看该作者 7楼 发表于: 2017-01-10
谢谢幽灵兄,上传辛苦
http://gcb918.taobao.com/
离线mjnet

发帖
380
金钱
30579
威望
104
贡献值
54
交易币
557
只看该作者 8楼 发表于: 2017-02-07
第一次看到日盤的TDCAU!!!!
离线michael0829

发帖
955
金钱
9804
威望
90
贡献值
70
交易币
1204
只看该作者 9楼 发表于: 2017-04-19
翻看楼主帖子,楼主真的很好啊,谢谢啊!
I Love You Michael Jackson Forever!
I Just Can't Stop Loving You Michel!
快速回复
限100 字节
 
上一个 下一个