论坛风格切换切换到宽版
  • 147阅读
  • 7回复

[亲传][Single] 1996 They Don't Care About Us (JP - ESCA 6387) - WAV整轨 ♬by幽灵 [复制链接]

上一主题 下一主题
离线mjghosts
 

发帖
8164
金钱
198371
威望
8946
贡献值
2637
交易币
4507
只看楼主 倒序阅读 楼主  发表于: 01-06
— 本帖被 mjghosts 执行加亮操作(2017-01-06) —
*日本发行单曲,8首歌,与美版单曲内容相同,推荐! #d3[uF]OmW  
( ?atGFgu  
注:独家整理,转载请注明出处!EAC无损整轨(压缩包内含CD图片) v\J!yz  
"X\q%%P=?  
解压密码:www.mjsunny.com
$XU-[OF%:9  
rjfc.l#v  
Tracklist &pa)Ee>  
1 They Don't Care About Us (Single Version) 4:45 ':5U&  
2 They Don't Care About Us (Charles' Full Joint Mix) 4:57 IO?~b XP  
3 They Don't Care About Us (Dallas Main Mix) 5:14 NHst7$Y<  
4 They Don't Care About Us (Love To Infinity's Walk In The Park Radio Mix) 4:46 Yk(NZ3O  
5 They Don't Care About Us (Love To Infinity's Classic Paradise Radio Mix) 4:15 rjq -ZrC%  
6 They Don't Care About Us (Track Masters Radio Edit) 3:41 **"zDY*?W  
7 Rock With You (Frankie's Favorite Club Mix) 7:38 Ly@U\%.  
8 Earth Song (Hani's Club Experience) 7:56
Ut0qr kqF  
W+fkWq7`Xx  
oY| (M_;  
{FrHm  
3/]f4D{MMY  
-Hl\j (D7  
Exact Audio Copy V1.0 beta 6 from 9. April 2015 P7M0Ce~iW  
2}W6{T'  
EAC 抓取日志文件从6. 一月 2017, 3:56 *}50q9)/  
fh/)di  
Michael Jackson / They Don't Care About Us cHfK-R  
]kU~#WT  
使用驱动器  :MATSHITADVD-RAM UJ890AS   Adapter: 1  ID: 1 YQlpk@X`2  
qX}dbuDE"P  
读取模式      : 可靠Secure LS?` {E   
使用精确流     : 是 EV;;N  
清空音频缓存    : 否 `0-m`>1>  
使用 C2 指示器 : 是 {ILQ CvP*  
cfF-e93T  
读取偏移校正:               : 102 pD)/- Dgdm  
读取 Lead-In 和 Lead-Out : 否 M\x7=*\  
用静音填充抓取中丢失偏移的采样       : 是 `jl. f  
去除首尾静音块               : 否 *AJezhR  
在CRC 计算中使用了空样本       : 是 SK~;<>:37  
已用接口                  : Win NT 及 2000 本地 Win32 接口 yM\tbT/l  
YV>VA<c  
所用输出模式: : 内部 WAV 函数 ^Ypb"Wx8  
样本格式    : 44.100 Hz; 16 Bit; 立体声 ff2.| 20  
~vvQz"  
Qc)RrqYNGF  
已抓取 CD 的 TOC zke~!"iq  
-t706(#k  
     音轨 |    起始    |    长度    |  起始扇区  |  结束扇区   jTxChR  
    -------------------------------------------- jmwQc&  
      1 |  0:00.00 |  4:45.07 |      0 |  21381 ](( >i%%~  
      2 |  4:45.07 |  4:57.05 |  21382 |  43661 e&VR>VJEA  
      3 |  9:42.12 |  5:14.70 |  43662 |  67281 f%{ ag  
      4 | 14:57.07 |  4:46.73 |  67282 |  88804 -n$rKEC4  
      5 | 19:44.05 |  4:15.07 |  88805 | 107936 M,dzf  
      6 | 23:59.12 |  3:41.53 | 107937 | 124564 "$wPq@  
      7 | 27:40.65 |  7:38.10 | 124565 | 158924 4wEpyQ|L  
      8 | 35:19.00 |  7:56.60 | 158925 | 194684 E* DVQ3~  
mk3e^,[A  
3qd-,qC  
范围状态及错误 oew]ijnB  
W Y qL  
已选择范围 uvc{RP  
113x9+w[  
     文件名 J:\12 Music*音乐\1996 They Don't Care About Us (JP - ESCA 6387) 8''\CDImage.wav QR-R5XNT[  
9Z_OLai  
     峰值电平 100.0 % JnKbd~  
     抓取速度 5.9 X Ydd>A\v\;  
     范围质量 100.0 % hF%~iqd  
     复制 CRC 9792C31F QcVtv7+*v  
     复制成功 # ;KG6IE  
@%B!$\]  
没有错误发生 2/o/UfYjgF  
ezy5Jqk5%  
2dlV'U_g  
AccurateRip 摘要 8t 35j   
ZN]c>w[ )I  
音轨  1  在数据库中不存在 zbKW.u]v  
音轨  2  在数据库中不存在 -{sv3|P>  
音轨  3  在数据库中不存在 (+v*u]w4  
音轨  4  在数据库中不存在 7 QJcRZ[lU  
音轨  5  在数据库中不存在 uM6!RR!~  
音轨  6  在数据库中不存在 KO;61y:  
音轨  7  在数据库中不存在 )h!l%72  
音轨  8  在数据库中不存在 QKkr~?sTO  
40sLZa)e  
没有任何音轨在 AccurateRip 数据库中有记录 9<r}s  
]|BSX-V.%i  
状态报告结尾
(dt_ D  
qxr&_r  
链接:http://pan.baidu.com/s/1eRKzcgq 密码: ~,65/O  
此帖售价 17 金钱,已有 6 人购买 [记录] [购买]
购买后,将显示帖子中所有出售内容。
若发现会员采用欺骗的方法获取财富,请立刻举报,我们会对会员处以2-N倍的罚金,严重者封掉ID!
此段为出售的内容,购买后显示

发帖
2620
金钱
27617
威望
598
贡献值
30
交易币
245
只看该作者 1楼 发表于: 01-06
感谢分享。

离线魏聪

发帖
153
金钱
2809
威望
41
贡献值
21
交易币
88
只看该作者 2楼 发表于: 01-06
谢谢楼主。
离线lifan_npl

发帖
2046
金钱
18376
威望
776
贡献值
336
交易币
2395
只看该作者 3楼 发表于: 01-06
发布辛苦了
我的淘宝:
http://shop63152617.taobao.com  
离线小李

发帖
192
金钱
138
威望
97
贡献值
6
交易币
156
只看该作者 4楼 发表于: 01-06
谢谢,想听听ROCK WITH YOU 那首,Rock With You(Frankie Knuckles Remix)是否这个?
离线wannam

发帖
2415
金钱
65792
威望
363
贡献值
169
交易币
3058
只看该作者 5楼 发表于: 01-07
感谢分享!!!
离线无神论者

发帖
28199
金钱
675714
威望
19273
贡献值
4624
交易币
7099
只看该作者 6楼 发表于: 01-07
东西真多
我的微信号mjxiemeng

离线小杰克逊

发帖
1538
金钱
1419
威望
883
贡献值
994
交易币
648
只看该作者 7楼 发表于: 01-10
谢谢幽灵兄,上传辛苦
http://gcb918.taobao.com/
快速回复
限100 字节
 
上一个 下一个