论坛风格切换切换到宽版
  • 464阅读
  • 10回复

[亲传][Single] 1996 They Don't Care About Us (JP - ESCA 6387) - WAV整轨 ♬by幽灵 [复制链接]

上一主题 下一主题
离线mjghosts
 

发帖
8247
金钱
210503
威望
9164
贡献值
2715
交易币
4698
只看楼主 倒序阅读 楼主  发表于: 01-06
— 本帖被 mjghosts 执行加亮操作(2017-01-06) —
*日本发行单曲,8首歌,与美版单曲内容相同,推荐! |SOLC  
xF[%R{Mn'  
注:独家整理,转载请注明出处!EAC无损整轨(压缩包内含CD图片) Xfk DMh  
E]' f&0s  
解压密码:www.mjsunny.com
H7Q$k4\l  
~z:]rgX  
Tracklist q}Q G<%VR  
1 They Don't Care About Us (Single Version) 4:45 vxZ'-&;t  
2 They Don't Care About Us (Charles' Full Joint Mix) 4:57 Z^>4qf,k  
3 They Don't Care About Us (Dallas Main Mix) 5:14 !i t orSl  
4 They Don't Care About Us (Love To Infinity's Walk In The Park Radio Mix) 4:46 ye.6tlW  
5 They Don't Care About Us (Love To Infinity's Classic Paradise Radio Mix) 4:15 r.e K;  
6 They Don't Care About Us (Track Masters Radio Edit) 3:41 A;L ]=J  
7 Rock With You (Frankie's Favorite Club Mix) 7:38 W/,bz",v3  
8 Earth Song (Hani's Club Experience) 7:56
8H4NNj Oy  
'6M6e(  
q=W.82.U  
6-|?ya  
F- -g?Q^  
R>0[w$  
Exact Audio Copy V1.0 beta 6 from 9. April 2015 nook/7]  
S'!&,Dxq^  
EAC 抓取日志文件从6. 一月 2017, 3:56 a_c(7bQ  
S9!KI)  
Michael Jackson / They Don't Care About Us ]_(hUj._  
H[hJUR+#  
使用驱动器  :MATSHITADVD-RAM UJ890AS   Adapter: 1  ID: 1 {j$2=0Cec  
u~OlJ1V  
读取模式      : 可靠Secure fJr EDj4(  
使用精确流     : 是 dI\_I]  
清空音频缓存    : 否 F% n}vA`  
使用 C2 指示器 : 是 B]tj0FB`-*  
t|'%0 W  
读取偏移校正:               : 102 KWo Ps%G  
读取 Lead-In 和 Lead-Out : 否 D4c'6WGb@  
用静音填充抓取中丢失偏移的采样       : 是 'a0M.*f}G  
去除首尾静音块               : 否 <B>qE a_I  
在CRC 计算中使用了空样本       : 是 EHq; eF  
已用接口                  : Win NT 及 2000 本地 Win32 接口 3!F^ vZ.  
3ux7^au  
所用输出模式: : 内部 WAV 函数 564L.^$@|  
样本格式    : 44.100 Hz; 16 Bit; 立体声 Psf'^42(v  
iPl,KjGk  
??aO3Vm{  
已抓取 CD 的 TOC :%9R&p:'ar  
W8QP6^lY  
     音轨 |    起始    |    长度    |  起始扇区  |  结束扇区   <D:q4t  
    -------------------------------------------- XK\nOHLS  
      1 |  0:00.00 |  4:45.07 |      0 |  21381 l?"^2in .  
      2 |  4:45.07 |  4:57.05 |  21382 |  43661 jA{B G_  
      3 |  9:42.12 |  5:14.70 |  43662 |  67281 =D0d+b6  
      4 | 14:57.07 |  4:46.73 |  67282 |  88804 >A]l|#Rz  
      5 | 19:44.05 |  4:15.07 |  88805 | 107936 /g*_dH)=  
      6 | 23:59.12 |  3:41.53 | 107937 | 124564 gO*Gf2AG  
      7 | 27:40.65 |  7:38.10 | 124565 | 158924 fh_:ung  
      8 | 35:19.00 |  7:56.60 | 158925 | 194684 hx%UZ<a  
_{^F8  
_u_|U  
范围状态及错误 ]+^4Yq>2  
`+KLE(]vyH  
已选择范围 >i1wB!gc8  
r 3T#Nv  
     文件名 J:\12 Music*音乐\1996 They Don't Care About Us (JP - ESCA 6387) 8''\CDImage.wav }?GeU Xhy  
eBECY(QMQ  
     峰值电平 100.0 % aI\ >=*HF  
     抓取速度 5.9 X QmPHf*w[  
     范围质量 100.0 % Mr K?,7*Xi  
     复制 CRC 9792C31F |TBKsx8  
     复制成功 <8Q?kj  
f%d =X>_  
没有错误发生 f9E.X\"  
j\@|oW0  
[SLBA_d  
AccurateRip 摘要 G Q+g.{c  
.We"j_ }  
音轨  1  在数据库中不存在 MU&P+Wr  
音轨  2  在数据库中不存在 s*pgR=dZZ  
音轨  3  在数据库中不存在 9Lxj ]W2^  
音轨  4  在数据库中不存在 5zBsulRt  
音轨  5  在数据库中不存在 G(~"Zt}?  
音轨  6  在数据库中不存在 #zcnc$x\  
音轨  7  在数据库中不存在 .sDVBT'%  
音轨  8  在数据库中不存在 ou@ P#:<B  
^4yFLqrC  
没有任何音轨在 AccurateRip 数据库中有记录 |EaEdA@T  
d(L u|/~  
状态报告结尾
DPNUm<>  
'qhA4W9  
链接:http://pan.baidu.com/s/1eRKzcgq 密码: -_ [Z5%B  
此帖售价 17 金钱,已有 9 人购买 [记录] [购买]
购买后,将显示帖子中所有出售内容。
若发现会员采用欺骗的方法获取财富,请立刻举报,我们会对会员处以2-N倍的罚金,严重者封掉ID!
此段为出售的内容,购买后显示

发帖
2658
金钱
28594
威望
617
贡献值
34
交易币
299
只看该作者 1楼 发表于: 01-06
感谢分享。

离线魏聪

发帖
159
金钱
2897
威望
41
贡献值
21
交易币
94
只看该作者 2楼 发表于: 01-06
谢谢楼主。
离线lifan_npl

发帖
2117
金钱
17682
威望
787
贡献值
347
交易币
2470
只看该作者 3楼 发表于: 01-06
发布辛苦了
我的淘宝:
http://shop63152617.taobao.com  
离线小李

发帖
218
金钱
132
威望
98
贡献值
7
交易币
186
只看该作者 4楼 发表于: 01-06
谢谢,想听听ROCK WITH YOU 那首,Rock With You(Frankie Knuckles Remix)是否这个?
离线wannam

发帖
2697
金钱
86875
威望
382
贡献值
189
交易币
3340
只看该作者 5楼 发表于: 01-07
感谢分享!!!
离线无神论者

发帖
28261
金钱
676508
威望
19305
贡献值
4650
交易币
7200
只看该作者 6楼 发表于: 01-07
东西真多
我的微信号mjxiemeng
离线小杰克逊

发帖
1588
金钱
5953
威望
883
贡献值
994
交易币
698
只看该作者 7楼 发表于: 01-10
谢谢幽灵兄,上传辛苦
http://gcb918.taobao.com/
离线mjnet

发帖
368
金钱
30506
威望
104
贡献值
54
交易币
545
只看该作者 8楼 发表于: 02-07
第一次看到日盤的TDCAU!!!!
在线michael0829

发帖
946
金钱
8862
威望
90
贡献值
70
交易币
1195
只看该作者 9楼 发表于: 04-19
翻看楼主帖子,楼主真的很好啊,谢谢啊!
I Love You Michael Jackson Forever!
I Just Can't Stop Loving You Michel!
快速回复
限100 字节
 
上一个 下一个