论坛风格切换切换到宽版
  • 1551阅读
  • 13回复

[亲传][Single] 1996 They Don't Care About Us (JP - ESCA 6387) - WAV整轨 ♬by幽灵 [复制链接]

上一主题 下一主题
离线mjghosts
 

发帖
8262
金钱
219556
威望
9187
贡献值
2734
交易币
4797
只看楼主 倒序阅读 楼主  发表于: 2017-01-06
— 本帖被 mjghosts 执行加亮操作(2017-01-06) —
*日本发行单曲,8首歌,与美版单曲内容相同,推荐! -WB? hmx  
VD,F?L!  
注:独家整理,转载请注明出处!EAC无损整轨(压缩包内含CD图片) Y` LZ/Tgk  
N(dn"`8  
解压密码:www.mjsunny.com
1HN_  
FMwT4]y  
Tracklist -v&Q 'a  
1 They Don't Care About Us (Single Version) 4:45 CUnZ}@?d  
2 They Don't Care About Us (Charles' Full Joint Mix) 4:57 A{>]M@QC2  
3 They Don't Care About Us (Dallas Main Mix) 5:14 E-*udQ  
4 They Don't Care About Us (Love To Infinity's Walk In The Park Radio Mix) 4:46 &VR<'^>  
5 They Don't Care About Us (Love To Infinity's Classic Paradise Radio Mix) 4:15 OMJr.u  
6 They Don't Care About Us (Track Masters Radio Edit) 3:41 ++R-_oQ  
7 Rock With You (Frankie's Favorite Club Mix) 7:38 )lB-D;3[_  
8 Earth Song (Hani's Club Experience) 7:56
dMRwQejY{7  
 ynZ!  
rp=?4^(u  
I*K^,XY+  
JXPn <  
2$T~(tem  
Exact Audio Copy V1.0 beta 6 from 9. April 2015 s-8>AW ep  
JmY"Ja,&  
EAC 抓取日志文件从6. 一月 2017, 3:56 Y~Jq!  
4<LRa=XT$  
Michael Jackson / They Don't Care About Us K0+J!- a]7  
bgEUG  
使用驱动器  :MATSHITADVD-RAM UJ890AS   Adapter: 1  ID: 1 VBd.5YW  
T?% F  
读取模式      : 可靠Secure `FmI?:Cv  
使用精确流     : 是 <0lfkeD  
清空音频缓存    : 否 1Z*-@%RX  
使用 C2 指示器 : 是 lN^L#m*@  
UT>\u  
读取偏移校正:               : 102 c\-I+lMBi  
读取 Lead-In 和 Lead-Out : 否 fr:RiOPn  
用静音填充抓取中丢失偏移的采样       : 是 jcevpKkRG  
去除首尾静音块               : 否 C>t1~^Q},9  
在CRC 计算中使用了空样本       : 是 r;}kw(ukC  
已用接口                  : Win NT 及 2000 本地 Win32 接口 H|Q)Tp Lk  
WG(tt.  
所用输出模式: : 内部 WAV 函数 36.L1!d)pE  
样本格式    : 44.100 Hz; 16 Bit; 立体声 j9%=8Dn.<  
3*XX@>|o  
~vBmW_j  
已抓取 CD 的 TOC .B_) w:oF  
rh?!f(_@  
     音轨 |    起始    |    长度    |  起始扇区  |  结束扇区   vw>O;u.]B  
    -------------------------------------------- thl{IU  
      1 |  0:00.00 |  4:45.07 |      0 |  21381 c+ Ejah+  
      2 |  4:45.07 |  4:57.05 |  21382 |  43661 >A7),6  
      3 |  9:42.12 |  5:14.70 |  43662 |  67281 ]ta]OK{s"  
      4 | 14:57.07 |  4:46.73 |  67282 |  88804 LK)0g4{  
      5 | 19:44.05 |  4:15.07 |  88805 | 107936 Vdjf F&q  
      6 | 23:59.12 |  3:41.53 | 107937 | 124564 /9/=]  
      7 | 27:40.65 |  7:38.10 | 124565 | 158924 hvnZ 2x.?d  
      8 | 35:19.00 |  7:56.60 | 158925 | 194684 _Y40a+hk]  
' ^^]Or  
*6cP-Vzd  
范围状态及错误 9s5gi+l_O  
0%7c?3#  
已选择范围  S =!3t`  
9]r6V   
     文件名 J:\12 Music*音乐\1996 They Don't Care About Us (JP - ESCA 6387) 8''\CDImage.wav js/N qf2>  
R R<92R  
     峰值电平 100.0 % pi[:"}m]/P  
     抓取速度 5.9 X q$7WZ+Y\  
     范围质量 100.0 % +K,]#$k  
     复制 CRC 9792C31F 9ar+Ph@*  
     复制成功 MX2 Zm  
EUevR/S  
没有错误发生 pLi_)(#z_  
H=O/w3  
]/&qv6D*d  
AccurateRip 摘要 ~~,] b  
Q{FK_Mv<  
音轨  1  在数据库中不存在 N 0<([B;  
音轨  2  在数据库中不存在 I|&<!{Rq  
音轨  3  在数据库中不存在 y~eQVnH5W  
音轨  4  在数据库中不存在 ?w/i;pp<,  
音轨  5  在数据库中不存在  C=k]g  
音轨  6  在数据库中不存在 R -#40  
音轨  7  在数据库中不存在 p"l GR&b  
音轨  8  在数据库中不存在 Dt#( fuk#  
r$Gz  
没有任何音轨在 AccurateRip 数据库中有记录 i #pBzJ  
Y| dw>qO  
状态报告结尾
l b9O  
>LAhc7I  
链接:http://pan.baidu.com/s/1eRKzcgq 密码: LlF|VR&P.  
此帖售价 17 金钱,已有 12 人购买 [记录] [购买]
购买后,将显示帖子中所有出售内容。
若发现会员采用欺骗的方法获取财富,请立刻举报,我们会对会员处以2-N倍的罚金,严重者封掉ID!
此段为出售的内容,购买后显示

发帖
2767
金钱
30998
威望
622
贡献值
39
交易币
428
只看该作者 1楼 发表于: 2017-01-06
感谢分享。

离线魏聪

发帖
168
金钱
2713
威望
41
贡献值
21
交易币
103
只看该作者 2楼 发表于: 2017-01-06
谢谢楼主。
离线lifan_npl

发帖
2224
金钱
31752
威望
853
贡献值
430
交易币
2605
只看该作者 3楼 发表于: 2017-01-06
发布辛苦了
我的淘宝店:
http://shop63152617.taobao.com  
离线小李

发帖
240
金钱
1125
威望
9
贡献值
8
交易币
212
只看该作者 4楼 发表于: 2017-01-06
谢谢,想听听ROCK WITH YOU 那首,Rock With You(Frankie Knuckles Remix)是否这个?
离线wannam

发帖
2703
金钱
87101
威望
382
贡献值
189
交易币
3346
只看该作者 5楼 发表于: 2017-01-07
感谢分享!!!
离线无神论者

发帖
28288
金钱
676841
威望
19309
贡献值
4651
交易币
7231
只看该作者 6楼 发表于: 2017-01-07
东西真多
我的微信号mjxiemeng

离线小杰克逊

发帖
1597
金钱
5567
威望
883
贡献值
994
交易币
707
只看该作者 7楼 发表于: 2017-01-10
谢谢幽灵兄,上传辛苦
http://gcb918.taobao.com/
离线mjnet

发帖
381
金钱
30546
威望
104
贡献值
54
交易币
558
只看该作者 8楼 发表于: 2017-02-07
第一次看到日盤的TDCAU!!!!
离线michael0829

发帖
958
金钱
10744
威望
90
贡献值
70
交易币
1207
只看该作者 9楼 发表于: 2017-04-19
翻看楼主帖子,楼主真的很好啊,谢谢啊!
I Love You Michael Jackson Forever!
I Just Can't Stop Loving You Michel!
快速回复
限100 字节
 
上一个 下一个