论坛风格切换切换到宽版
  • 200阅读
  • 8回复

[亲传][Single] 1996 They Don't Care About Us (JP - ESCA 6387) - WAV整轨 ♬by幽灵 [复制链接]

上一主题 下一主题
离线mjghosts
 

发帖
8191
金钱
204337
威望
9035
贡献值
2641
交易币
4550
只看楼主 倒序阅读 楼主  发表于: 01-06
— 本帖被 mjghosts 执行加亮操作(2017-01-06) —
*日本发行单曲,8首歌,与美版单曲内容相同,推荐! F7V6-V{_  
h,.fM}=H  
注:独家整理,转载请注明出处!EAC无损整轨(压缩包内含CD图片) %A=|'6)k2  
{70 Ou}*  
解压密码:www.mjsunny.com
b_ZNI0Hp@  
k!9=  
Tracklist +/(|?7i@  
1 They Don't Care About Us (Single Version) 4:45 oL)lyUVT  
2 They Don't Care About Us (Charles' Full Joint Mix) 4:57 qr9Imr0w<  
3 They Don't Care About Us (Dallas Main Mix) 5:14 /Go>5 B>  
4 They Don't Care About Us (Love To Infinity's Walk In The Park Radio Mix) 4:46 bu_/R~&3{  
5 They Don't Care About Us (Love To Infinity's Classic Paradise Radio Mix) 4:15 *afejjW[  
6 They Don't Care About Us (Track Masters Radio Edit) 3:41 /[6:LnaE  
7 Rock With You (Frankie's Favorite Club Mix) 7:38 Vv2{^ !aZ  
8 Earth Song (Hani's Club Experience) 7:56
` %l&zwj>  
dA|Lufy#  
(;C$gnr.C  
-ywX5B  
t[/\KG8  
uvR0TIF4  
Exact Audio Copy V1.0 beta 6 from 9. April 2015 j6RJC  
+{ S Maq  
EAC 抓取日志文件从6. 一月 2017, 3:56 cl@kRX<7'  
4v0dd p  
Michael Jackson / They Don't Care About Us LgO i3  
3,%nkW  
使用驱动器  :MATSHITADVD-RAM UJ890AS   Adapter: 1  ID: 1 y9=t;qH@|  
1bT' u5&  
读取模式      : 可靠Secure Av@& hD\  
使用精确流     : 是 }!eF  
清空音频缓存    : 否 Nz3zsP$  
使用 C2 指示器 : 是 -hQ96S8  
5<!o{)I  
读取偏移校正:               : 102 $,}Qf0(S  
读取 Lead-In 和 Lead-Out : 否 +[>y O _}  
用静音填充抓取中丢失偏移的采样       : 是 Ewa[Y=+tx  
去除首尾静音块               : 否 v!nm &"  
在CRC 计算中使用了空样本       : 是 k,a,h^{}j  
已用接口                  : Win NT 及 2000 本地 Win32 接口 FAH[5VD r%  
un.G6|S  
所用输出模式: : 内部 WAV 函数 p Z0=  
样本格式    : 44.100 Hz; 16 Bit; 立体声 luJ{Iq  
xAR^  
H4P\hOK7r  
已抓取 CD 的 TOC ^nG1/}  
\/? ! 6~  
     音轨 |    起始    |    长度    |  起始扇区  |  结束扇区   emGV]A%nss  
    -------------------------------------------- Na~g*)uT$  
      1 |  0:00.00 |  4:45.07 |      0 |  21381 {KF7j63  
      2 |  4:45.07 |  4:57.05 |  21382 |  43661  Bq~AU#  
      3 |  9:42.12 |  5:14.70 |  43662 |  67281 (2\li{$e  
      4 | 14:57.07 |  4:46.73 |  67282 |  88804 0L3Bo3:k  
      5 | 19:44.05 |  4:15.07 |  88805 | 107936 '?&B5C  
      6 | 23:59.12 |  3:41.53 | 107937 | 124564 D<+ bzC  
      7 | 27:40.65 |  7:38.10 | 124565 | 158924 $M:4\E5(  
      8 | 35:19.00 |  7:56.60 | 158925 | 194684 .F{}~K]  
7AZ5%o  
?7rmwy\  
范围状态及错误 ~EM#Hc,  
eY0Ly7  
已选择范围 *!-}lc^4  
fS;m+D!j@  
     文件名 J:\12 Music*音乐\1996 They Don't Care About Us (JP - ESCA 6387) 8''\CDImage.wav E9~&f^f  
m? \#vw$  
     峰值电平 100.0 % :epitpJ  
     抓取速度 5.9 X -jcrXskb&N  
     范围质量 100.0 % bTA14&& q  
     复制 CRC 9792C31F Z_eqM4{  
     复制成功 1Ud t9$~T  
i]h R7g<  
没有错误发生 baO&n  
ijR-?nrR  
HbJadOK  
AccurateRip 摘要 ;n:H6cp  
W2X+N acD  
音轨  1  在数据库中不存在 9fr&Yb=_o@  
音轨  2  在数据库中不存在 o$qFa9|Ec?  
音轨  3  在数据库中不存在 (>)+;$Dr,\  
音轨  4  在数据库中不存在 {kY`X[fvZ  
音轨  5  在数据库中不存在 l1`c?Y  
音轨  6  在数据库中不存在 X~<>K/}u5  
音轨  7  在数据库中不存在 ] BP^.N=  
音轨  8  在数据库中不存在 XH_qA[=c]  
hH|XtQ.n^  
没有任何音轨在 AccurateRip 数据库中有记录 G%W03c  
+(=[M]5#n  
状态报告结尾
[3bwbfHhi  
M\$<g  
链接:http://pan.baidu.com/s/1eRKzcgq 密码: 4=#QN  
此帖售价 17 金钱,已有 7 人购买 [记录] [购买]
购买后,将显示帖子中所有出售内容。
若发现会员采用欺骗的方法获取财富,请立刻举报,我们会对会员处以2-N倍的罚金,严重者封掉ID!
此段为出售的内容,购买后显示

发帖
2626
金钱
27927
威望
599
贡献值
31
交易币
255
只看该作者 1楼 发表于: 01-06
感谢分享。

离线魏聪

发帖
159
金钱
2897
威望
41
贡献值
21
交易币
94
只看该作者 2楼 发表于: 01-06
谢谢楼主。
离线lifan_npl

发帖
2058
金钱
18220
威望
777
贡献值
337
交易币
2411
只看该作者 3楼 发表于: 01-06
发布辛苦了
我的淘宝:
http://shop63152617.taobao.com  
离线小李

发帖
197
金钱
153
威望
97
贡献值
6
交易币
161
只看该作者 4楼 发表于: 01-06
谢谢,想听听ROCK WITH YOU 那首,Rock With You(Frankie Knuckles Remix)是否这个?
离线wannam

发帖
2546
金钱
69469
威望
363
贡献值
169
交易币
3189
只看该作者 5楼 发表于: 01-07
感谢分享!!!
离线无神论者

发帖
28205
金钱
675880
威望
19275
贡献值
4626
交易币
7113
只看该作者 6楼 发表于: 01-07
东西真多
我的微信号mjxiemeng

离线小杰克逊

发帖
1547
金钱
1193
威望
883
贡献值
994
交易币
657
只看该作者 7楼 发表于: 01-10
谢谢幽灵兄,上传辛苦
http://gcb918.taobao.com/
离线mjnet

发帖
314
金钱
24322
威望
95
贡献值
50
交易币
475
只看该作者 8楼 发表于: 02-07
第一次看到日盤的TDCAU!!!!
快速回复
限100 字节
 
上一个 下一个