论坛风格切换切换到宽版
  • 363阅读
  • 10回复

[亲传][Single] 1996 They Don't Care About Us (JP - ESCA 6387) - WAV整轨 ♬by幽灵 [复制链接]

上一主题 下一主题
离线mjghosts
 

发帖
8233
金钱
208923
威望
9161
贡献值
2712
交易币
4672
只看楼主 倒序阅读 楼主  发表于: 01-06
— 本帖被 mjghosts 执行加亮操作(2017-01-06) —
*日本发行单曲,8首歌,与美版单曲内容相同,推荐! f_a.BTtNO  
$zS0]@Dj  
注:独家整理,转载请注明出处!EAC无损整轨(压缩包内含CD图片) >=Hm2daN  
MF:]J  
解压密码:www.mjsunny.com
7hwl[knyB  
}#}IR5`=E  
Tracklist B7r={P!0  
1 They Don't Care About Us (Single Version) 4:45 /+2;".  
2 They Don't Care About Us (Charles' Full Joint Mix) 4:57 \?uaHX`1  
3 They Don't Care About Us (Dallas Main Mix) 5:14 I{Hl2?CnI,  
4 They Don't Care About Us (Love To Infinity's Walk In The Park Radio Mix) 4:46 np3$bqm  
5 They Don't Care About Us (Love To Infinity's Classic Paradise Radio Mix) 4:15 ~>u]ow=  
6 They Don't Care About Us (Track Masters Radio Edit) 3:41 w@RVg*`%7D  
7 Rock With You (Frankie's Favorite Club Mix) 7:38 i(R&Q;{E^  
8 Earth Song (Hani's Club Experience) 7:56
}% (e`[?1  
<Wc98m  
B;Pws$J  
@V{s'V   
tYV%izE  
Vj?{T(K1[  
Exact Audio Copy V1.0 beta 6 from 9. April 2015 KWtLrZ(j  
vzD3_ ?D  
EAC 抓取日志文件从6. 一月 2017, 3:56 6&/H XqP  
+~, qb1aZ  
Michael Jackson / They Don't Care About Us s/[15  
me]O  
使用驱动器  :MATSHITADVD-RAM UJ890AS   Adapter: 1  ID: 1 N<c98  
R^zTgyr  
读取模式      : 可靠Secure Y4*ezt:;Q  
使用精确流     : 是 1Xy{&Ut\  
清空音频缓存    : 否 v%Rc wVt|  
使用 C2 指示器 : 是 r~q*E'n  
XVXiiQ^  
读取偏移校正:               : 102 &1O[N*$e  
读取 Lead-In 和 Lead-Out : 否 `P1jg$(eA  
用静音填充抓取中丢失偏移的采样       : 是 zA+&V7bvy  
去除首尾静音块               : 否 \m @8$MK  
在CRC 计算中使用了空样本       : 是 "0Xa?z8"  
已用接口                  : Win NT 及 2000 本地 Win32 接口 y[7*^9J  
G<.p".o4  
所用输出模式: : 内部 WAV 函数 :ie7HF  
样本格式    : 44.100 Hz; 16 Bit; 立体声 }W&hPC  
_%WJ7~>  
sW%U3,j  
已抓取 CD 的 TOC b 62 o  
R03V+t=  
     音轨 |    起始    |    长度    |  起始扇区  |  结束扇区   ) *:<3g!  
    -------------------------------------------- NJ8QI(^"  
      1 |  0:00.00 |  4:45.07 |      0 |  21381 X$,#OR  
      2 |  4:45.07 |  4:57.05 |  21382 |  43661 #5HJW[9  
      3 |  9:42.12 |  5:14.70 |  43662 |  67281 #W<D~C[I _  
      4 | 14:57.07 |  4:46.73 |  67282 |  88804 `X?l`H;#  
      5 | 19:44.05 |  4:15.07 |  88805 | 107936 )fSQTbB;0  
      6 | 23:59.12 |  3:41.53 | 107937 | 124564 xM85^B'  
      7 | 27:40.65 |  7:38.10 | 124565 | 158924 )mO|1IDTN  
      8 | 35:19.00 |  7:56.60 | 158925 | 194684 k>#,1GbNZy  
:HhLc'1Jw  
"El$Sat`  
范围状态及错误 LLOe  
d#7 z N  
已选择范围 4&/u1u 0  
qA:CV(Z  
     文件名 J:\12 Music*音乐\1996 They Don't Care About Us (JP - ESCA 6387) 8''\CDImage.wav Ni IX^&N1  
O6gI%Jdp  
     峰值电平 100.0 % Y}(#kqh>  
     抓取速度 5.9 X NwM=  
     范围质量 100.0 % |;{^Mci%  
     复制 CRC 9792C31F }S'+Ytea  
     复制成功 [ >#?C*s  
sAS\-c'6  
没有错误发生 )ARfI)<1b  
S:{hgi,T*  
V_Kpb*3  
AccurateRip 摘要 Q)yhpwrX  
\Oh9)X:I  
音轨  1  在数据库中不存在 2-nL2f!a{p  
音轨  2  在数据库中不存在 HB`u@9le  
音轨  3  在数据库中不存在 Oa\!5Pw1  
音轨  4  在数据库中不存在 -tZ2 N  
音轨  5  在数据库中不存在 @m!~![  
音轨  6  在数据库中不存在 ,6PV"E)_  
音轨  7  在数据库中不存在 -wlob`3  
音轨  8  在数据库中不存在 {'G@-+K  
F6Zl#eL  
没有任何音轨在 AccurateRip 数据库中有记录 3JEH sYxs  
y.5mYQA4=[  
状态报告结尾
IJO`"da  
s0v?*GRX  
链接:http://pan.baidu.com/s/1eRKzcgq 密码: kvv-f9/-  
此帖售价 17 金钱,已有 9 人购买 [记录] [购买]
购买后,将显示帖子中所有出售内容。
若发现会员采用欺骗的方法获取财富,请立刻举报,我们会对会员处以2-N倍的罚金,严重者封掉ID!
此段为出售的内容,购买后显示

发帖
2650
金钱
28497
威望
617
贡献值
34
交易币
291
只看该作者 1楼 发表于: 01-06
感谢分享。

离线魏聪

发帖
159
金钱
2897
威望
41
贡献值
21
交易币
94
只看该作者 2楼 发表于: 01-06
谢谢楼主。
离线lifan_npl

发帖
2086
金钱
18040
威望
787
贡献值
347
交易币
2439
只看该作者 3楼 发表于: 01-06
发布辛苦了
我的淘宝:
http://shop63152617.taobao.com  
离线小李

发帖
207
金钱
182
威望
98
贡献值
7
交易币
175
只看该作者 4楼 发表于: 01-06
谢谢,想听听ROCK WITH YOU 那首,Rock With You(Frankie Knuckles Remix)是否这个?
离线wannam

发帖
2680
金钱
86709
威望
382
贡献值
189
交易币
3323
只看该作者 5楼 发表于: 01-07
感谢分享!!!
离线无神论者

发帖
28258
金钱
676458
威望
19304
贡献值
4650
交易币
7197
只看该作者 6楼 发表于: 01-07
东西真多
我的微信号mjxiemeng
离线小杰克逊

发帖
1583
金钱
1002
威望
883
贡献值
994
交易币
693
只看该作者 7楼 发表于: 01-10
谢谢幽灵兄,上传辛苦
http://gcb918.taobao.com/
离线mjnet

发帖
352
金钱
30861
威望
104
贡献值
54
交易币
529
只看该作者 8楼 发表于: 02-07
第一次看到日盤的TDCAU!!!!
离线michael0829

发帖
946
金钱
8587
威望
90
贡献值
70
交易币
1195
只看该作者 9楼 发表于: 04-19
翻看楼主帖子,楼主真的很好啊,谢谢啊!
I Love You Michael Jackson Forever!
I Just Can't Stop Loving You Michel!
快速回复
限100 字节
 
上一个 下一个