论坛风格切换切换到宽版
  • 229阅读
  • 9回复

[亲传][Single] 1996 They Don't Care About Us (JP - ESCA 6387) - WAV整轨 ♬by幽灵 [复制链接]

上一主题 下一主题
离线mjghosts
 

发帖
8193
金钱
205205
威望
9035
贡献值
2641
交易币
4552
只看楼主 倒序阅读 楼主  发表于: 01-06
— 本帖被 mjghosts 执行加亮操作(2017-01-06) —
*日本发行单曲,8首歌,与美版单曲内容相同,推荐! 9Rd& Jq^  
ZULnS*V;5  
注:独家整理,转载请注明出处!EAC无损整轨(压缩包内含CD图片) oT0TbZu%  
hH(w O\s  
解压密码:www.mjsunny.com
j[Q9_0R~lR  
X 7R&>Pf  
Tracklist {3`cSm6c  
1 They Don't Care About Us (Single Version) 4:45  $+  
2 They Don't Care About Us (Charles' Full Joint Mix) 4:57 GTuxMg`  
3 They Don't Care About Us (Dallas Main Mix) 5:14 E*AI}:or;  
4 They Don't Care About Us (Love To Infinity's Walk In The Park Radio Mix) 4:46 4..M *U  
5 They Don't Care About Us (Love To Infinity's Classic Paradise Radio Mix) 4:15 !*e1F9k  
6 They Don't Care About Us (Track Masters Radio Edit) 3:41 v8l3{qq  
7 Rock With You (Frankie's Favorite Club Mix) 7:38 Us2IeR  
8 Earth Song (Hani's Club Experience) 7:56
Z_;! f}X  
z3Zo64V~7  
zI,z<-  
[nASMKK0  
b[KZJLZ)  
_J"fgxW  
Exact Audio Copy V1.0 beta 6 from 9. April 2015 %E2b{Y;  
Mz6PH)e;  
EAC 抓取日志文件从6. 一月 2017, 3:56 8+@j %l j  
{n\Ai3F-  
Michael Jackson / They Don't Care About Us FD al;T  
;-AC}jG  
使用驱动器  :MATSHITADVD-RAM UJ890AS   Adapter: 1  ID: 1 QpD- %gN  
P W_"JZ  
读取模式      : 可靠Secure q ;"/i*+3  
使用精确流     : 是 t0_4jV t  
清空音频缓存    : 否 ^Na3VP  
使用 C2 指示器 : 是 :cvT/xhO  
A{p_I<  
读取偏移校正:               : 102 Z4oD6k5oc  
读取 Lead-In 和 Lead-Out : 否 #>M^BOR8  
用静音填充抓取中丢失偏移的采样       : 是 )FN\jo!!.  
去除首尾静音块               : 否 B$M4f7  
在CRC 计算中使用了空样本       : 是 "5204I  
已用接口                  : Win NT 及 2000 本地 Win32 接口 {)(Mkm +d  
)#8}xAjV  
所用输出模式: : 内部 WAV 函数 d uP0US  
样本格式    : 44.100 Hz; 16 Bit; 立体声 U(gYx@   
~b @"ir+g4  
5"y)<VLJX  
已抓取 CD 的 TOC g:Q:cSg<  
h=Q2 ?O8  
     音轨 |    起始    |    长度    |  起始扇区  |  结束扇区    W_6gV  
    -------------------------------------------- rJh$>V+ '  
      1 |  0:00.00 |  4:45.07 |      0 |  21381 8DX5bB  
      2 |  4:45.07 |  4:57.05 |  21382 |  43661 m>|7&l_  
      3 |  9:42.12 |  5:14.70 |  43662 |  67281 * mH&Gn1  
      4 | 14:57.07 |  4:46.73 |  67282 |  88804 #&ei  
      5 | 19:44.05 |  4:15.07 |  88805 | 107936 >;lrH&  
      6 | 23:59.12 |  3:41.53 | 107937 | 124564 PjofW%7F  
      7 | 27:40.65 |  7:38.10 | 124565 | 158924 u{7->[=  
      8 | 35:19.00 |  7:56.60 | 158925 | 194684 p2U6B  
BNe>Lko  
<*+[E!oi  
范围状态及错误 [kTckZv  
Khl0~  
已选择范围 5{WvV%  
2'@D0L  
     文件名 J:\12 Music*音乐\1996 They Don't Care About Us (JP - ESCA 6387) 8''\CDImage.wav M2;6Cz>,P  
6J_$dzw  
     峰值电平 100.0 % D^a(|L3;  
     抓取速度 5.9 X c[T@lz(!  
     范围质量 100.0 % qA[cF$CIl)  
     复制 CRC 9792C31F =**Q\ Sl  
     复制成功 ta<8~n^?  
2R ^6L@fw  
没有错误发生 oIQ$98M  
+=d=  
HGDiwA  
AccurateRip 摘要 17`-eDd  
$Yp.BE<}  
音轨  1  在数据库中不存在 |lk:(~DM  
音轨  2  在数据库中不存在 \ .+:yV<$  
音轨  3  在数据库中不存在 O OXP1L  
音轨  4  在数据库中不存在 =d iGuI B  
音轨  5  在数据库中不存在 h(GSM'v  
音轨  6  在数据库中不存在 vT @25  
音轨  7  在数据库中不存在 P!IXcPKW53  
音轨  8  在数据库中不存在 )=bW\=[8  
4@Z!?QzW  
没有任何音轨在 AccurateRip 数据库中有记录 0P!Fci/t  
/{/mwS"W  
状态报告结尾
US"UkY-\  
|7Ab_  
链接:http://pan.baidu.com/s/1eRKzcgq 密码: c.5u \ I9"  
此帖售价 17 金钱,已有 8 人购买 [记录] [购买]
购买后,将显示帖子中所有出售内容。
若发现会员采用欺骗的方法获取财富,请立刻举报,我们会对会员处以2-N倍的罚金,严重者封掉ID!
此段为出售的内容,购买后显示

发帖
2631
金钱
28098
威望
616
贡献值
33
交易币
268
只看该作者 1楼 发表于: 01-06
感谢分享。

离线魏聪

发帖
159
金钱
2897
威望
41
贡献值
21
交易币
94
只看该作者 2楼 发表于: 01-06
谢谢楼主。
离线lifan_npl

发帖
2062
金钱
18203
威望
777
贡献值
337
交易币
2415
只看该作者 3楼 发表于: 01-06
发布辛苦了
我的淘宝:
http://shop63152617.taobao.com  
离线小李

发帖
200
金钱
181
威望
98
贡献值
7
交易币
168
只看该作者 4楼 发表于: 01-06
谢谢,想听听ROCK WITH YOU 那首,Rock With You(Frankie Knuckles Remix)是否这个?
离线wannam

发帖
2580
金钱
75499
威望
363
贡献值
169
交易币
3223
只看该作者 5楼 发表于: 01-07
感谢分享!!!
离线无神论者

发帖
28208
金钱
675918
威望
19276
贡献值
4627
交易币
7120
只看该作者 6楼 发表于: 01-07
东西真多
我的微信号mjxiemeng

离线小杰克逊

发帖
1550
金钱
1156
威望
883
贡献值
994
交易币
660
只看该作者 7楼 发表于: 01-10
谢谢幽灵兄,上传辛苦
http://gcb918.taobao.com/
离线mjnet

发帖
322
金钱
30238
威望
101
贡献值
51
交易币
487
只看该作者 8楼 发表于: 02-07
第一次看到日盤的TDCAU!!!!
离线michael0829

发帖
922
金钱
5205
威望
91
贡献值
70
交易币
1171
只看该作者 9楼 发表于: 04-19
翻看楼主帖子,楼主真的很好啊,谢谢啊!
I Love You Michael Jackson Forever!
I Just Can't Stop Loving You Michel!
快速回复
限100 字节
 
上一个 下一个