论坛风格切换切换到宽版
  • 1391阅读
  • 13回复

[亲传][Single] 1996 They Don't Care About Us (JP - ESCA 6387) - WAV整轨 ♬by幽灵 [复制链接]

上一主题 下一主题
离线mjghosts
 

发帖
8257
金钱
219515
威望
9187
贡献值
2734
交易币
4792
只看楼主 倒序阅读 楼主  发表于: 2017-01-06
— 本帖被 mjghosts 执行加亮操作(2017-01-06) —
*日本发行单曲,8首歌,与美版单曲内容相同,推荐! }aa'\8  
vOn`/5-  
注:独家整理,转载请注明出处!EAC无损整轨(压缩包内含CD图片) u@W|gLT1  
n`? py  
解压密码:www.mjsunny.com
a#cCpE  
-]0OKE&  
Tracklist Sj%u)#Ub  
1 They Don't Care About Us (Single Version) 4:45 >!eAM )  
2 They Don't Care About Us (Charles' Full Joint Mix) 4:57 F|S Xn\  
3 They Don't Care About Us (Dallas Main Mix) 5:14 ~Otq %MQ  
4 They Don't Care About Us (Love To Infinity's Walk In The Park Radio Mix) 4:46 ]AINK UI0  
5 They Don't Care About Us (Love To Infinity's Classic Paradise Radio Mix) 4:15 ih58 <Up5  
6 They Don't Care About Us (Track Masters Radio Edit) 3:41 %R}qg6dL  
7 Rock With You (Frankie's Favorite Club Mix) 7:38 5dx$HE&b)  
8 Earth Song (Hani's Club Experience) 7:56
ahJ`T*)HY  
)MtF23k)g  
b_$4V3TA  
4.k0<  
h\$$JeSV]  
evya7^,F  
Exact Audio Copy V1.0 beta 6 from 9. April 2015 GF"hx`zyJ  
[meO[otb  
EAC 抓取日志文件从6. 一月 2017, 3:56 )~GmU9f  
1NbG>E#Ol  
Michael Jackson / They Don't Care About Us %@<8<6&q  
im${3>26  
使用驱动器  :MATSHITADVD-RAM UJ890AS   Adapter: 1  ID: 1 ]>W6 bTK  
+xRK5+}9  
读取模式      : 可靠Secure 55G+;  
使用精确流     : 是 R]JT&p|w.1  
清空音频缓存    : 否 3>3Kwc~E  
使用 C2 指示器 : 是 # ncRb  
bc*X/).  
读取偏移校正:               : 102 ajve~8/&  
读取 Lead-In 和 Lead-Out : 否 hl;u'_AB  
用静音填充抓取中丢失偏移的采样       : 是 B=U 3  
去除首尾静音块               : 否 pLl(iNf]  
在CRC 计算中使用了空样本       : 是 &`h{i K7  
已用接口                  : Win NT 及 2000 本地 Win32 接口 %Wg'i!?cB  
9/9j+5}+  
所用输出模式: : 内部 WAV 函数 |Yx~;q:  
样本格式    : 44.100 Hz; 16 Bit; 立体声 97Lte5c6r  
qjc8fP2  
+2(I1  
已抓取 CD 的 TOC a@8v^G  
JELT ou  
     音轨 |    起始    |    长度    |  起始扇区  |  结束扇区   [v7F1@6b  
    -------------------------------------------- 8Pfb~&X^Ws  
      1 |  0:00.00 |  4:45.07 |      0 |  21381 f< ia(d  
      2 |  4:45.07 |  4:57.05 |  21382 |  43661 ^"2i   
      3 |  9:42.12 |  5:14.70 |  43662 |  67281 d+<G1w&z  
      4 | 14:57.07 |  4:46.73 |  67282 |  88804 .RE:;<|w  
      5 | 19:44.05 |  4:15.07 |  88805 | 107936 >l]Xz*HE  
      6 | 23:59.12 |  3:41.53 | 107937 | 124564 G"klu  
      7 | 27:40.65 |  7:38.10 | 124565 | 158924 b v G/|U  
      8 | 35:19.00 |  7:56.60 | 158925 | 194684 -mAUo;O  
&?W0mW(  
L E&RY[  
范围状态及错误 ,kF1T,  
^2+yHw  
已选择范围 ZNJ@F<  
~Am,%"%\  
     文件名 J:\12 Music*音乐\1996 They Don't Care About Us (JP - ESCA 6387) 8''\CDImage.wav ?!;7:VIE  
p rYs $j  
     峰值电平 100.0 % [.m`+  
     抓取速度 5.9 X |*:'TKzNS  
     范围质量 100.0 % IHe/xQ@  
     复制 CRC 9792C31F %JXE5l+pJ  
     复制成功 !;0U,!WI  
{)"iiJ  
没有错误发生 }2<r,  
VTG9$rQZ  
5"HV BfFk  
AccurateRip 摘要 VG,u7A*Z#  
0Uz\H0T1  
音轨  1  在数据库中不存在 Sg6"WV{<  
音轨  2  在数据库中不存在 bKrhIU[  
音轨  3  在数据库中不存在 ?RK]FP"A  
音轨  4  在数据库中不存在 MxGu>r  
音轨  5  在数据库中不存在 ~v]!+`_J  
音轨  6  在数据库中不存在 dl ~%MWAVb  
音轨  7  在数据库中不存在 \8<BLmf4U  
音轨  8  在数据库中不存在 qEpi]=|  
AwslWkd=  
没有任何音轨在 AccurateRip 数据库中有记录 SQqD:{#g"  
c zm& ~n6$  
状态报告结尾
Q8 DQlqHm  
e 46/{4F,  
链接:http://pan.baidu.com/s/1eRKzcgq 密码: zxf"87se  
此帖售价 17 金钱,已有 12 人购买 [记录] [购买]
购买后,将显示帖子中所有出售内容。
若发现会员采用欺骗的方法获取财富,请立刻举报,我们会对会员处以2-N倍的罚金,严重者封掉ID!
此段为出售的内容,购买后显示

发帖
2753
金钱
30915
威望
621
贡献值
38
交易币
410
只看该作者 1楼 发表于: 2017-01-06
感谢分享。

离线魏聪

发帖
168
金钱
2713
威望
41
贡献值
21
交易币
103
只看该作者 2楼 发表于: 2017-01-06
谢谢楼主。
离线lifan_npl

发帖
2213
金钱
31997
威望
853
贡献值
430
交易币
2594
只看该作者 3楼 发表于: 2017-01-06
发布辛苦了
我的淘宝店:
http://shop63152617.taobao.com  
离线小李

发帖
240
金钱
1125
威望
9
贡献值
8
交易币
212
只看该作者 4楼 发表于: 2017-01-06
谢谢,想听听ROCK WITH YOU 那首,Rock With You(Frankie Knuckles Remix)是否这个?
离线wannam

发帖
2703
金钱
87077
威望
382
贡献值
189
交易币
3346
只看该作者 5楼 发表于: 2017-01-07
感谢分享!!!
离线无神论者

发帖
28288
金钱
676836
威望
19309
贡献值
4651
交易币
7231
只看该作者 6楼 发表于: 2017-01-07
东西真多
我的微信号mjxiemeng

离线小杰克逊

发帖
1595
金钱
5582
威望
883
贡献值
994
交易币
705
只看该作者 7楼 发表于: 2017-01-10
谢谢幽灵兄,上传辛苦
http://gcb918.taobao.com/
离线mjnet

发帖
381
金钱
30546
威望
104
贡献值
54
交易币
558
只看该作者 8楼 发表于: 2017-02-07
第一次看到日盤的TDCAU!!!!
离线michael0829

发帖
957
金钱
10399
威望
90
贡献值
70
交易币
1206
只看该作者 9楼 发表于: 2017-04-19
翻看楼主帖子,楼主真的很好啊,谢谢啊!
I Love You Michael Jackson Forever!
I Just Can't Stop Loving You Michel!
快速回复
限100 字节
 
上一个 下一个