论坛风格切换切换到宽版
  • 833阅读
  • 11回复

[亲传][Single] 1996 They Don't Care About Us (JP - ESCA 6387) - WAV整轨 ♬by幽灵 [复制链接]

上一主题 下一主题
离线mjghosts
 

发帖
8240
金钱
216247
威望
9172
贡献值
2721
交易币
4743
只看楼主 倒序阅读 楼主  发表于: 2017-01-06
— 本帖被 mjghosts 执行加亮操作(2017-01-06) —
*日本发行单曲,8首歌,与美版单曲内容相同,推荐! =/]d\JSp  
h(VF  
注:独家整理,转载请注明出处!EAC无损整轨(压缩包内含CD图片) 1Ev#[FOc  
q[w.[]  
解压密码:www.mjsunny.com
,/P)c*at5  
M)oJ06`K  
Tracklist M;i4ss,}!  
1 They Don't Care About Us (Single Version) 4:45 ^YLpZoo  
2 They Don't Care About Us (Charles' Full Joint Mix) 4:57 yb(zyGe  
3 They Don't Care About Us (Dallas Main Mix) 5:14 q3s +?&  
4 They Don't Care About Us (Love To Infinity's Walk In The Park Radio Mix) 4:46 6jIW)C  
5 They Don't Care About Us (Love To Infinity's Classic Paradise Radio Mix) 4:15 Gu3'<hTlxd  
6 They Don't Care About Us (Track Masters Radio Edit) 3:41 fJ?$Z|  
7 Rock With You (Frankie's Favorite Club Mix) 7:38 Ti@X< C  
8 Earth Song (Hani's Club Experience) 7:56
F+`DfI]/m  
YJO,"7+  
Hset(-=X  
J!QzF)$4J  
_J51 :pi  
x0])&':!  
Exact Audio Copy V1.0 beta 6 from 9. April 2015 f.gkGwNk  
W39R)sra  
EAC 抓取日志文件从6. 一月 2017, 3:56 Z\E3i  
FU0&EO  
Michael Jackson / They Don't Care About Us BCya5!uy  
S:] w@$  
使用驱动器  :MATSHITADVD-RAM UJ890AS   Adapter: 1  ID: 1 Rww"Z=F  
-aGv#!aIl  
读取模式      : 可靠Secure \O?#gW\tR  
使用精确流     : 是 Z{RgpVt  
清空音频缓存    : 否 8T 6jM+ h  
使用 C2 指示器 : 是 jHB,r^:'  
R\yw9!ESd  
读取偏移校正:               : 102 x&)P)H0vn  
读取 Lead-In 和 Lead-Out : 否 $|z8WCJ  
用静音填充抓取中丢失偏移的采样       : 是 ,[+gE\z{{u  
去除首尾静音块               : 否 wamqeb{u  
在CRC 计算中使用了空样本       : 是 61T"K  
已用接口                  : Win NT 及 2000 本地 Win32 接口 KWy4}7a@,s  
w{K_+}fAC  
所用输出模式: : 内部 WAV 函数 |/ZpZ7  
样本格式    : 44.100 Hz; 16 Bit; 立体声 wvJm)Mj+  
&bs/a] ?Z7  
bPOehvK/  
已抓取 CD 的 TOC E;D9S  
<d$|~qS_  
     音轨 |    起始    |    长度    |  起始扇区  |  结束扇区   MBXumc_g  
    -------------------------------------------- #{UM4~|:  
      1 |  0:00.00 |  4:45.07 |      0 |  21381 jUI'F4.5x-  
      2 |  4:45.07 |  4:57.05 |  21382 |  43661 4mQ:i7~  
      3 |  9:42.12 |  5:14.70 |  43662 |  67281 3iR;(l}  
      4 | 14:57.07 |  4:46.73 |  67282 |  88804 ygWo9?  
      5 | 19:44.05 |  4:15.07 |  88805 | 107936 V[5-A $ft  
      6 | 23:59.12 |  3:41.53 | 107937 | 124564 & LwR9\sh  
      7 | 27:40.65 |  7:38.10 | 124565 | 158924 4! XB?-.  
      8 | 35:19.00 |  7:56.60 | 158925 | 194684 C*,-lk0b@  
puF'w:I (  
=Mzg={)v  
范围状态及错误 K_{f6c<  
;5:g%Dt  
已选择范围 8c(}*,O/  
VUC  
     文件名 J:\12 Music*音乐\1996 They Don't Care About Us (JP - ESCA 6387) 8''\CDImage.wav a*REx_gLG  
[HI&>dm=$  
     峰值电平 100.0 % gP"p7\ (  
     抓取速度 5.9 X iDt^4=`  
     范围质量 100.0 % ;j])h !8X  
     复制 CRC 9792C31F g9|B-1[  
     复制成功 0-pLCf  
<8Ek-aNNt  
没有错误发生 z!;n\CV@  
F,Y,0f@4U9  
]'V8{l  
AccurateRip 摘要 H+vONg  
$V-]DD%Y  
音轨  1  在数据库中不存在 0fA42*s;  
音轨  2  在数据库中不存在 j*f%<`2`j  
音轨  3  在数据库中不存在 L;/#D>U(  
音轨  4  在数据库中不存在 5r"BavA  
音轨  5  在数据库中不存在 R9&T0Qf  
音轨  6  在数据库中不存在 kwNXKn/   
音轨  7  在数据库中不存在 &&$/>[0=.  
音轨  8  在数据库中不存在 XSt5s06TM  
y?O{J!U  
没有任何音轨在 AccurateRip 数据库中有记录 Nge_ Ks  
xP*9UXZ4P  
状态报告结尾
$UW!tg*U&  
@3wI(l[  
链接:http://pan.baidu.com/s/1eRKzcgq 密码: $D5[12X  
此帖售价 17 金钱,已有 10 人购买 [记录] [购买]
购买后,将显示帖子中所有出售内容。
若发现会员采用欺骗的方法获取财富,请立刻举报,我们会对会员处以2-N倍的罚金,严重者封掉ID!
此段为出售的内容,购买后显示

发帖
2729
金钱
31485
威望
620
贡献值
37
交易币
382
只看该作者 1楼 发表于: 2017-01-06
感谢分享。

离线魏聪

发帖
168
金钱
2713
威望
41
贡献值
21
交易币
103
只看该作者 2楼 发表于: 2017-01-06
谢谢楼主。
离线lifan_npl

发帖
2173
金钱
16819
威望
782
贡献值
347
交易币
2526
只看该作者 3楼 发表于: 2017-01-06
发布辛苦了
我的淘宝:
http://shop63152617.taobao.com  
离线小李

发帖
232
金钱
230
威望
99
贡献值
8
交易币
204
只看该作者 4楼 发表于: 2017-01-06
谢谢,想听听ROCK WITH YOU 那首,Rock With You(Frankie Knuckles Remix)是否这个?
离线wannam

发帖
2701
金钱
86995
威望
382
贡献值
189
交易币
3344
只看该作者 5楼 发表于: 2017-01-07
感谢分享!!!
离线无神论者

发帖
28288
金钱
676761
威望
19308
贡献值
4651
交易币
7231
只看该作者 6楼 发表于: 2017-01-07
东西真多
我的微信号mjxiemeng

离线小杰克逊

发帖
1592
金钱
5626
威望
883
贡献值
994
交易币
702
只看该作者 7楼 发表于: 2017-01-10
谢谢幽灵兄,上传辛苦
http://gcb918.taobao.com/
离线mjnet

发帖
380
金钱
30464
威望
104
贡献值
54
交易币
557
只看该作者 8楼 发表于: 2017-02-07
第一次看到日盤的TDCAU!!!!
离线michael0829

发帖
954
金钱
9364
威望
90
贡献值
70
交易币
1203
只看该作者 9楼 发表于: 2017-04-19
翻看楼主帖子,楼主真的很好啊,谢谢啊!
I Love You Michael Jackson Forever!
I Just Can't Stop Loving You Michel!
快速回复
限100 字节
 
上一个 下一个