论坛风格切换切换到宽版
  • 259阅读
  • 9回复

[亲传][Single] 1996 They Don't Care About Us (JP - ESCA 6387) - WAV整轨 ♬by幽灵 [复制链接]

上一主题 下一主题
离线mjghosts
 

发帖
8200
金钱
205598
威望
9039
贡献值
2645
交易币
4575
只看楼主 倒序阅读 楼主  发表于: 01-06
— 本帖被 mjghosts 执行加亮操作(2017-01-06) —
*日本发行单曲,8首歌,与美版单曲内容相同,推荐! B.-A $/  
(zah890//  
注:独家整理,转载请注明出处!EAC无损整轨(压缩包内含CD图片) =g0*MZ;"  
+G!v!(Ob+  
解压密码:www.mjsunny.com
#1l7FT?q  
i wz` x  
Tracklist FrR9{YTA .  
1 They Don't Care About Us (Single Version) 4:45 FH -p!4+]  
2 They Don't Care About Us (Charles' Full Joint Mix) 4:57 =dn1}  
3 They Don't Care About Us (Dallas Main Mix) 5:14 H:E5xz3VQ  
4 They Don't Care About Us (Love To Infinity's Walk In The Park Radio Mix) 4:46 $:]tcY-L9  
5 They Don't Care About Us (Love To Infinity's Classic Paradise Radio Mix) 4:15 09x+Tko9;*  
6 They Don't Care About Us (Track Masters Radio Edit) 3:41 9g+UJ\u^  
7 Rock With You (Frankie's Favorite Club Mix) 7:38 oEPNN'~3  
8 Earth Song (Hani's Club Experience) 7:56
|Pj9ZG#  
AAdD\ %JZ  
g!.Ut:8L9  
oFwG+W /  
n8 GF8a  
%h3L  
Exact Audio Copy V1.0 beta 6 from 9. April 2015 d~vTD|Et  
V> 1D1  
EAC 抓取日志文件从6. 一月 2017, 3:56 'MSEki67  
g&|4  
Michael Jackson / They Don't Care About Us iLjuE)6-$  
m]{<Ux  
使用驱动器  :MATSHITADVD-RAM UJ890AS   Adapter: 1  ID: 1 r'Hy}HWuF  
oV%( 37W9=  
读取模式      : 可靠Secure e{^:/WcYB  
使用精确流     : 是 ))%@@l[  
清空音频缓存    : 否 OqEg{o5 a&  
使用 C2 指示器 : 是 3K=q)|  
\;3B?8wbIl  
读取偏移校正:               : 102 m &0(%  
读取 Lead-In 和 Lead-Out : 否 (T>?8 K _d  
用静音填充抓取中丢失偏移的采样       : 是 N$=(1`zM=  
去除首尾静音块               : 否 uQ)JC 7b\  
在CRC 计算中使用了空样本       : 是 cuV8#: i  
已用接口                  : Win NT 及 2000 本地 Win32 接口 d'Ik@D]I  
8osS OOzM  
所用输出模式: : 内部 WAV 函数 \GbHS*\+  
样本格式    : 44.100 Hz; 16 Bit; 立体声 ,E/Y@sajn+  
z'\}/k+  
M3jv aI  
已抓取 CD 的 TOC p^4;fD  
8f{}ce'E*  
     音轨 |    起始    |    长度    |  起始扇区  |  结束扇区   qUoMg%Z%l  
    -------------------------------------------- <*r<+S   
      1 |  0:00.00 |  4:45.07 |      0 |  21381 |0%4G k);  
      2 |  4:45.07 |  4:57.05 |  21382 |  43661 +2au ;^N  
      3 |  9:42.12 |  5:14.70 |  43662 |  67281 O"J.k&C<,  
      4 | 14:57.07 |  4:46.73 |  67282 |  88804 n6!Ihip$  
      5 | 19:44.05 |  4:15.07 |  88805 | 107936 n;k97>m${x  
      6 | 23:59.12 |  3:41.53 | 107937 | 124564 4 _U,-%/  
      7 | 27:40.65 |  7:38.10 | 124565 | 158924 %oCjZ"ke  
      8 | 35:19.00 |  7:56.60 | 158925 | 194684 SJ[@fUxO)  
(Y.$wMB  
ZesD(  
范围状态及错误 &G,o guo  
HToN+z%w3H  
已选择范围 *T2&$W|_a  
4%v+ark8  
     文件名 J:\12 Music*音乐\1996 They Don't Care About Us (JP - ESCA 6387) 8''\CDImage.wav qCkg\)Ks5I  
B*iz+"H  
     峰值电平 100.0 % /~rO2]rZ@  
     抓取速度 5.9 X |ShRxE3@'  
     范围质量 100.0 % g5|\G%dOt  
     复制 CRC 9792C31F ;,})VoC\!  
     复制成功 LXF%~^^@d  
{]Iu">*  
没有错误发生 _r|yt Q)  
a[cH@7W.#  
1sLfjH hv  
AccurateRip 摘要 gq1Y]t|4F  
>qvD3 9w  
音轨  1  在数据库中不存在 h#ot)m|I  
音轨  2  在数据库中不存在 XJ?z{gXJ  
音轨  3  在数据库中不存在 ( +hI   
音轨  4  在数据库中不存在 pdiZ"pe  
音轨  5  在数据库中不存在 Tic9r i  
音轨  6  在数据库中不存在 x,_Ucc.  
音轨  7  在数据库中不存在 /n:fxdhe  
音轨  8  在数据库中不存在 q~_jF$9SX  
rP4@K%F9jB  
没有任何音轨在 AccurateRip 数据库中有记录 9Bw"VN]W  
p~ItHwiT  
状态报告结尾
=^vUb  
8:NHPHxB  
链接:http://pan.baidu.com/s/1eRKzcgq 密码: N2J!7uoQ  
此帖售价 17 金钱,已有 8 人购买 [记录] [购买]
购买后,将显示帖子中所有出售内容。
若发现会员采用欺骗的方法获取财富,请立刻举报,我们会对会员处以2-N倍的罚金,严重者封掉ID!
此段为出售的内容,购买后显示

发帖
2632
金钱
28152
威望
616
贡献值
33
交易币
269
只看该作者 1楼 发表于: 01-06
感谢分享。

离线魏聪

发帖
159
金钱
2897
威望
41
贡献值
21
交易币
94
只看该作者 2楼 发表于: 01-06
谢谢楼主。
离线lifan_npl

发帖
2064
金钱
18211
威望
777
贡献值
337
交易币
2417
只看该作者 3楼 发表于: 01-06
发布辛苦了
我的淘宝:
http://shop63152617.taobao.com  
在线小李

发帖
202
金钱
182
威望
98
贡献值
7
交易币
170
只看该作者 4楼 发表于: 01-06
谢谢,想听听ROCK WITH YOU 那首,Rock With You(Frankie Knuckles Remix)是否这个?
离线wannam

发帖
2607
金钱
80608
威望
363
贡献值
169
交易币
3250
只看该作者 5楼 发表于: 01-07
感谢分享!!!
离线无神论者

发帖
28212
金钱
675948
威望
19276
贡献值
4627
交易币
7125
只看该作者 6楼 发表于: 01-07
东西真多
我的微信号mjxiemeng

离线小杰克逊

发帖
1550
金钱
1154
威望
883
贡献值
994
交易币
660
只看该作者 7楼 发表于: 01-10
谢谢幽灵兄,上传辛苦
http://gcb918.taobao.com/
离线mjnet

发帖
323
金钱
30306
威望
101
贡献值
51
交易币
488
只看该作者 8楼 发表于: 02-07
第一次看到日盤的TDCAU!!!!
离线michael0829

发帖
928
金钱
8366
威望
91
贡献值
70
交易币
1177
只看该作者 9楼 发表于: 04-19
翻看楼主帖子,楼主真的很好啊,谢谢啊!
I Love You Michael Jackson Forever!
I Just Can't Stop Loving You Michel!
快速回复
限100 字节
 
上一个 下一个