论坛风格切换切换到宽版
  • 728阅读
  • 18回复

[亲传][Single] 1992 Tour Souvenir CD Single (5 Disc) (JP - ESCA 5703~7) - WAV整轨 ♬by幽灵 [复制链接]

上一主题 下一主题
离线mjghosts
 

发帖
8235
金钱
209029
威望
9162
贡献值
2713
交易币
4678
只看楼主 倒序阅读 楼主  发表于: 02-13
— 本帖被 mjghosts 执行加亮操作(2017-02-13) —
*92年纪念危险巡演发行的一套画盘单曲,日本版,里面大部分歌曲都是最原始的版本,共5CD。完美抓轨! _$i9Tk  
z4UeUVfZ}  
注:独家整理,转载请注明出处!EAC无损整轨(压缩包内含CD图片) -bZ^A~<O,  
%ze Sx  
解压密码:www.mjsunny.com
iCc@N|~  
bG2 !5m4L  
Tracklist: (doFYF~w  
1.1 Off The Wall 4:08 c @2s!bs  
1.2 She's Out Of My Life 3:39 i&"I/!3Q@  
1.3 Don't Stop 'til You Get Enough 6:08 G ^r^" j  
1.4 Rock With You (Masters At Work Remix) 5:31 tao3Xr^?  
-I\_v*nA  
2.1 Thriller 6:01 6j_ A{*~Ng  
2.2 Beat It 4:20 <t]i' D(K  
2.3 Billie Jean 5:00 KWN0$*4  
2.4 Beat It (Moby's Sub Mix) 6:13 1c?,= ;>  
+,c;Dff  
3.1 Bad 4:09 _%Mu{Ni&  
3.2 Man In The Mirror 5:20 <[l2]"Q  
3.3 Smooth Criminal 4:19 >N+e c_D^  
3.4 Smooth Criminal ("Annie" Mix) 5:38 !>9*$E |  
wF3mQ_hv:@  
4.1 Dangerous 7:00 Gash3}+  
4.2 Who Is It 4:12 -v>BeVF  
4.3 Black Or White 3:23 +`.%aJIi9  
4.4 Black Or White (The Clivilles & Cole Radio Mix) 3:36 >G/>:wwSP.  
POUB{ba  
5.1 Come Together 5:28
8q_3*++D  
90I)"vfW5  
'{6`n5:e  
Q 7B)t;^  
.7E-  
-b)p6>G-C  
Exact Audio Copy V1.0 beta 6 from 9. April 2015 >2$Ehw:K^  
4_r8ynq{z  
EAC 抓取日志文件从8. 二月 2017, 15:37 S$muV9z2=  
 tEP^w  
Michael Jackson / Tour Souvenir CD Single B(^fM!_%-6  
jX+LI  
使用驱动器  :MATSHITADVD-RAM UJ890AS   Adapter: 1  ID: 1 _Q.3X[88C  
39~fP)  
读取模式      : 可靠Secure XTZWbhNF  
使用精确流     : 是 WWE?U-o  
清空音频缓存    : 否 )]qFI"B7  
使用 C2 指示器 : 是 nMVThN*I g  
tbOe,-U-@  
读取偏移校正:               : 102 s|{K?s  
读取 Lead-In 和 Lead-Out : 否 <T0-m?D_$  
用静音填充抓取中丢失偏移的采样       : 是 :;??!V  
去除首尾静音块               : 否 0s<o5`v  
在CRC 计算中使用了空样本       : 是 D=dY4WwG  
已用接口                  : Win NT 及 2000 本地 Win32 接口 =20Q! wcu  
N8nyTPw  
所用输出模式: : 内部 WAV 函数 y>~Ke UC  
样本格式    : 44.100 Hz; 16 Bit; 立体声 >StvP=our  
y*7ht{B  
YDQV,`S7  
已抓取 CD 的 TOC n*O/ X  
U7ajDw  
     音轨 |    起始    |    长度    |  起始扇区  |  结束扇区   f}+G;a9Nj  
    -------------------------------------------- -D(Ubk Pw  
      1 |  0:00.00 |  4:08.15 |      0 |  18614 1C|j<w=i  
      2 |  4:08.15 |  3:39.05 |  18615 |  35044 GN~:rdd  
      3 |  7:47.20 |  6:07.72 |  35045 |  62641 sJ0y3)PQ  
      4 | 13:55.17 |  5:31.63 |  62642 |  87529 z2 dM*NMK  
z5i!GJB  
h]zx7zt-  
范围状态及错误 M!I:$DZt  
|]I?^:I  
已选择范围 h{h=',o1  
D&oC1  
     文件名 J:\12 Music*音乐\【Single】Tour Souvenir CD Single (5 Disc) (JP - ESCA 5703~7)\CD1\CDImage.wav FF/MTd}6qG  
]Wy V bIu  
     峰值电平 100.0 % ae^xuM?7  
     抓取速度 5.0 X `V?{  
     范围质量 100.0 % - jyD!(  
     复制 CRC 13C1E41F a1}W2;W0]g  
     复制成功 D~%cf  
iD]!PaFD`  
没有错误发生 `Y[zF1$kz^  
?Rwn1.Z  
Z@h]dU5%a  
AccurateRip 摘要 eR}d"F4W  
~bwFQYY=  
音轨  1  精确地校准抓取  2)  [DDD0E1F3]  (AR v2) HKh)T$IZM  
音轨  2  精确地校准抓取  2)  [FF626E33]  (AR v2) yy>4`_  
音轨  3  精确地校准抓取  2)  [2590B0DA]  (AR v2) 0\mM^+fO  
音轨  4  精确地校准抓取  2)  [72E73529]  (AR v2) ,~3sba  
'1mygplW  
所有音轨精确校准抓取 &zm5s*yNt  
Na`qAj}  
状态报告结尾
dXOjaS# ~  
6znm?s@~  
链接:http://pan.baidu.com/s/1i5mfotn 密码: !k[ zUti  
此帖售价 32 金钱,已有 16 人购买 [记录] [购买]
购买后,将显示帖子中所有出售内容。
若发现会员采用欺骗的方法获取财富,请立刻举报,我们会对会员处以2-N倍的罚金,严重者封掉ID!
此段为出售的内容,购买后显示
在线耶稣

发帖
6639
金钱
211089
威望
2158
贡献值
1417
交易币
10165
只看该作者 1楼 发表于: 02-13
谢谢分享


离线mjnet

发帖
354
金钱
30856
威望
104
贡献值
54
交易币
531
只看该作者 2楼 发表于: 02-13
當年這張盤罕見的原因是Disc5. ?%su?L  
日盤5 discsㄝ歐盤只有4 discs }y+Qj6dP  
Come together 在1992 時只在Moonwalker 出現過.. -BI!ZsC'  
這也是為何日盤CD迷人之處.. GDC@s<[k  
1995 History才再次將它收進.. ;+(_stxqV9  
离线mjghosts

发帖
8235
金钱
209029
威望
9162
贡献值
2713
交易币
4678
只看该作者 3楼 发表于: 02-13
回 mjnet 的帖子
mjnet:當年這張盤罕見的原因是Disc5. Vi^vG`L9  
日盤5 discsㄝ歐盤只有4 discs (*6 .-Xn  
Come together 在1992 時只在Moonwalker 出現過.. NhNd+SCZ@  
這也是為何日盤CD迷人之處.. .nVY" C&  
1995 History才再次將它收進.. LQ%QFfC  
....... (2017-02-13 20:08)  /!t:MK;  
yN`&oya  
是的 r 20!   
不过92年欧洲发行的REMEMBER THE TIME单曲中也有收录COME TOGETHER wX6-WQR  
日本就仅在这个套装里发行了
离线wannam

发帖
2680
金钱
86748
威望
382
贡献值
189
交易币
3323
只看该作者 4楼 发表于: 02-14
谢谢分享!
离线131

发帖
1157
金钱
9077
威望
430
贡献值
239
交易币
788
只看该作者 5楼 发表于: 02-14
希望补全啊 演唱会音频还是不错的
离线mjghosts

发帖
8235
金钱
209029
威望
9162
贡献值
2713
交易币
4678
只看该作者 6楼 发表于: 02-14
回 131 的帖子
131:希望补全啊 演唱会音频还是不错的 (2017-02-14 01:03)  W!b'nRkq  
)1Z @}o 9  
这个并不是演唱会音频

发帖
473
金钱
7135
威望
49
贡献值
42
交易币
642
只看该作者 7楼 发表于: 02-14
谢谢分享。
离线mjlove98

发帖
1911
金钱
1
威望
217
贡献值
62
交易币
1688
只看该作者 8楼 发表于: 02-14
谢谢分享
离线小杰克逊

发帖
1587
金钱
5959
威望
883
贡献值
994
交易币
697
只看该作者 9楼 发表于: 02-15
谢谢幽灵兄
http://gcb918.taobao.com/
快速回复
限100 字节
 
上一个 下一个