论坛风格切换切换到宽版
  • 458阅读
  • 18回复

[亲传][Single] 1992 Tour Souvenir CD Single (5 Disc) (JP - ESCA 5703~7) - WAV整轨 ♬by幽灵 [复制链接]

上一主题 下一主题
离线mjghosts
 

发帖
8193
金钱
205205
威望
9035
贡献值
2641
交易币
4552
只看楼主 倒序阅读 楼主  发表于: 02-13
— 本帖被 mjghosts 执行加亮操作(2017-02-13) —
*92年纪念危险巡演发行的一套画盘单曲,日本版,里面大部分歌曲都是最原始的版本,共5CD。完美抓轨! 3 ?&h^UX  
hnWo|! ,O$  
注:独家整理,转载请注明出处!EAC无损整轨(压缩包内含CD图片) M2@^bB\J  
?*r!{3T ,u  
解压密码:www.mjsunny.com
7+w'Y<mJ  
t5 a7DD  
Tracklist: Eaad,VBtU  
1.1 Off The Wall 4:08 j[6Raf/(n  
1.2 She's Out Of My Life 3:39 (bn Zy0  
1.3 Don't Stop 'til You Get Enough 6:08 #~qAHJ<  
1.4 Rock With You (Masters At Work Remix) 5:31 GJ 'spgz  
v[<Bjs\q5  
2.1 Thriller 6:01 [FQ\I-GNC  
2.2 Beat It 4:20 ;LJ3c7$@lf  
2.3 Billie Jean 5:00 5|$a =UIR  
2.4 Beat It (Moby's Sub Mix) 6:13 rn.\tDeA  
UBO^EVJ  
3.1 Bad 4:09 0_eQlatb  
3.2 Man In The Mirror 5:20 :u%$0p>  
3.3 Smooth Criminal 4:19 \|Dei);k  
3.4 Smooth Criminal ("Annie" Mix) 5:38 TF+ l5fv  
<M[U#Q~?~e  
4.1 Dangerous 7:00 cQpnEO&SL  
4.2 Who Is It 4:12 %Ny) ?B  
4.3 Black Or White 3:23 =?0QqCjK)  
4.4 Black Or White (The Clivilles & Cole Radio Mix) 3:36 \+qOO65/+  
EH`0  
5.1 Come Together 5:28
F}ukZ DB  
p {%t q$}.  
E1>/R  
#A <1aQ  
<6N_at3  
?p8k{N(1  
Exact Audio Copy V1.0 beta 6 from 9. April 2015 2DMrMmLI  
DacJ,in_I{  
EAC 抓取日志文件从8. 二月 2017, 15:37 fU*C/ d3  
O25m k X  
Michael Jackson / Tour Souvenir CD Single @sf 90&f  
gAE!a Ky  
使用驱动器  :MATSHITADVD-RAM UJ890AS   Adapter: 1  ID: 1 Z6=~1'<X  
P%o44|[][  
读取模式      : 可靠Secure j|'R$|  
使用精确流     : 是 Ob&W_D^=N  
清空音频缓存    : 否 ;A^K_w'  
使用 C2 指示器 : 是 r#~K[qb  
|6B6?'  
读取偏移校正:               : 102 Hql5oA  
读取 Lead-In 和 Lead-Out : 否 }V^e7d  
用静音填充抓取中丢失偏移的采样       : 是 X!0kK8v  
去除首尾静音块               : 否 q`loOm=y  
在CRC 计算中使用了空样本       : 是 H%.zXQ4}n  
已用接口                  : Win NT 及 2000 本地 Win32 接口 Wu{&;$  
T]2U fi.  
所用输出模式: : 内部 WAV 函数 :`<psvd  
样本格式    : 44.100 Hz; 16 Bit; 立体声 6D*chvNA;  
^('cbl  
^-L{/'[8M  
已抓取 CD 的 TOC #uWE2*')  
!"(u_dFw  
     音轨 |    起始    |    长度    |  起始扇区  |  结束扇区   |4xo4%BQ>  
    -------------------------------------------- o4'v> b  
      1 |  0:00.00 |  4:08.15 |      0 |  18614  oWrE2U;  
      2 |  4:08.15 |  3:39.05 |  18615 |  35044 Zi3T~:0p:  
      3 |  7:47.20 |  6:07.72 |  35045 |  62641 BQU/QoDY  
      4 | 13:55.17 |  5:31.63 |  62642 |  87529 4.k`[q8  
A5+5J_)*  
S2}Z&X(  
范围状态及错误 8}K"IW  
KZi' v6  
已选择范围 )[ w&C_>]  
fn?VNZ`J  
     文件名 J:\12 Music*音乐\【Single】Tour Souvenir CD Single (5 Disc) (JP - ESCA 5703~7)\CD1\CDImage.wav 7AeP Gr  
4zX=3iBt  
     峰值电平 100.0 % c'~[!,[b<  
     抓取速度 5.0 X CjmV+%b4  
     范围质量 100.0 % () <`t}FQ  
     复制 CRC 13C1E41F 2mLUdx~c  
     复制成功 OT%V{hD  
W1<.OO\J  
没有错误发生 yYBNH1  
9IOGc}  
&! OGIYC(  
AccurateRip 摘要 E{I) ]h  
Q-jf8A]  
音轨  1  精确地校准抓取  2)  [DDD0E1F3]  (AR v2) l JlZHO  
音轨  2  精确地校准抓取  2)  [FF626E33]  (AR v2) |""=)-5N  
音轨  3  精确地校准抓取  2)  [2590B0DA]  (AR v2) 3)xbnRk  
音轨  4  精确地校准抓取  2)  [72E73529]  (AR v2) Z/n3aYM  
S$\.4*_H\  
所有音轨精确校准抓取 W?=$V>)  
PaxK^*  
状态报告结尾
qj`,qm P  
CJm.K  
链接:http://pan.baidu.com/s/1i5mfotn 密码: (Hl8U  
此帖售价 32 金钱,已有 16 人购买 [记录] [购买]
购买后,将显示帖子中所有出售内容。
若发现会员采用欺骗的方法获取财富,请立刻举报,我们会对会员处以2-N倍的罚金,严重者封掉ID!
此段为出售的内容,购买后显示
离线耶稣

发帖
6478
金钱
187180
威望
1842
贡献值
1208
交易币
9692
只看该作者 1楼 发表于: 02-13
谢谢分享



离线mjnet

发帖
322
金钱
30238
威望
101
贡献值
51
交易币
487
只看该作者 2楼 发表于: 02-13
當年這張盤罕見的原因是Disc5. hEdo,gF*  
日盤5 discsㄝ歐盤只有4 discs F1Zk9%L%9$  
Come together 在1992 時只在Moonwalker 出現過.. h=p-0 Mx .  
這也是為何日盤CD迷人之處.. `Cb<KAaCH  
1995 History才再次將它收進.. l(0&6ENyj  
离线mjghosts

发帖
8193
金钱
205205
威望
9035
贡献值
2641
交易币
4552
只看该作者 3楼 发表于: 02-13
回 mjnet 的帖子
mjnet:當年這張盤罕見的原因是Disc5. C*6bR? I9  
日盤5 discsㄝ歐盤只有4 discs Pq_ApUZa  
Come together 在1992 時只在Moonwalker 出現過.. #ui%=ja[:~  
這也是為何日盤CD迷人之處.. G%x,t -  
1995 History才再次將它收進.. 5x L,~"  
....... (2017-02-13 20:08)  <3]/ms  
-<VF6k<  
是的 P$#}-15?|_  
不过92年欧洲发行的REMEMBER THE TIME单曲中也有收录COME TOGETHER rq|czQ  
日本就仅在这个套装里发行了
离线wannam

发帖
2582
金钱
75499
威望
363
贡献值
169
交易币
3225
只看该作者 4楼 发表于: 02-14
谢谢分享!
在线131

发帖
1147
金钱
9227
威望
430
贡献值
239
交易币
778
只看该作者 5楼 发表于: 02-14
希望补全啊 演唱会音频还是不错的
离线mjghosts

发帖
8193
金钱
205205
威望
9035
贡献值
2641
交易币
4552
只看该作者 6楼 发表于: 02-14
回 131 的帖子
131:希望补全啊 演唱会音频还是不错的 (2017-02-14 01:03)   o=5uM  
RB@gSHOc?  
这个并不是演唱会音频

发帖
422
金钱
4809
威望
46
贡献值
39
交易币
579
只看该作者 7楼 发表于: 02-14
谢谢分享。
离线mjlove98

发帖
1882
金钱
9
威望
217
贡献值
62
交易币
1659
只看该作者 8楼 发表于: 02-14
谢谢分享
离线小杰克逊

发帖
1550
金钱
1156
威望
883
贡献值
994
交易币
660
只看该作者 9楼 发表于: 02-15
谢谢幽灵兄
http://gcb918.taobao.com/
快速回复
限100 字节
 
上一个 下一个