论坛风格切换切换到宽版
  • 572阅读
  • 18回复

[亲传][Single] 1992 Tour Souvenir CD Single (5 Disc) (JP - ESCA 5703~7) - WAV整轨 ♬by幽灵 [复制链接]

上一主题 下一主题
离线mjghosts
 

发帖
8194
金钱
205392
威望
9035
贡献值
2641
交易币
4553
只看楼主 倒序阅读 楼主  发表于: 02-13
— 本帖被 mjghosts 执行加亮操作(2017-02-13) —
*92年纪念危险巡演发行的一套画盘单曲,日本版,里面大部分歌曲都是最原始的版本,共5CD。完美抓轨! ~M5:=zKQ  
&+01+-1hW  
注:独家整理,转载请注明出处!EAC无损整轨(压缩包内含CD图片) (Sv>NQp  
s9O2k}]  
解压密码:www.mjsunny.com
Z(e ^iH  
o r2|O#=  
Tracklist: O,s.D,S  
1.1 Off The Wall 4:08 Zgamd1DJ[l  
1.2 She's Out Of My Life 3:39 QR0(,e$Dl  
1.3 Don't Stop 'til You Get Enough 6:08 5MF#&v  
1.4 Rock With You (Masters At Work Remix) 5:31 -SCM:j%h  
* F4UAQzYb  
2.1 Thriller 6:01 O.QK"pKD\  
2.2 Beat It 4:20 #7G*GbKY  
2.3 Billie Jean 5:00 .; Q:p*  
2.4 Beat It (Moby's Sub Mix) 6:13 bHE2,;o  
o\VUD  
3.1 Bad 4:09 YJeyIYCs<  
3.2 Man In The Mirror 5:20 I\O\,yPhhP  
3.3 Smooth Criminal 4:19 4T6 {Y  
3.4 Smooth Criminal ("Annie" Mix) 5:38 Ifc]K?  
942lSyix  
4.1 Dangerous 7:00 ia@'%8  
4.2 Who Is It 4:12 Mj#-j/{x{5  
4.3 Black Or White 3:23 D,v U  
4.4 Black Or White (The Clivilles & Cole Radio Mix) 3:36 sUJ%x#u}Fk  
yZr M.%V  
5.1 Come Together 5:28
\>LnLH(  
zi R5:d3   
kft #R#m  
0.T4{JS#  
eAv4FA4g  
:I -V_4b  
Exact Audio Copy V1.0 beta 6 from 9. April 2015 _XJ2fA )  
5` Te \H  
EAC 抓取日志文件从8. 二月 2017, 15:37 * #jsgj[  
0#w?HCx=  
Michael Jackson / Tour Souvenir CD Single 5>BK%`  
Q+g!V5'  
使用驱动器  :MATSHITADVD-RAM UJ890AS   Adapter: 1  ID: 1 M\yT).>z  
c478P=g=5  
读取模式      : 可靠Secure LpR3BP@At  
使用精确流     : 是 035rPT7-2-  
清空音频缓存    : 否 /yM:| `tT  
使用 C2 指示器 : 是 ],P;WPU  
*Z|y'<s  
读取偏移校正:               : 102 &^W|iXi#  
读取 Lead-In 和 Lead-Out : 否 Nm |!#(L  
用静音填充抓取中丢失偏移的采样       : 是 {GC?SaK  
去除首尾静音块               : 否 .k,kTr$ S  
在CRC 计算中使用了空样本       : 是 9(@\&>)  
已用接口                  : Win NT 及 2000 本地 Win32 接口 xD6@Qk  
)b:7-}d  
所用输出模式: : 内部 WAV 函数 z_|/5$T>U  
样本格式    : 44.100 Hz; 16 Bit; 立体声 lBaR  
 -4cXRv]  
7x@A%2J  
已抓取 CD 的 TOC <TP=oq?I/  
9M:O0)s  
     音轨 |    起始    |    长度    |  起始扇区  |  结束扇区   ; d J1  
    -------------------------------------------- `|/<\  
      1 |  0:00.00 |  4:08.15 |      0 |  18614 8p:j&F  
      2 |  4:08.15 |  3:39.05 |  18615 |  35044 Jl&-,Vjb  
      3 |  7:47.20 |  6:07.72 |  35045 |  62641 GgB,tam{p  
      4 | 13:55.17 |  5:31.63 |  62642 |  87529 urjjw.wZ  
nuw70*ell  
s[w6FXt  
范围状态及错误 e=+?K5q{P(  
'7i Sp=  
已选择范围 U15H@h  
1q,{0s_kp  
     文件名 J:\12 Music*音乐\【Single】Tour Souvenir CD Single (5 Disc) (JP - ESCA 5703~7)\CD1\CDImage.wav jbS\vyG  
]3X@_NYj  
     峰值电平 100.0 % BZ?.D_bu  
     抓取速度 5.0 X [E/\#4b  
     范围质量 100.0 % Aj+2;]M  
     复制 CRC 13C1E41F yFtd=AI'E  
     复制成功 wfq7ob4^  
nv~%#|v_W  
没有错误发生 .ZJRO>S  
W8KDX_vGJ  
93` AWg/T  
AccurateRip 摘要 -\ EP.Vtz  
k6sI L3QJ0  
音轨  1  精确地校准抓取  2)  [DDD0E1F3]  (AR v2) ih P|E,L=L  
音轨  2  精确地校准抓取  2)  [FF626E33]  (AR v2) L.jh   
音轨  3  精确地校准抓取  2)  [2590B0DA]  (AR v2) ,u`YT%&L  
音轨  4  精确地校准抓取  2)  [72E73529]  (AR v2) FMClSeO7  
(<}&DE  
所有音轨精确校准抓取 ) `A3M)  
lMg+R<$~I  
状态报告结尾
wT:b\km:!  
O^^C;U@U<1  
链接:http://pan.baidu.com/s/1i5mfotn 密码: 4bn(zyP  
此帖售价 32 金钱,已有 16 人购买 [记录] [购买]
购买后,将显示帖子中所有出售内容。
若发现会员采用欺骗的方法获取财富,请立刻举报,我们会对会员处以2-N倍的罚金,严重者封掉ID!
此段为出售的内容,购买后显示
离线耶稣

发帖
6488
金钱
192387
威望
1864
贡献值
1215
交易币
9730
只看该作者 1楼 发表于: 02-13
谢谢分享



离线mjnet

发帖
322
金钱
30298
威望
101
贡献值
51
交易币
487
只看该作者 2楼 发表于: 02-13
當年這張盤罕見的原因是Disc5. xDLMPo&  
日盤5 discsㄝ歐盤只有4 discs k)i"tpw  
Come together 在1992 時只在Moonwalker 出現過.. |f3U%2@  
這也是為何日盤CD迷人之處.. rd|crD 3  
1995 History才再次將它收進.. E\_W  
离线mjghosts

发帖
8194
金钱
205392
威望
9035
贡献值
2641
交易币
4553
只看该作者 3楼 发表于: 02-13
回 mjnet 的帖子
mjnet:當年這張盤罕見的原因是Disc5. ATYQ6E[{MV  
日盤5 discsㄝ歐盤只有4 discs w\"n!^ms  
Come together 在1992 時只在Moonwalker 出現過.. z;fd#N:  
這也是為何日盤CD迷人之處.. \3n{w   
1995 History才再次將它收進.. ; McIxvj  
....... (2017-02-13 20:08)  ooLnJ Y#  
@\%)'WU  
是的 5UrXVdP  
不过92年欧洲发行的REMEMBER THE TIME单曲中也有收录COME TOGETHER c-s`>m  
日本就仅在这个套装里发行了
离线wannam

发帖
2603
金钱
80583
威望
363
贡献值
169
交易币
3246
只看该作者 4楼 发表于: 02-14
谢谢分享!
离线131

发帖
1148
金钱
9228
威望
430
贡献值
239
交易币
779
只看该作者 5楼 发表于: 02-14
希望补全啊 演唱会音频还是不错的
离线mjghosts

发帖
8194
金钱
205392
威望
9035
贡献值
2641
交易币
4553
只看该作者 6楼 发表于: 02-14
回 131 的帖子
131:希望补全啊 演唱会音频还是不错的 (2017-02-14 01:03)  Q|z06_3i  
GJ_)Cl+5E  
这个并不是演唱会音频

发帖
430
金钱
6870
威望
46
贡献值
39
交易币
587
只看该作者 7楼 发表于: 02-14
谢谢分享。
离线mjlove98

发帖
1882
金钱
9
威望
217
贡献值
62
交易币
1659
只看该作者 8楼 发表于: 02-14
谢谢分享
离线小杰克逊

发帖
1550
金钱
1154
威望
883
贡献值
994
交易币
660
只看该作者 9楼 发表于: 02-15
谢谢幽灵兄
http://gcb918.taobao.com/
快速回复
限100 字节
 
上一个 下一个