论坛风格切换切换到宽版
  • 1525阅读
  • 26回复

[亲传][Single] 1992 Tour Souvenir CD Single (5 Disc) (JP - ESCA 5703~7) - WAV整轨 ♬by幽灵 [复制链接]

上一主题 下一主题
离线mjghosts
 

发帖
8247
金钱
217735
威望
9174
贡献值
2723
交易币
4758
只看楼主 倒序阅读 楼主  发表于: 2017-02-13
— 本帖被 mjghosts 执行加亮操作(2017-02-13) —
*92年纪念危险巡演发行的一套画盘单曲,日本版,里面大部分歌曲都是最原始的版本,共5CD。完美抓轨! /E5 5Pec  
-!L"')  
注:独家整理,转载请注明出处!EAC无损整轨(压缩包内含CD图片) pBP.x#|  
UaViI/ks  
解压密码:www.mjsunny.com
GMZv RAu i  
0{PzUIM,W  
Tracklist: )){9&5,0:  
1.1 Off The Wall 4:08 ~/ilx#d  
1.2 She's Out Of My Life 3:39 t/PlcV_M"  
1.3 Don't Stop 'til You Get Enough 6:08 D^;*U[F?  
1.4 Rock With You (Masters At Work Remix) 5:31 cl*PFQp9j  
9A7@ 5F  
2.1 Thriller 6:01 3u\;j; Td!  
2.2 Beat It 4:20 )CS.F=  
2.3 Billie Jean 5:00 A=-F,=k(!/  
2.4 Beat It (Moby's Sub Mix) 6:13 T4;T6 9j;,  
^:jN3@ Q%  
3.1 Bad 4:09 'snYu!`z  
3.2 Man In The Mirror 5:20 Fv)7c4  
3.3 Smooth Criminal 4:19 D8# on!  
3.4 Smooth Criminal ("Annie" Mix) 5:38 Y3ZK%OyPR  
jAsO8  
4.1 Dangerous 7:00 -NBiW6b~  
4.2 Who Is It 4:12 efuK  
4.3 Black Or White 3:23 7e&\{*  
4.4 Black Or White (The Clivilles & Cole Radio Mix) 3:36 Gr(|Ra .  
7XyOB+aQO  
5.1 Come Together 5:28
K.SeK3(  
" B@jfa%  
u=qPzmywt  
| D.C!/69  
nb@"?<L!  
ibF#$&!  
Exact Audio Copy V1.0 beta 6 from 9. April 2015 T0FZ7  
te2 Iu%5 z  
EAC 抓取日志文件从8. 二月 2017, 15:37 =2oUZjA  
WaYO1*=  
Michael Jackson / Tour Souvenir CD Single U4wpjHg  
bc}dYK3$q  
使用驱动器  :MATSHITADVD-RAM UJ890AS   Adapter: 1  ID: 1  a8h]n:!  
!s-/0ugZ  
读取模式      : 可靠Secure oO:LG%q  
使用精确流     : 是 ,35Ag#va  
清空音频缓存    : 否 /;+,mp4  
使用 C2 指示器 : 是 b]dxlj} <  
|E|T%i^}./  
读取偏移校正:               : 102 hgj0tIi/  
读取 Lead-In 和 Lead-Out : 否 g*r/u;  
用静音填充抓取中丢失偏移的采样       : 是 sWW\bK0B4  
去除首尾静音块               : 否 TA9dkYlE/  
在CRC 计算中使用了空样本       : 是 L)G">T;  
已用接口                  : Win NT 及 2000 本地 Win32 接口 U;>B7X;`E4  
(>r|j4$  
所用输出模式: : 内部 WAV 函数 x/[8Wi,yB  
样本格式    : 44.100 Hz; 16 Bit; 立体声 0c-QIr}m  
e)b r`CD%  
s V&`0N  
已抓取 CD 的 TOC x1:vUHwC  
h FDze  
     音轨 |    起始    |    长度    |  起始扇区  |  结束扇区   Bac?'ypm  
    -------------------------------------------- s%FP6u7[i  
      1 |  0:00.00 |  4:08.15 |      0 |  18614 A"`L~|&  
      2 |  4:08.15 |  3:39.05 |  18615 |  35044 a =9vS{  
      3 |  7:47.20 |  6:07.72 |  35045 |  62641 BllDWKb  
      4 | 13:55.17 |  5:31.63 |  62642 |  87529 32TP Mk  
qT 5Wa O)  
;|2U f   
范围状态及错误 p!.  /  
r[Zg 2  
已选择范围 H0 {Mlu9  
1uKD&k%q  
     文件名 J:\12 Music*音乐\【Single】Tour Souvenir CD Single (5 Disc) (JP - ESCA 5703~7)\CD1\CDImage.wav =>E44v  
5%vP~vy_}  
     峰值电平 100.0 % @B}&62T  
     抓取速度 5.0 X NZC<m$')  
     范围质量 100.0 % 7lnM|nD  
     复制 CRC 13C1E41F EbHUGCMO  
     复制成功 {Tjtj@-  
gwkZk-f\p  
没有错误发生 +4p2KYO  
kiBOyC!r6  
$P1d#;rb%  
AccurateRip 摘要 ]c~rPi  
_YD<Q@  
音轨  1  精确地校准抓取  2)  [DDD0E1F3]  (AR v2) P89Dg/P  
音轨  2  精确地校准抓取  2)  [FF626E33]  (AR v2) \t 7zMp  
音轨  3  精确地校准抓取  2)  [2590B0DA]  (AR v2) LO Yyj?^7  
音轨  4  精确地校准抓取  2)  [72E73529]  (AR v2) v6, o/3Ex  
".7 KEnx  
所有音轨精确校准抓取 gJ}'O4*b  
6CzvRvA*P  
状态报告结尾
trNK9@wT)  
OAQ O J'  
链接:http://pan.baidu.com/s/1i5mfotn 密码: ~O3uje_  
此帖售价 32 金钱,已有 22 人购买 [记录] [购买]
购买后,将显示帖子中所有出售内容。
若发现会员采用欺骗的方法获取财富,请立刻举报,我们会对会员处以2-N倍的罚金,严重者封掉ID!
此段为出售的内容,购买后显示
离线耶稣

发帖
7148
金钱
272174
威望
2491
贡献值
1655
交易币
11219
只看该作者 1楼 发表于: 2017-02-13
谢谢分享




离线mjnet

发帖
380
金钱
30479
威望
104
贡献值
54
交易币
557
只看该作者 2楼 发表于: 2017-02-13
當年這張盤罕見的原因是Disc5. xa[<k >r3  
日盤5 discsㄝ歐盤只有4 discs V7G?i\>  
Come together 在1992 時只在Moonwalker 出現過.. O[+S/6uy  
這也是為何日盤CD迷人之處.. rRRiqmq  
1995 History才再次將它收進.. N)K};yMf  
离线mjghosts

发帖
8247
金钱
217735
威望
9174
贡献值
2723
交易币
4758
只看该作者 3楼 发表于: 2017-02-13
回 mjnet 的帖子
mjnet:當年這張盤罕見的原因是Disc5. ts/ rV#s~  
日盤5 discsㄝ歐盤只有4 discs XoEiW R  
Come together 在1992 時只在Moonwalker 出現過.. .E}fk,hLB  
這也是為何日盤CD迷人之處.. hvCX,^LoJ  
1995 History才再次將它收進.. ?4v&TB@  
....... (2017-02-13 20:08)  ^x(BZolkm  
:H($|$\h  
是的 uj#bK 7  
不过92年欧洲发行的REMEMBER THE TIME单曲中也有收录COME TOGETHER ~k>H4hV3  
日本就仅在这个套装里发行了
离线wannam

发帖
2702
金钱
87012
威望
382
贡献值
189
交易币
3345
只看该作者 4楼 发表于: 2017-02-14
谢谢分享!
离线131

发帖
1202
金钱
9089
威望
430
贡献值
239
交易币
833
只看该作者 5楼 发表于: 2017-02-14
希望补全啊 演唱会音频还是不错的
离线mjghosts

发帖
8247
金钱
217735
威望
9174
贡献值
2723
交易币
4758
只看该作者 6楼 发表于: 2017-02-14
回 131 的帖子
131:希望补全啊 演唱会音频还是不错的 (2017-02-14 01:03)  sC8C><y  
t@a2@dX|  
这个并不是演唱会音频

发帖
556
金钱
9437
威望
51
贡献值
44
交易币
733
只看该作者 7楼 发表于: 2017-02-14
谢谢分享。
离线mjlove98

发帖
2560
金钱
4942
威望
197
贡献值
123
交易币
2638
只看该作者 8楼 发表于: 2017-02-14
谢谢分享
离线小杰克逊

发帖
1594
金钱
5583
威望
883
贡献值
994
交易币
704
只看该作者 9楼 发表于: 2017-02-15
谢谢幽灵兄
http://gcb918.taobao.com/
快速回复
限100 字节
 
上一个 下一个