论坛风格切换切换到宽版
  • 638阅读
  • 18回复

[亲传][Single] 1992 Tour Souvenir CD Single (5 Disc) (JP - ESCA 5703~7) - WAV整轨 ♬by幽灵 [复制链接]

上一主题 下一主题
离线mjghosts
 

发帖
8228
金钱
208462
威望
9161
贡献值
2712
交易币
4667
只看楼主 倒序阅读 楼主  发表于: 02-13
— 本帖被 mjghosts 执行加亮操作(2017-02-13) —
*92年纪念危险巡演发行的一套画盘单曲,日本版,里面大部分歌曲都是最原始的版本,共5CD。完美抓轨! 25`6V>\  
w#`E;fN'  
注:独家整理,转载请注明出处!EAC无损整轨(压缩包内含CD图片) #a"gW,/K  
cYp]zn+6  
解压密码:www.mjsunny.com
N!:&Xz  
qY$/i#  
Tracklist: oefhJM!y  
1.1 Off The Wall 4:08 StJ&YYdD  
1.2 She's Out Of My Life 3:39 8n^v,s>  
1.3 Don't Stop 'til You Get Enough 6:08  &(Ot(.  
1.4 Rock With You (Masters At Work Remix) 5:31 EpCsJ08K  
{@c)!% 2$  
2.1 Thriller 6:01 Ht Z3n"2  
2.2 Beat It 4:20 N>S_Vgk}  
2.3 Billie Jean 5:00 &v\  
2.4 Beat It (Moby's Sub Mix) 6:13 2O^7zW  
i+)9ItZr  
3.1 Bad 4:09 !vB8Pk"  
3.2 Man In The Mirror 5:20 mgk<PY  
3.3 Smooth Criminal 4:19 "[[9i  
3.4 Smooth Criminal ("Annie" Mix) 5:38 cg-\|H1  
MY]Z@  
4.1 Dangerous 7:00 Lb2bzZbhx  
4.2 Who Is It 4:12 Lc<v4Bp  
4.3 Black Or White 3:23 Flrpk`4  
4.4 Black Or White (The Clivilles & Cole Radio Mix) 3:36 <<,YgRl2  
r~&[Gaw  
5.1 Come Together 5:28
x]~{#pH@<  
E;Akm':  
lV4|(NQ9  
f@3?kM(  
6Qo YX] .  
R^DZ@[\iV  
Exact Audio Copy V1.0 beta 6 from 9. April 2015 p$mx  
p_^Jr*Mv  
EAC 抓取日志文件从8. 二月 2017, 15:37 P2U^%_~  
_6y#?8RMB  
Michael Jackson / Tour Souvenir CD Single Owe"x2D\  
Wu}84W"!.V  
使用驱动器  :MATSHITADVD-RAM UJ890AS   Adapter: 1  ID: 1 -rn%ASye  
<$ "   
读取模式      : 可靠Secure 50< QF  
使用精确流     : 是 xF/u('A  
清空音频缓存    : 否 W@b Z~Q9  
使用 C2 指示器 : 是 %1oh+'ES F  
rpB0?h!$  
读取偏移校正:               : 102 QWncKE,O$  
读取 Lead-In 和 Lead-Out : 否 prk@uYCa =  
用静音填充抓取中丢失偏移的采样       : 是 hI$IBf>  
去除首尾静音块               : 否 Os rHA  
在CRC 计算中使用了空样本       : 是 6?BV J  
已用接口                  : Win NT 及 2000 本地 Win32 接口 Jv8JCu"eky  
{0o ,2]o!:  
所用输出模式: : 内部 WAV 函数 gj@>9  
样本格式    : 44.100 Hz; 16 Bit; 立体声 .gJv})Vi  
W[G5+*i  
tt03 gU`  
已抓取 CD 的 TOC +v)+ k  
GTocN1,Z~a  
     音轨 |    起始    |    长度    |  起始扇区  |  结束扇区   fAT+x1J\  
    -------------------------------------------- *?x[pqGq  
      1 |  0:00.00 |  4:08.15 |      0 |  18614 hbSXa'  
      2 |  4:08.15 |  3:39.05 |  18615 |  35044 m0,TH[HWGF  
      3 |  7:47.20 |  6:07.72 |  35045 |  62641 Ewa/6=]LA  
      4 | 13:55.17 |  5:31.63 |  62642 |  87529 !a7YM4D  
hr?0RPp}  
d:g0XP  
范围状态及错误 (L,>P`CR6  
?#|in}  
已选择范围 =PmIrvr'[5  
y:VY8a 4  
     文件名 J:\12 Music*音乐\【Single】Tour Souvenir CD Single (5 Disc) (JP - ESCA 5703~7)\CD1\CDImage.wav t|v_[Za}Z  
Ze3sc$fG2  
     峰值电平 100.0 % <*+Y]=  
     抓取速度 5.0 X RsnFjfb'  
     范围质量 100.0 % AfJ.SNE  
     复制 CRC 13C1E41F m$A-'*'  
     复制成功 %s#`Z [8,  
giu8EjzK  
没有错误发生 m.>y(TI  
Kz9h{ Tu4  
KL+,[M@ F  
AccurateRip 摘要 @+^5ze\  
=f-.aq(G/  
音轨  1  精确地校准抓取  2)  [DDD0E1F3]  (AR v2) 5: O,-b&  
音轨  2  精确地校准抓取  2)  [FF626E33]  (AR v2) q)KLf\  
音轨  3  精确地校准抓取  2)  [2590B0DA]  (AR v2) x#&%lJT  
音轨  4  精确地校准抓取  2)  [72E73529]  (AR v2) #e(P~'A0  
bF{14F$  
所有音轨精确校准抓取 .~fAcc{Qj  
d!]fou  
状态报告结尾
iv]*HE  
??.9`3CYo  
链接:http://pan.baidu.com/s/1i5mfotn 密码: M<x W)R  
此帖售价 32 金钱,已有 16 人购买 [记录] [购买]
购买后,将显示帖子中所有出售内容。
若发现会员采用欺骗的方法获取财富,请立刻举报,我们会对会员处以2-N倍的罚金,严重者封掉ID!
此段为出售的内容,购买后显示
在线耶稣

发帖
6549
金钱
196867
威望
2072
贡献值
1356
交易币
9883
只看该作者 1楼 发表于: 02-13
谢谢分享



在线mjnet

发帖
345
金钱
30692
威望
103
贡献值
53
交易币
518
只看该作者 2楼 发表于: 02-13
當年這張盤罕見的原因是Disc5. }#z E`IT  
日盤5 discsㄝ歐盤只有4 discs a8M.EFa:  
Come together 在1992 時只在Moonwalker 出現過.. Jx-^WB  
這也是為何日盤CD迷人之處.. SAs'u"EB  
1995 History才再次將它收進.. HG@!J>YaD  
离线mjghosts

发帖
8228
金钱
208462
威望
9161
贡献值
2712
交易币
4667
只看该作者 3楼 发表于: 02-13
回 mjnet 的帖子
mjnet:當年這張盤罕見的原因是Disc5. H@3+K$|v  
日盤5 discsㄝ歐盤只有4 discs FvNO*'xP  
Come together 在1992 時只在Moonwalker 出現過.. bOFLI#p&  
這也是為何日盤CD迷人之處.. .J@[v  
1995 History才再次將它收進.. u}rot+)%  
....... (2017-02-13 20:08)  `%XgGHiE  
bc4x"]!  
是的 q5!l(QL.  
不过92年欧洲发行的REMEMBER THE TIME单曲中也有收录COME TOGETHER 55cldo   
日本就仅在这个套装里发行了
离线wannam

发帖
2666
金钱
80618
威望
382
贡献值
189
交易币
3309
只看该作者 4楼 发表于: 02-14
谢谢分享!
离线131

发帖
1152
金钱
9226
威望
430
贡献值
239
交易币
783
只看该作者 5楼 发表于: 02-14
希望补全啊 演唱会音频还是不错的
离线mjghosts

发帖
8228
金钱
208462
威望
9161
贡献值
2712
交易币
4667
只看该作者 6楼 发表于: 02-14
回 131 的帖子
131:希望补全啊 演唱会音频还是不错的 (2017-02-14 01:03)  Z$ p0&~   
<a4 TO8  
这个并不是演唱会音频

发帖
441
金钱
6931
威望
46
贡献值
39
交易币
598
只看该作者 7楼 发表于: 02-14
谢谢分享。
离线mjlove98

发帖
1892
金钱
9
威望
217
贡献值
62
交易币
1669
只看该作者 8楼 发表于: 02-14
谢谢分享
离线小杰克逊

发帖
1554
金钱
1122
威望
883
贡献值
994
交易币
664
只看该作者 9楼 发表于: 02-15
谢谢幽灵兄
http://gcb918.taobao.com/
快速回复
限100 字节
 
上一个 下一个