论坛风格切换切换到宽版
  • 1578阅读
  • 27回复

[亲传][Single] 1992 Tour Souvenir CD Single (5 Disc) (JP - ESCA 5703~7) - WAV整轨 ♬by幽灵 [复制链接]

上一主题 下一主题
离线mjghosts
 

发帖
8251
金钱
218770
威望
9176
贡献值
2723
交易币
4762
只看楼主 倒序阅读 楼主  发表于: 2017-02-13
— 本帖被 mjghosts 执行加亮操作(2017-02-13) —
*92年纪念危险巡演发行的一套画盘单曲,日本版,里面大部分歌曲都是最原始的版本,共5CD。完美抓轨! kka"C]!  
8m=Z|"H@  
注:独家整理,转载请注明出处!EAC无损整轨(压缩包内含CD图片) {g F0Xm%  
y%BX]~  
解压密码:www.mjsunny.com
tn<6:@T  
x/TGp?\g  
Tracklist: 60B-ay0e$b  
1.1 Off The Wall 4:08 ma8wmQ9JR  
1.2 She's Out Of My Life 3:39 _g|acBF  
1.3 Don't Stop 'til You Get Enough 6:08 DQ6jT@ZDH  
1.4 Rock With You (Masters At Work Remix) 5:31 66:ALFwd7  
lglYJ,  
2.1 Thriller 6:01 f@z*3I;  
2.2 Beat It 4:20 :X>DkRP  
2.3 Billie Jean 5:00 x'`"iZO.t  
2.4 Beat It (Moby's Sub Mix) 6:13 hY8#b)l~lu  
rg& +  
3.1 Bad 4:09 2"/yEg*=  
3.2 Man In The Mirror 5:20 c?6d2jH.  
3.3 Smooth Criminal 4:19 xfHyC'?  
3.4 Smooth Criminal ("Annie" Mix) 5:38 Aka^e\Y@6*  
cH"@d^"+q|  
4.1 Dangerous 7:00 tHI*,  
4.2 Who Is It 4:12 s44iEh=V(I  
4.3 Black Or White 3:23 l]5%  
4.4 Black Or White (The Clivilles & Cole Radio Mix) 3:36 pCt}66k}  
 (K #A  
5.1 Come Together 5:28
MW@DXbKVl  
RO oE%%8I  
b=LF%P  
Es;;t83p  
,P@QxnQ   
-CU,z|g+  
Exact Audio Copy V1.0 beta 6 from 9. April 2015 ;nk@XFJ  
R<g=\XO'y  
EAC 抓取日志文件从8. 二月 2017, 15:37 V\zsDP  
1g i}H)  
Michael Jackson / Tour Souvenir CD Single Nmf#`+7gCI  
T Nci.']  
使用驱动器  :MATSHITADVD-RAM UJ890AS   Adapter: 1  ID: 1 qJMp1DC  
d| \#?W&  
读取模式      : 可靠Secure % +8  
使用精确流     : 是 ^ wQcB  
清空音频缓存    : 否 2{};6{yz  
使用 C2 指示器 : 是 zjWyGt(Q  
a}D&$yz2  
读取偏移校正:               : 102 m/N(%oMWB=  
读取 Lead-In 和 Lead-Out : 否  * D3  
用静音填充抓取中丢失偏移的采样       : 是 D[W}[r  
去除首尾静音块               : 否 H2]BMkum  
在CRC 计算中使用了空样本       : 是 p,^>*/O>  
已用接口                  : Win NT 及 2000 本地 Win32 接口 nP)-Y#`~7  
#ZwY?T x  
所用输出模式: : 内部 WAV 函数 `R ]&F$i(E  
样本格式    : 44.100 Hz; 16 Bit; 立体声 [r~~=b7*[  
@f'AWeJ2  
&@Yoj%%  
已抓取 CD 的 TOC oG9SO^v_  
T/3;NXe6E  
     音轨 |    起始    |    长度    |  起始扇区  |  结束扇区   vev8l\  
    -------------------------------------------- ^)'||Ly  
      1 |  0:00.00 |  4:08.15 |      0 |  18614 B C&^]M  
      2 |  4:08.15 |  3:39.05 |  18615 |  35044 3g+ \? L-c  
      3 |  7:47.20 |  6:07.72 |  35045 |  62641 F6h/0i  
      4 | 13:55.17 |  5:31.63 |  62642 |  87529 P:vX }V |[  
&A#90xzF  
f(W,m >.;  
范围状态及错误 OQ 0b$qw  
nFSG<#x\  
已选择范围 |Yg}WHm  
Zj5NWzj X  
     文件名 J:\12 Music*音乐\【Single】Tour Souvenir CD Single (5 Disc) (JP - ESCA 5703~7)\CD1\CDImage.wav | eK,Td%  
96k(X LR  
     峰值电平 100.0 % mRNHq3  
     抓取速度 5.0 X (u$!\fE-et  
     范围质量 100.0 % 1j8/4:  
     复制 CRC 13C1E41F "1E?3PFJ  
     复制成功 }qTv&Z3$  
/<G yg7o0  
没有错误发生 1 / F<T  
pvK \fSr  
z0FR33-  
AccurateRip 摘要 f4qS OVv  
w;g)Iy6x  
音轨  1  精确地校准抓取  2)  [DDD0E1F3]  (AR v2) (Qw`%B  
音轨  2  精确地校准抓取  2)  [FF626E33]  (AR v2) H"kc^G+(R"  
音轨  3  精确地校准抓取  2)  [2590B0DA]  (AR v2) U:C-\ M  
音轨  4  精确地校准抓取  2)  [72E73529]  (AR v2) l[ZQ7$kL  
98<bF{#0WM  
所有音轨精确校准抓取 xP|%rl4  
, .NG.Q4f  
状态报告结尾
>"m@qkh  
I*`=[nR  
链接:http://pan.baidu.com/s/1i5mfotn 密码: D{3 x}5  
此帖售价 32 金钱,已有 23 人购买 [记录] [购买]
购买后,将显示帖子中所有出售内容。
若发现会员采用欺骗的方法获取财富,请立刻举报,我们会对会员处以2-N倍的罚金,严重者封掉ID!
此段为出售的内容,购买后显示
离线耶稣

发帖
7162
金钱
273715
威望
2494
贡献值
1658
交易币
11245
只看该作者 1楼 发表于: 2017-02-13
谢谢分享




离线mjnet

发帖
381
金钱
30568
威望
104
贡献值
54
交易币
558
只看该作者 2楼 发表于: 2017-02-13
當年這張盤罕見的原因是Disc5. Pw{+7b$  
日盤5 discsㄝ歐盤只有4 discs VvKH]>*  
Come together 在1992 時只在Moonwalker 出現過.. @DR&e^Zz  
這也是為何日盤CD迷人之處.. KQ3 On(d  
1995 History才再次將它收進.. =QRZ(2Wq  
离线mjghosts

发帖
8251
金钱
218770
威望
9176
贡献值
2723
交易币
4762
只看该作者 3楼 发表于: 2017-02-13
回 mjnet 的帖子
mjnet:當年這張盤罕見的原因是Disc5. 'coqm8V[%  
日盤5 discsㄝ歐盤只有4 discs @l8?\^N  
Come together 在1992 時只在Moonwalker 出現過.. [q z6_WOo  
這也是為何日盤CD迷人之處.. khR3[ju{^  
1995 History才再次將它收進.. G~PP1sf  
....... (2017-02-13 20:08)  IO+z:D{  
~?p > L  
是的 PIA&s6U  
不过92年欧洲发行的REMEMBER THE TIME单曲中也有收录COME TOGETHER buoz La  
日本就仅在这个套装里发行了
离线wannam

发帖
2702
金钱
87018
威望
382
贡献值
189
交易币
3345
只看该作者 4楼 发表于: 2017-02-14
谢谢分享!
离线131

发帖
1208
金钱
9093
威望
430
贡献值
239
交易币
839
只看该作者 5楼 发表于: 2017-02-14
希望补全啊 演唱会音频还是不错的
离线mjghosts

发帖
8251
金钱
218770
威望
9176
贡献值
2723
交易币
4762
只看该作者 6楼 发表于: 2017-02-14
回 131 的帖子
131:希望补全啊 演唱会音频还是不错的 (2017-02-14 01:03)  ;mMn-+3<  
F:\y#U6"J  
这个并不是演唱会音频

发帖
556
金钱
9442
威望
51
贡献值
44
交易币
733
只看该作者 7楼 发表于: 2017-02-14
谢谢分享。
离线mjlove98

发帖
2568
金钱
4330
威望
197
贡献值
123
交易币
2646
只看该作者 8楼 发表于: 2017-02-14
谢谢分享
离线小杰克逊

发帖
1594
金钱
5583
威望
883
贡献值
994
交易币
704
只看该作者 9楼 发表于: 2017-02-15
谢谢幽灵兄
http://gcb918.taobao.com/
快速回复
限100 字节
 
上一个 下一个