论坛风格切换切换到宽版
  • 1092阅读
  • 25回复

[亲传][Single] 1992 Tour Souvenir CD Single (5 Disc) (JP - ESCA 5703~7) - WAV整轨 ♬by幽灵 [复制链接]

上一主题 下一主题
离线mjghosts
 

发帖
8232
金钱
213145
威望
9167
贡献值
2716
交易币
4715
只看楼主 倒序阅读 楼主  发表于: 02-13
— 本帖被 mjghosts 执行加亮操作(2017-02-13) —
*92年纪念危险巡演发行的一套画盘单曲,日本版,里面大部分歌曲都是最原始的版本,共5CD。完美抓轨! lL)f-8DX  
,1sbY!&ekL  
注:独家整理,转载请注明出处!EAC无损整轨(压缩包内含CD图片) ^ Ps!  
[c,V=:Cq  
解压密码:www.mjsunny.com
\CjJa(vV  
z!g$#hmL>  
Tracklist: <=.6Z*x+  
1.1 Off The Wall 4:08 2I B{FO/  
1.2 She's Out Of My Life 3:39 ;Nn(  
1.3 Don't Stop 'til You Get Enough 6:08 M/o?D <'  
1.4 Rock With You (Masters At Work Remix) 5:31 DT]4C!dh  
%0Ur3  
2.1 Thriller 6:01 D6VdgU|  
2.2 Beat It 4:20 rUKg<]&@  
2.3 Billie Jean 5:00 (.#nl}fA  
2.4 Beat It (Moby's Sub Mix) 6:13 }c8nn  
%"{P?V<-V  
3.1 Bad 4:09 7hk<{gnr  
3.2 Man In The Mirror 5:20 *}]#E$  
3.3 Smooth Criminal 4:19 /si<Fp)z  
3.4 Smooth Criminal ("Annie" Mix) 5:38 zQ+Mu^|u+  
y,:WLk~  
4.1 Dangerous 7:00 xgxfPcI  
4.2 Who Is It 4:12 T U6s~  
4.3 Black Or White 3:23 1 *' /B  
4.4 Black Or White (The Clivilles & Cole Radio Mix) 3:36 uzH MQp  
e:HORc~U  
5.1 Come Together 5:28
tU?BR<q  
__b4dv  
zg ,=A?  
HrE,K\^  
Z7bJ<TpZ  
t*= nI $  
Exact Audio Copy V1.0 beta 6 from 9. April 2015 ueJ^Q,-t  
{F wvuk  
EAC 抓取日志文件从8. 二月 2017, 15:37 _FOIMjh%N  
I=dn]}b#P  
Michael Jackson / Tour Souvenir CD Single m!KEK\5M?  
6fw7\u  
使用驱动器  :MATSHITADVD-RAM UJ890AS   Adapter: 1  ID: 1 6~sU[thGW  
Lxv;[2XsW)  
读取模式      : 可靠Secure f/c&Ya(D~  
使用精确流     : 是 y0Gblza  
清空音频缓存    : 否 >d`GNE  
使用 C2 指示器 : 是 ;%d<Uk?  
sN8pwRjb  
读取偏移校正:               : 102 U2?R&c;b  
读取 Lead-In 和 Lead-Out : 否 kJl^,q  
用静音填充抓取中丢失偏移的采样       : 是 ;_SSR8uHv  
去除首尾静音块               : 否 B-_b.4ND)  
在CRC 计算中使用了空样本       : 是 9#7W+9  
已用接口                  : Win NT 及 2000 本地 Win32 接口 NA2={RB;  
`B"sy8}x  
所用输出模式: : 内部 WAV 函数 8#JX#<HEo  
样本格式    : 44.100 Hz; 16 Bit; 立体声 [m{sl(Q  
ssLswb  
]i(/T$?~  
已抓取 CD 的 TOC R 39_!  
[5~mP`He  
     音轨 |    起始    |    长度    |  起始扇区  |  结束扇区   ^D+^~>f  
    -------------------------------------------- BZ:tVfg.  
      1 |  0:00.00 |  4:08.15 |      0 |  18614 M\4` S&  
      2 |  4:08.15 |  3:39.05 |  18615 |  35044 ~x8nC%qPvq  
      3 |  7:47.20 |  6:07.72 |  35045 |  62641 o5a=>|?p>  
      4 | 13:55.17 |  5:31.63 |  62642 |  87529 1X5g(B  
A811VL^  
`5@F'tKQ  
范围状态及错误 Zw9;g+9  
qMJJBl  
已选择范围 _aPAn|.  
2g{tzR_j  
     文件名 J:\12 Music*音乐\【Single】Tour Souvenir CD Single (5 Disc) (JP - ESCA 5703~7)\CD1\CDImage.wav *7Q6b 4~"  
geR+v+B,  
     峰值电平 100.0 % vt#;j;liG  
     抓取速度 5.0 X =D/zC'l  
     范围质量 100.0 % KR aL+A  
     复制 CRC 13C1E41F SL4?E<Jb  
     复制成功 '{d@Gc6.  
_B^zm-}8|B  
没有错误发生 OT{"C"%5t  
4KH492Nq9  
iQ/~?'PB  
AccurateRip 摘要 5}#wp4U  
cl~Yx 4  
音轨  1  精确地校准抓取  2)  [DDD0E1F3]  (AR v2) jo`ZuN{  
音轨  2  精确地校准抓取  2)  [FF626E33]  (AR v2) @?3f`l 9  
音轨  3  精确地校准抓取  2)  [2590B0DA]  (AR v2) ywa*?3?c  
音轨  4  精确地校准抓取  2)  [72E73529]  (AR v2) YT\@fgBt  
Ww7Ya]b.k  
所有音轨精确校准抓取 %**f`L%jN  
V0nQmsP1U  
状态报告结尾
d#ir=+o{h  
TQa}Ps  
链接:http://pan.baidu.com/s/1i5mfotn 密码: >Fel) a  
此帖售价 32 金钱,已有 21 人购买 [记录] [购买]
购买后,将显示帖子中所有出售内容。
若发现会员采用欺骗的方法获取财富,请立刻举报,我们会对会员处以2-N倍的罚金,严重者封掉ID!
此段为出售的内容,购买后显示
离线耶稣

发帖
7087
金钱
254785
威望
2445
贡献值
1619
交易币
11054
只看该作者 1楼 发表于: 02-13
谢谢分享




离线mjnet

发帖
375
金钱
30607
威望
104
贡献值
54
交易币
552
只看该作者 2楼 发表于: 02-13
當年這張盤罕見的原因是Disc5. ^BF}wQb :j  
日盤5 discsㄝ歐盤只有4 discs ^ 9+ Qxv  
Come together 在1992 時只在Moonwalker 出現過.. \9[vi +T  
這也是為何日盤CD迷人之處.. VgbNZ{qk@  
1995 History才再次將它收進.. ]+:yfDtZd  
离线mjghosts

发帖
8232
金钱
213145
威望
9167
贡献值
2716
交易币
4715
只看该作者 3楼 发表于: 02-13
回 mjnet 的帖子
mjnet:當年這張盤罕見的原因是Disc5. j@Us7Q)A(  
日盤5 discsㄝ歐盤只有4 discs a(o[ bH.|;  
Come together 在1992 時只在Moonwalker 出現過.. If9!S} wa  
這也是為何日盤CD迷人之處.. /|e"0;{  
1995 History才再次將它收進.. Q!%CU8!`&  
....... (2017-02-13 20:08)  S4~;bsSx  
VA'<  
是的 &9] [ ~$  
不过92年欧洲发行的REMEMBER THE TIME单曲中也有收录COME TOGETHER J=]w$e ?.P  
日本就仅在这个套装里发行了
离线wannam

发帖
2699
金钱
86933
威望
382
贡献值
189
交易币
3342
只看该作者 4楼 发表于: 02-14
谢谢分享!
离线131

发帖
1190
金钱
8978
威望
430
贡献值
239
交易币
821
只看该作者 5楼 发表于: 02-14
希望补全啊 演唱会音频还是不错的
离线mjghosts

发帖
8232
金钱
213145
威望
9167
贡献值
2716
交易币
4715
只看该作者 6楼 发表于: 02-14
回 131 的帖子
131:希望补全啊 演唱会音频还是不错的 (2017-02-14 01:03)  33<fN:J]f  
VqClM  
这个并不是演唱会音频

发帖
545
金钱
9068
威望
50
贡献值
43
交易币
718
只看该作者 7楼 发表于: 02-14
谢谢分享。
离线mjlove98

发帖
2172
金钱
1894
威望
205
贡献值
119
交易币
2234
只看该作者 8楼 发表于: 02-14
谢谢分享
离线小杰克逊

发帖
1590
金钱
5662
威望
883
贡献值
994
交易币
700
只看该作者 9楼 发表于: 02-15
谢谢幽灵兄
http://gcb918.taobao.com/
快速回复
限100 字节
 
上一个 下一个