论坛风格切换切换到宽版
  • 2108阅读
  • 27回复

[亲传][Single] 1992 Tour Souvenir CD Single (5 Disc) (JP - ESCA 5703~7) - WAV整轨 ♬by幽灵 [复制链接]

上一主题 下一主题
离线mjghosts
 

发帖
8261
金钱
219535
威望
9187
贡献值
2734
交易币
4796
只看楼主 倒序阅读 楼主  发表于: 2017-02-13
— 本帖被 mjghosts 执行加亮操作(2017-02-13) —
*92年纪念危险巡演发行的一套画盘单曲,日本版,里面大部分歌曲都是最原始的版本,共5CD。完美抓轨! S~G ]~gt  
xxQ;xI0+]  
注:独家整理,转载请注明出处!EAC无损整轨(压缩包内含CD图片) &_8 947  
{Qj~M<@3  
解压密码:www.mjsunny.com
H3oFORh  
NDokSw-  
Tracklist: Q\0'lQJdy  
1.1 Off The Wall 4:08 hOK8(U0  
1.2 She's Out Of My Life 3:39 [()koU#w.  
1.3 Don't Stop 'til You Get Enough 6:08 1Ai^cf:S  
1.4 Rock With You (Masters At Work Remix) 5:31 >/6 _ ^  
_,*r_D61S  
2.1 Thriller 6:01 G^@5H/)  
2.2 Beat It 4:20 a$fnh3j[  
2.3 Billie Jean 5:00 0PCGDLk8  
2.4 Beat It (Moby's Sub Mix) 6:13 :rP=t ,  
$<OD31T  
3.1 Bad 4:09 ^=*;X;7  
3.2 Man In The Mirror 5:20 lk=<A"^S  
3.3 Smooth Criminal 4:19 -I%5$`z  
3.4 Smooth Criminal ("Annie" Mix) 5:38  _','9|  
4I(Xy]wm  
4.1 Dangerous 7:00 |V7*l1  
4.2 Who Is It 4:12 DIUjn;>k8  
4.3 Black Or White 3:23 @KUWxFak  
4.4 Black Or White (The Clivilles & Cole Radio Mix) 3:36 /wlEe>i  
a09<!0Rp  
5.1 Come Together 5:28
XB5DPx  
q" 5(H5  
_Bj":rzY  
pmYHUj #  
3irl (;v  
g#E-pdY  
Exact Audio Copy V1.0 beta 6 from 9. April 2015 Z<{QaY$"  
11;zNjD|  
EAC 抓取日志文件从8. 二月 2017, 15:37 +x}<IS8  
vY`s'%WV  
Michael Jackson / Tour Souvenir CD Single ]')RMg zM*  
KJZ4AWH`  
使用驱动器  :MATSHITADVD-RAM UJ890AS   Adapter: 1  ID: 1 ;i+#fQO7Q  
8, >P  
读取模式      : 可靠Secure y4fdq7i~}9  
使用精确流     : 是 Jxm.cC5z.  
清空音频缓存    : 否 ~61v5@  
使用 C2 指示器 : 是 uM6+?A9@l  
jo@J}`\Zt  
读取偏移校正:               : 102 8)I^ t81  
读取 Lead-In 和 Lead-Out : 否 o{[YA} xc  
用静音填充抓取中丢失偏移的采样       : 是 wj0\$NQ=x  
去除首尾静音块               : 否 cExS7~*  
在CRC 计算中使用了空样本       : 是 U4B( #2'  
已用接口                  : Win NT 及 2000 本地 Win32 接口 +srGN5!  
}`~+]9 <   
所用输出模式: : 内部 WAV 函数 %bfQ$a:  
样本格式    : 44.100 Hz; 16 Bit; 立体声 w+CA1q<  
:20W\P<O!A  
0:Ol7  
已抓取 CD 的 TOC 0KOgw*>_  
<GaS36ZW  
     音轨 |    起始    |    长度    |  起始扇区  |  结束扇区   >I&5j/&}+  
    -------------------------------------------- '(|ofJe!  
      1 |  0:00.00 |  4:08.15 |      0 |  18614 Hja3a{LH  
      2 |  4:08.15 |  3:39.05 |  18615 |  35044 kL"2=7m;  
      3 |  7:47.20 |  6:07.72 |  35045 |  62641 @r/n F5  
      4 | 13:55.17 |  5:31.63 |  62642 |  87529 F@B]et7  
+ @s"zp;F  
5taT5?n2  
范围状态及错误 L>4"(  
ZeaA%y67U  
已选择范围 E92KP?i  
#fn)k1  
     文件名 J:\12 Music*音乐\【Single】Tour Souvenir CD Single (5 Disc) (JP - ESCA 5703~7)\CD1\CDImage.wav R)s:rJQ=p  
)W _v:?A9  
     峰值电平 100.0 % w-L=LWL\  
     抓取速度 5.0 X EDl!w:  
     范围质量 100.0 % !9VY|&fHe  
     复制 CRC 13C1E41F m'=Crei  
     复制成功 nBSYsp{  
u.m[u)HQ  
没有错误发生 ?ri?GmI|  
w4{<n /"  
5 ,B_u%bb  
AccurateRip 摘要 '"/=f\)u  
dhf!o0'1M  
音轨  1  精确地校准抓取  2)  [DDD0E1F3]  (AR v2) S3*`jF>q  
音轨  2  精确地校准抓取  2)  [FF626E33]  (AR v2) e>7>j@(K]  
音轨  3  精确地校准抓取  2)  [2590B0DA]  (AR v2) b)5uf'?-  
音轨  4  精确地校准抓取  2)  [72E73529]  (AR v2) DIfaVo/"  
:W.(S6O(  
所有音轨精确校准抓取 Ls$D$/:q?  
}mYx_=+VX  
状态报告结尾
M l{Z  
2Aazy'/  
链接:http://pan.baidu.com/s/1i5mfotn 密码: r?lf($ D*  
此帖售价 32 金钱,已有 23 人购买 [记录] [购买]
购买后,将显示帖子中所有出售内容。
若发现会员采用欺骗的方法获取财富,请立刻举报,我们会对会员处以2-N倍的罚金,严重者封掉ID!
此段为出售的内容,购买后显示
离线耶稣

发帖
7210
金钱
278339
威望
2544
贡献值
1685
交易币
11369
只看该作者 1楼 发表于: 2017-02-13
谢谢分享



离线mjnet

发帖
381
金钱
30546
威望
104
贡献值
54
交易币
558
只看该作者 2楼 发表于: 2017-02-13
當年這張盤罕見的原因是Disc5. 3\,4 ]l|  
日盤5 discsㄝ歐盤只有4 discs |-ALklXr  
Come together 在1992 時只在Moonwalker 出現過.. Rp7mh]kZ  
這也是為何日盤CD迷人之處.. IPpN@  
1995 History才再次將它收進.. wHLLu~m\  
离线mjghosts

发帖
8261
金钱
219535
威望
9187
贡献值
2734
交易币
4796
只看该作者 3楼 发表于: 2017-02-13
回 mjnet 的帖子
mjnet:當年這張盤罕見的原因是Disc5. ? J0y|  
日盤5 discsㄝ歐盤只有4 discs _[BP 0\dPW  
Come together 在1992 時只在Moonwalker 出現過.. ~n_HP_Kf?  
這也是為何日盤CD迷人之處.. At;LO9T3z  
1995 History才再次將它收進.. OyIw>Wfv  
....... (2017-02-13 20:08)  $??I/6  
4xj4=C~i  
是的 UiNP3TJ'L  
不过92年欧洲发行的REMEMBER THE TIME单曲中也有收录COME TOGETHER er\|i. Y  
日本就仅在这个套装里发行了
离线wannam

发帖
2703
金钱
87081
威望
382
贡献值
189
交易币
3346
只看该作者 4楼 发表于: 2017-02-14
谢谢分享!
离线131

发帖
1221
金钱
8979
威望
430
贡献值
239
交易币
852
只看该作者 5楼 发表于: 2017-02-14
希望补全啊 演唱会音频还是不错的
离线mjghosts

发帖
8261
金钱
219535
威望
9187
贡献值
2734
交易币
4796
只看该作者 6楼 发表于: 2017-02-14
回 131 的帖子
131:希望补全啊 演唱会音频还是不错的 (2017-02-14 01:03)  M?qy(zb  
:-'qC8C  
这个并不是演唱会音频

发帖
582
金钱
8930
威望
51
贡献值
44
交易币
759
只看该作者 7楼 发表于: 2017-02-14
谢谢分享。
离线mjlove98

发帖
2591
金钱
4047
威望
197
贡献值
123
交易币
2669
只看该作者 8楼 发表于: 2017-02-14
谢谢分享
离线小杰克逊

发帖
1597
金钱
5567
威望
883
贡献值
994
交易币
707
只看该作者 9楼 发表于: 2017-02-15
谢谢幽灵兄
http://gcb918.taobao.com/
快速回复
限100 字节
 
上一个 下一个