论坛风格切换切换到宽版
  • 1670阅读
  • 27回复

[亲传][Single] 1992 Tour Souvenir CD Single (5 Disc) (JP - ESCA 5703~7) - WAV整轨 ♬by幽灵 [复制链接]

上一主题 下一主题
离线mjghosts
 

发帖
8255
金钱
219304
威望
9187
贡献值
2734
交易币
4790
只看楼主 倒序阅读 楼主  发表于: 2017-02-13
— 本帖被 mjghosts 执行加亮操作(2017-02-13) —
*92年纪念危险巡演发行的一套画盘单曲,日本版,里面大部分歌曲都是最原始的版本,共5CD。完美抓轨! le.(KgRS4  
n=tg{_9f%  
注:独家整理,转载请注明出处!EAC无损整轨(压缩包内含CD图片) ,.PW qfb  
qw mZOR#  
解压密码:www.mjsunny.com
F G5e{  
^d[ s*,i?  
Tracklist: ;.wWw" )  
1.1 Off The Wall 4:08 #w<:H1,4  
1.2 She's Out Of My Life 3:39 Mk"V%)1k  
1.3 Don't Stop 'til You Get Enough 6:08 #7~i.8L  
1.4 Rock With You (Masters At Work Remix) 5:31 =5yI>A0  
BHW8zY=F  
2.1 Thriller 6:01 "jyh.@<  
2.2 Beat It 4:20 m+J3t @$  
2.3 Billie Jean 5:00 !a[1rQH  
2.4 Beat It (Moby's Sub Mix) 6:13 \HzI*|*A  
wM;9plYlw0  
3.1 Bad 4:09 .cQ<F4)!tu  
3.2 Man In The Mirror 5:20 <Cvlz^K[  
3.3 Smooth Criminal 4:19 J/j?;qx]j  
3.4 Smooth Criminal ("Annie" Mix) 5:38 *:q3<\y{  
%r0yBK2uOp  
4.1 Dangerous 7:00 @LS*WJ< w-  
4.2 Who Is It 4:12 O;9'0-F ?  
4.3 Black Or White 3:23 Y. ]FVq  
4.4 Black Or White (The Clivilles & Cole Radio Mix) 3:36 +-=w`  
r=<Oy1m/  
5.1 Come Together 5:28
8F(lW)An  
ty|E[Ez1  
\`\& G-\  
<=A1d\   
~ztsR;iL  
x2 *l5t  
Exact Audio Copy V1.0 beta 6 from 9. April 2015 iB;EV8E  
U}ei2q\  
EAC 抓取日志文件从8. 二月 2017, 15:37 fvn`$  
v#1}( hb  
Michael Jackson / Tour Souvenir CD Single b(JQ>,hX  
u;f${Wn'3  
使用驱动器  :MATSHITADVD-RAM UJ890AS   Adapter: 1  ID: 1 -FRMal4Pg0  
8aDh HXI  
读取模式      : 可靠Secure ] TY$  
使用精确流     : 是 0c6b_%Rd  
清空音频缓存    : 否 =-wF Brw  
使用 C2 指示器 : 是 T<:mG%Is  
SI_u0j4%*  
读取偏移校正:               : 102 UAleGR`,  
读取 Lead-In 和 Lead-Out : 否 C_CUk d[  
用静音填充抓取中丢失偏移的采样       : 是 {`RCh]W  
去除首尾静音块               : 否 'PO+P~|oa&  
在CRC 计算中使用了空样本       : 是 b}&2j3-n,  
已用接口                  : Win NT 及 2000 本地 Win32 接口 <!qN<#$y  
JWB3;,S  
所用输出模式: : 内部 WAV 函数 %Z.!T  
样本格式    : 44.100 Hz; 16 Bit; 立体声 F7!q18ew  
xZ=6  
w?JRY  
已抓取 CD 的 TOC rl__3q  
)@\Eibt2oH  
     音轨 |    起始    |    长度    |  起始扇区  |  结束扇区   6s<w} O  
    -------------------------------------------- &sA@!  
      1 |  0:00.00 |  4:08.15 |      0 |  18614 h*lU&8)m\  
      2 |  4:08.15 |  3:39.05 |  18615 |  35044 :k&5Z`>)  
      3 |  7:47.20 |  6:07.72 |  35045 |  62641 #Zq[.9!q{  
      4 | 13:55.17 |  5:31.63 |  62642 |  87529 +cf.In,{  
,\CG}-v@CN  
/9k}Ip  
范围状态及错误 W^T6^q5;H  
Z.{r%W{2  
已选择范围 Y)KO*40c  
M].D27  
     文件名 J:\12 Music*音乐\【Single】Tour Souvenir CD Single (5 Disc) (JP - ESCA 5703~7)\CD1\CDImage.wav 8pE0ANbq  
38HnW  
     峰值电平 100.0 % Ag@R60#  
     抓取速度 5.0 X AOVoOd+6  
     范围质量 100.0 % Q"QL#<N  
     复制 CRC 13C1E41F K" U!SWv  
     复制成功  U<Z\jT[  
f8X/kz  
没有错误发生 DJ#z0)3<p  
Z" !+p{u  
mp x/~`c  
AccurateRip 摘要 }M I9?\"q  
# Y*cLN`Y7  
音轨  1  精确地校准抓取  2)  [DDD0E1F3]  (AR v2) {=NHidi~  
音轨  2  精确地校准抓取  2)  [FF626E33]  (AR v2) N!e?K=}tL  
音轨  3  精确地校准抓取  2)  [2590B0DA]  (AR v2) AwKxt'()^  
音轨  4  精确地校准抓取  2)  [72E73529]  (AR v2) s)e; c<(/  
Rp2~d  
所有音轨精确校准抓取 m_TZY_;  
%rQ5 <U  
状态报告结尾
qO<'_7TN[  
EX[X|"r   
链接:http://pan.baidu.com/s/1i5mfotn 密码: `F>1xMm  
此帖售价 32 金钱,已有 23 人购买 [记录] [购买]
购买后,将显示帖子中所有出售内容。
若发现会员采用欺骗的方法获取财富,请立刻举报,我们会对会员处以2-N倍的罚金,严重者封掉ID!
此段为出售的内容,购买后显示
离线耶稣

发帖
7191
金钱
276348
威望
2517
贡献值
1670
交易币
11322
只看该作者 1楼 发表于: 2017-02-13
谢谢分享



离线mjnet

发帖
381
金钱
30548
威望
104
贡献值
54
交易币
558
只看该作者 2楼 发表于: 2017-02-13
當年這張盤罕見的原因是Disc5. W!V06.  
日盤5 discsㄝ歐盤只有4 discs rJ KX4,M  
Come together 在1992 時只在Moonwalker 出現過.. axonqSf  
這也是為何日盤CD迷人之處..  H[fD >  
1995 History才再次將它收進.. R qOEQ*k  
离线mjghosts

发帖
8255
金钱
219304
威望
9187
贡献值
2734
交易币
4790
只看该作者 3楼 发表于: 2017-02-13
回 mjnet 的帖子
mjnet:當年這張盤罕見的原因是Disc5. = >CADTU  
日盤5 discsㄝ歐盤只有4 discs ndg1E;>  
Come together 在1992 時只在Moonwalker 出現過.. diHK  
這也是為何日盤CD迷人之處.. 2tD{c^ 9<  
1995 History才再次將它收進.. ]Q0m]OaT  
....... (2017-02-13 20:08)  ,+2!&"zD  
Y*VF1M,2_  
是的 ) XCG4-1  
不过92年欧洲发行的REMEMBER THE TIME单曲中也有收录COME TOGETHER w'[JfMuP  
日本就仅在这个套装里发行了
离线wannam

发帖
2703
金钱
87033
威望
382
贡献值
189
交易币
3346
只看该作者 4楼 发表于: 2017-02-14
谢谢分享!
离线131

发帖
1216
金钱
8962
威望
430
贡献值
239
交易币
847
只看该作者 5楼 发表于: 2017-02-14
希望补全啊 演唱会音频还是不错的
离线mjghosts

发帖
8255
金钱
219304
威望
9187
贡献值
2734
交易币
4790
只看该作者 6楼 发表于: 2017-02-14
回 131 的帖子
131:希望补全啊 演唱会音频还是不错的 (2017-02-14 01:03)  s$lJJL  
.$Yp~  
这个并不是演唱会音频

发帖
561
金钱
9463
威望
51
贡献值
44
交易币
738
只看该作者 7楼 发表于: 2017-02-14
谢谢分享。
离线mjlove98

发帖
2583
金钱
4087
威望
197
贡献值
123
交易币
2661
只看该作者 8楼 发表于: 2017-02-14
谢谢分享
离线小杰克逊

发帖
1594
金钱
5579
威望
883
贡献值
994
交易币
704
只看该作者 9楼 发表于: 2017-02-15
谢谢幽灵兄
http://gcb918.taobao.com/
快速回复
限100 字节
 
上一个 下一个