论坛风格切换切换到宽版
  • 1885阅读
  • 27回复

[亲传][Single] 1992 Tour Souvenir CD Single (5 Disc) (JP - ESCA 5703~7) - WAV整轨 ♬by幽灵 [复制链接]

上一主题 下一主题
离线mjghosts
 

发帖
8257
金钱
219480
威望
9187
贡献值
2734
交易币
4792
只看楼主 倒序阅读 楼主  发表于: 2017-02-13
— 本帖被 mjghosts 执行加亮操作(2017-02-13) —
*92年纪念危险巡演发行的一套画盘单曲,日本版,里面大部分歌曲都是最原始的版本,共5CD。完美抓轨! 6-TYOUm  
V&vG.HAT  
注:独家整理,转载请注明出处!EAC无损整轨(压缩包内含CD图片) Q#Zazvk  
]y=U"g  
解压密码:www.mjsunny.com
0Ui_Trlc  
]w _&%mB  
Tracklist: |9]-_a  
1.1 Off The Wall 4:08 1+N'cB!y  
1.2 She's Out Of My Life 3:39 {nUmlP=mS  
1.3 Don't Stop 'til You Get Enough 6:08 C=q&S6/+  
1.4 Rock With You (Masters At Work Remix) 5:31 bO/r1W  
)z@ +|A  
2.1 Thriller 6:01 [qRww]g;P|  
2.2 Beat It 4:20 Sq_.RU  
2.3 Billie Jean 5:00 <5pNFj}0;X  
2.4 Beat It (Moby's Sub Mix) 6:13 9D=X3{be#  
w/( T  
3.1 Bad 4:09 fcF|m5  
3.2 Man In The Mirror 5:20 iZdl0;16[  
3.3 Smooth Criminal 4:19 Qfy_@w]  
3.4 Smooth Criminal ("Annie" Mix) 5:38 |&Mo Qxw@  
3T]cDVQ_  
4.1 Dangerous 7:00 jmv=rl>E*  
4.2 Who Is It 4:12 6-"tQ,AZ  
4.3 Black Or White 3:23 fmv:vs /9  
4.4 Black Or White (The Clivilles & Cole Radio Mix) 3:36 $=E4pb4Y  
['\R4H!x  
5.1 Come Together 5:28
6o6yx:  
JP\jhkn  
B!quj!A  
wo(O+L/w  
H*<E5^#dw  
x@oxIXN  
Exact Audio Copy V1.0 beta 6 from 9. April 2015 6 A]a@,PC  
K-Pcew^?  
EAC 抓取日志文件从8. 二月 2017, 15:37 8o,0='U  
zp f<!x^  
Michael Jackson / Tour Souvenir CD Single n?OMfx  
o M@%2M_O(  
使用驱动器  :MATSHITADVD-RAM UJ890AS   Adapter: 1  ID: 1 kl1Q:  
}8"i~>>a  
读取模式      : 可靠Secure NzhWGr_x'  
使用精确流     : 是 w-km qh  
清空音频缓存    : 否 DTi^* Wj  
使用 C2 指示器 : 是 .pl,ujv  
!]mo.zDSW5  
读取偏移校正:               : 102 cyjgi /Z  
读取 Lead-In 和 Lead-Out : 否 K'"s9b8  
用静音填充抓取中丢失偏移的采样       : 是 6oq^n s-  
去除首尾静音块               : 否 oz3!%'  
在CRC 计算中使用了空样本       : 是 %%wngiz\  
已用接口                  : Win NT 及 2000 本地 Win32 接口 Y<@_d  
.OW5R*  
所用输出模式: : 内部 WAV 函数 Skux&'N:  
样本格式    : 44.100 Hz; 16 Bit; 立体声 EW)r/Av:,  
P=9sP:[f6  
$'a]lR  
已抓取 CD 的 TOC [R~@#I P!  
"(+aWvb  
     音轨 |    起始    |    长度    |  起始扇区  |  结束扇区   ,zBc-Cm  
    -------------------------------------------- % <%r  
      1 |  0:00.00 |  4:08.15 |      0 |  18614 H[r64~Sth  
      2 |  4:08.15 |  3:39.05 |  18615 |  35044 Lg6>\Z4  
      3 |  7:47.20 |  6:07.72 |  35045 |  62641 23zR0z(L  
      4 | 13:55.17 |  5:31.63 |  62642 |  87529 }-WuHh#  
/Dk`?  
j0e1CSE  
范围状态及错误 8GT{vW9  
?eR^\-e  
已选择范围 Y{m1\s/o  
/vFdhh  
     文件名 J:\12 Music*音乐\【Single】Tour Souvenir CD Single (5 Disc) (JP - ESCA 5703~7)\CD1\CDImage.wav %|?PG i@5  
]3yaIlpD1  
     峰值电平 100.0 % N6S}u@{J~N  
     抓取速度 5.0 X U_Va'7  
     范围质量 100.0 % r;&rc:?A  
     复制 CRC 13C1E41F yi3Cd@t({{  
     复制成功 w#`E;fN'  
c27A)`   
没有错误发生 WMd5Y`y  
&8uq5uKg  
D>Dch0{H,:  
AccurateRip 摘要 P mgTTI  
8yV?l7  
音轨  1  精确地校准抓取  2)  [DDD0E1F3]  (AR v2) p$ %D  
音轨  2  精确地校准抓取  2)  [FF626E33]  (AR v2) >|22%YVX  
音轨  3  精确地校准抓取  2)  [2590B0DA]  (AR v2) m.A_u7D@  
音轨  4  精确地校准抓取  2)  [72E73529]  (AR v2) 0R%R2p'wG  
h{&}p-X&[  
所有音轨精确校准抓取 OZ6g u$ n*  
pO.+hy  
状态报告结尾
~;A36M-[.  
,dM}B-  
链接:http://pan.baidu.com/s/1i5mfotn 密码: ;LM,<QJ  
此帖售价 32 金钱,已有 23 人购买 [记录] [购买]
购买后,将显示帖子中所有出售内容。
若发现会员采用欺骗的方法获取财富,请立刻举报,我们会对会员处以2-N倍的罚金,严重者封掉ID!
此段为出售的内容,购买后显示
离线耶稣

发帖
7195
金钱
277108
威望
2520
贡献值
1671
交易币
11330
只看该作者 1楼 发表于: 2017-02-13
谢谢分享



离线mjnet

发帖
381
金钱
30546
威望
104
贡献值
54
交易币
558
只看该作者 2楼 发表于: 2017-02-13
當年這張盤罕見的原因是Disc5. S;"7d  
日盤5 discsㄝ歐盤只有4 discs wNuS'P_(:T  
Come together 在1992 時只在Moonwalker 出現過.. _BcYS  
這也是為何日盤CD迷人之處.. }{^i*T5rl  
1995 History才再次將它收進.. =s P6  
离线mjghosts

发帖
8257
金钱
219480
威望
9187
贡献值
2734
交易币
4792
只看该作者 3楼 发表于: 2017-02-13
回 mjnet 的帖子
mjnet:當年這張盤罕見的原因是Disc5. /S\P=lcb  
日盤5 discsㄝ歐盤只有4 discs J03yFT,dF  
Come together 在1992 時只在Moonwalker 出現過.. q*?LXKi  
這也是為何日盤CD迷人之處.. 5Ee%!Pk  
1995 History才再次將它收進.. ZnI_<iFR*  
....... (2017-02-13 20:08)  vv"_u=H  
~*- eL.  
是的 a~9U{)@F  
不过92年欧洲发行的REMEMBER THE TIME单曲中也有收录COME TOGETHER bQr H8)  
日本就仅在这个套装里发行了
离线wannam

发帖
2703
金钱
87075
威望
382
贡献值
189
交易币
3346
只看该作者 4楼 发表于: 2017-02-14
谢谢分享!
离线131

发帖
1217
金钱
8965
威望
430
贡献值
239
交易币
848
只看该作者 5楼 发表于: 2017-02-14
希望补全啊 演唱会音频还是不错的
离线mjghosts

发帖
8257
金钱
219480
威望
9187
贡献值
2734
交易币
4792
只看该作者 6楼 发表于: 2017-02-14
回 131 的帖子
131:希望补全啊 演唱会音频还是不错的 (2017-02-14 01:03)  -B :Z(]3#\  
 v'i"Q  
这个并不是演唱会音频

发帖
570
金钱
9059
威望
51
贡献值
44
交易币
747
只看该作者 7楼 发表于: 2017-02-14
谢谢分享。
离线mjlove98

发帖
2585
金钱
4080
威望
197
贡献值
123
交易币
2663
只看该作者 8楼 发表于: 2017-02-14
谢谢分享
离线小杰克逊

发帖
1595
金钱
5582
威望
883
贡献值
994
交易币
705
只看该作者 9楼 发表于: 2017-02-15
谢谢幽灵兄
http://gcb918.taobao.com/
快速回复
限100 字节
 
上一个 下一个