论坛风格切换切换到宽版
  • 942阅读
  • 24回复

[亲传][Single] 1992 Tour Souvenir CD Single (5 Disc) (JP - ESCA 5703~7) - WAV整轨 ♬by幽灵 [复制链接]

上一主题 下一主题
离线mjghosts
 

发帖
8256
金钱
212030
威望
9166
贡献值
2715
交易币
4707
只看楼主 倒序阅读 楼主  发表于: 02-13
— 本帖被 mjghosts 执行加亮操作(2017-02-13) —
*92年纪念危险巡演发行的一套画盘单曲,日本版,里面大部分歌曲都是最原始的版本,共5CD。完美抓轨! "/S-+Ufn  
#B88w9 b`D  
注:独家整理,转载请注明出处!EAC无损整轨(压缩包内含CD图片) ?.LS _e_0  
YiTiJ9jf  
解压密码:www.mjsunny.com
J2f}{!b+I  
D{x'k2=  
Tracklist: b(Zh$86  
1.1 Off The Wall 4:08 3+%a  
1.2 She's Out Of My Life 3:39 i882r=TE3  
1.3 Don't Stop 'til You Get Enough 6:08 xAbx.\  
1.4 Rock With You (Masters At Work Remix) 5:31 [3lAKI  
o-a\T  
2.1 Thriller 6:01 UR?biq  
2.2 Beat It 4:20 pse$S=  
2.3 Billie Jean 5:00 O/Cwm;&t  
2.4 Beat It (Moby's Sub Mix) 6:13 iOY: a  
V3D`pt\[x  
3.1 Bad 4:09 MTXh-9DA  
3.2 Man In The Mirror 5:20 Lmsc ~~  
3.3 Smooth Criminal 4:19 "`Q &s  
3.4 Smooth Criminal ("Annie" Mix) 5:38 ;P *`v  
-.xiq0  
4.1 Dangerous 7:00 w.VjGPp  
4.2 Who Is It 4:12 V82HO{ D  
4.3 Black Or White 3:23 x52#md-Z  
4.4 Black Or White (The Clivilles & Cole Radio Mix) 3:36 ^'\JI  
| |"W=E  
5.1 Come Together 5:28
]sTbEw.[  
'B:8tv  
6l'J!4*qY  
nz|6CP  
e%s1D  
en>n\;U  
Exact Audio Copy V1.0 beta 6 from 9. April 2015 E.%V 0}  
qt(4?_J  
EAC 抓取日志文件从8. 二月 2017, 15:37 Qs '_\|/-  
wPEK5=\4Ob  
Michael Jackson / Tour Souvenir CD Single Nw9@E R  
zMRa <G7  
使用驱动器  :MATSHITADVD-RAM UJ890AS   Adapter: 1  ID: 1 vf zC2  
EnGh&]  
读取模式      : 可靠Secure tA^+RO4  
使用精确流     : 是 /O<~n%< G  
清空音频缓存    : 否 T ay226  
使用 C2 指示器 : 是 3$xpZm60  
sBYDo{0 1  
读取偏移校正:               : 102 q_6lD~~q^  
读取 Lead-In 和 Lead-Out : 否 SHs [te[  
用静音填充抓取中丢失偏移的采样       : 是 I{0cnq/  
去除首尾静音块               : 否  ZB |s/  
在CRC 计算中使用了空样本       : 是 l?$X.Cw X  
已用接口                  : Win NT 及 2000 本地 Win32 接口 x${C[gxq9F  
R<_VWPlj  
所用输出模式: : 内部 WAV 函数 4W|cIcU W  
样本格式    : 44.100 Hz; 16 Bit; 立体声 {ZSAPq4)L  
c~/poFj  
]hy@5Jyh  
已抓取 CD 的 TOC [qV/&t|O*h  
J"< h#@`  
     音轨 |    起始    |    长度    |  起始扇区  |  结束扇区   5#x[rr{^*  
    -------------------------------------------- \!jz1`]&{  
      1 |  0:00.00 |  4:08.15 |      0 |  18614 1c @S[y  
      2 |  4:08.15 |  3:39.05 |  18615 |  35044 BMQ4i&kF|  
      3 |  7:47.20 |  6:07.72 |  35045 |  62641 ,SIGfd  
      4 | 13:55.17 |  5:31.63 |  62642 |  87529 ^8bc<c:P  
ltU{P|7!E  
a%a0/!U[  
范围状态及错误 ~.J*_0~Ze  
/E{tNd^S  
已选择范围 7rbw_m`12-  
MK! @ND  
     文件名 J:\12 Music*音乐\【Single】Tour Souvenir CD Single (5 Disc) (JP - ESCA 5703~7)\CD1\CDImage.wav C2zKt/)A  
b{ A/M#=  
     峰值电平 100.0 % /pU`-  
     抓取速度 5.0 X 0wSy[z4V  
     范围质量 100.0 % hMvJNI6O  
     复制 CRC 13C1E41F 7F]Hq  
     复制成功 c05-1  
pV\> ?  
没有错误发生 u#y)+A2&!  
y] O&w{m$  
{ ] 0T  
AccurateRip 摘要 FzCXA=m  
U,fPG/9  
音轨  1  精确地校准抓取  2)  [DDD0E1F3]  (AR v2) eOXu^M>:F  
音轨  2  精确地校准抓取  2)  [FF626E33]  (AR v2) 'IVC!uL,%  
音轨  3  精确地校准抓取  2)  [2590B0DA]  (AR v2) R*k;4*1u  
音轨  4  精确地校准抓取  2)  [72E73529]  (AR v2) `jhbKgR[  
n? =O@yq  
所有音轨精确校准抓取 rG[2.\&  
B7[#z{8'#  
状态报告结尾
M A%g-}  
ku>Bxau4>  
链接:http://pan.baidu.com/s/1i5mfotn 密码: c0X1})q$  
此帖售价 32 金钱,已有 20 人购买 [记录] [购买]
购买后,将显示帖子中所有出售内容。
若发现会员采用欺骗的方法获取财富,请立刻举报,我们会对会员处以2-N倍的罚金,严重者封掉ID!
此段为出售的内容,购买后显示
离线耶稣

发帖
6918
金钱
228897
威望
2362
贡献值
1570
交易币
10701
只看该作者 1楼 发表于: 02-13
谢谢分享


离线mjnet

发帖
370
金钱
30527
威望
104
贡献值
54
交易币
547
只看该作者 2楼 发表于: 02-13
當年這張盤罕見的原因是Disc5. Vb`m3  
日盤5 discsㄝ歐盤只有4 discs _[8BAm  
Come together 在1992 時只在Moonwalker 出現過.. TM8WaH   
這也是為何日盤CD迷人之處.. (#WE9~Sru  
1995 History才再次將它收進.. |RBgJkS;8  
离线mjghosts

发帖
8256
金钱
212030
威望
9166
贡献值
2715
交易币
4707
只看该作者 3楼 发表于: 02-13
回 mjnet 的帖子
mjnet:當年這張盤罕見的原因是Disc5. 6|*em4  
日盤5 discsㄝ歐盤只有4 discs nzI}w7>VU  
Come together 在1992 時只在Moonwalker 出現過.. ^M60#gJ  
這也是為何日盤CD迷人之處.. {bB;TO<b`  
1995 History才再次將它收進.. 48 DC  
....... (2017-02-13 20:08)  67zCil  
 p]z *  
是的 Y{~[N yE  
不过92年欧洲发行的REMEMBER THE TIME单曲中也有收录COME TOGETHER rap`[O|l=  
日本就仅在这个套装里发行了
离线wannam

发帖
2698
金钱
86889
威望
382
贡献值
189
交易币
3341
只看该作者 4楼 发表于: 02-14
谢谢分享!
离线131

发帖
1169
金钱
9085
威望
430
贡献值
239
交易币
800
只看该作者 5楼 发表于: 02-14
希望补全啊 演唱会音频还是不错的
离线mjghosts

发帖
8256
金钱
212030
威望
9166
贡献值
2715
交易币
4707
只看该作者 6楼 发表于: 02-14
回 131 的帖子
131:希望补全啊 演唱会音频还是不错的 (2017-02-14 01:03)  RB\0o,mw4  
k|O?qE1hP  
这个并不是演唱会音频

发帖
503
金钱
9194
威望
49
贡献值
42
交易币
672
只看该作者 7楼 发表于: 02-14
谢谢分享。
离线mjlove98

发帖
2089
金钱
1513
威望
214
贡献值
62
交易币
1866
只看该作者 8楼 发表于: 02-14
谢谢分享
离线小杰克逊

发帖
1588
金钱
5953
威望
883
贡献值
994
交易币
698
只看该作者 9楼 发表于: 02-15
谢谢幽灵兄
http://gcb918.taobao.com/
快速回复
限100 字节
 
上一个 下一个