论坛风格切换切换到宽版
  • 856阅读
  • 9回复

[亲传][Single] 1995 Earth Song (UK - 662695 2) - WAV整轨 ♬by幽灵 [复制链接]

上一主题 下一主题
离线mjghosts
 

发帖
8257
金钱
219515
威望
9187
贡献值
2734
交易币
4792
只看楼主 倒序阅读 楼主  发表于: 2017-05-29
— 本帖被 mjghosts 执行加亮操作(2017-05-29) —
*常见的一张单曲碟,曲目3的混音比较精彩! #gcv])to  
y{g"w  
注:独家整理,转载请注明出处!EAC无损整轨(压缩包内含CD图片) c1sVdM}|  
*b,4qMr  
解压密码:www.mjsunny.com
e5$S2o~JF  
tRVz4fk[G  
Tracklist -LU%z'  
1 Earth Song (Radio Edit) 4:58 0BP Ubp(  
2 Earth Song (Hani's Club Experience) 7:55 8 k )i-&R  
3 Michael Jackson DMC Megamix    11:18 p:zRgwcn  
3.1    Billie Jean     (bAw>  
3.2    Rock With You     RT<HiVr`  
3.3    Bad     `_SV1|=="8  
3.4    Thriller     4"veqrC  
3.5    Don't Stop Til You Get Enough     fR]KXfZ  
3.6    Black Or White     ! ~tf0aY  
3.7    Scream     z"-oD*ICw  
3.8    Wanna Be Startin' Somethin'    
EHK+qrym  
*U- :2uf  
=1y~Qlu  
&Q*  7  
*c 9 S.  
N 1ydL  
Exact Audio Copy V1.0 beta 6 from 9. April 2015 KTBtLUH]*F  
j{D tjV8  
EAC 抓取日志文件从29. 五月 2017, 2:41 d2TIG<6/  
PpH ;p.-!d  
Michael Jackson / Earth Song +v$W$s&b-h  
n_:EWm$\  
使用驱动器  :MATSHITADVD-RAM UJ890AS   Adapter: 1  ID: 1 8I Ip,#%v  
EJRkFn8XG'  
读取模式      : 可靠Secure o';/$xrH  
使用精确流     : 是 z"mpw mv5  
清空音频缓存    : 否 Fn iht<  
使用 C2 指示器 : 是 z@w}+fYO  
k<M Q  
读取偏移校正:               : 102 Ok|Dh;1_  
读取 Lead-In 和 Lead-Out : 否 ^sFO[cYo  
用静音填充抓取中丢失偏移的采样       : 是 &xhwOgI#,  
去除首尾静音块               : 否 ^Il*`&+?P  
在CRC 计算中使用了空样本       : 是 H0sTL#/L\  
已用接口                  : Win NT 及 2000 本地 Win32 接口 y22DBB8  
B2P@9u|9  
所用输出模式: : 内部 WAV 函数 -W<1BJE  
样本格式    : 44.100 Hz; 16 Bit; 立体声 CswKT 9  
VN`fZ5*d~  
x.wDA3ys  
已抓取 CD 的 TOC Ez0zk9  
@sA!o[gH  
     音轨 |    起始    |    长度    |  起始扇区  |  结束扇区   megTp  
    -------------------------------------------- RK &>!^  
      1 |  0:00.00 |  5:02.12 |      0 |  22661 _W_< bI34  
      2 |  5:02.12 |  7:56.63 |  22662 |  58424 4fC:8\A  
      3 | 12:59.00 | 11:17.35 |  58425 | 109234 B6k<#-HAT  
QO(F%&v++  
BB(6[V"SV  
范围状态及错误 \"nut7";2  
aYb97}kI  
已选择范围 /~{`!30  
WXY'%G  
     文件名 J:\12 Music*音乐\[WAV] Michael Jackson Audios\=【Single】1995 Earth Song (UK - 662695 2) 3''\CDImage.wav c Pf_B=  
z m$Sw0#(  
     峰值电平 100.0 % +wmG5!%$|  
     抓取速度 5.2 X ,dCEy+  
     范围质量 100.0 % j,+]tHC-  
     复制 CRC 1B183D94 !{t|z=Qg  
     复制成功 4?'vP'  
0B]q /G(  
没有错误发生 GT&}Burl/n  
:x*)o+  
LKu\Mh|  
AccurateRip 摘要 ukW&\  
_s=H|#l  
音轨  1  精确地校准抓取  30)  [27E8F8FF]  (AR v2) (j&:  
音轨  2  精确地校准抓取  30)  [8CACCC36]  (AR v2) MEiP&=gX!  
音轨  3  精确地校准抓取  31)  [60105AA8]  (AR v2) 2X?GEO]/4  
ai{>rO3 }I  
所有音轨精确校准抓取 o$rjGa l  
 )(G9[DG  
状态报告结尾
e5|lz.o;  
Y}:~6`-jj  
链接:http://pan.baidu.com/s/1ctkLMA 密码: lB,1dw2(T  
此帖售价 3 金钱,已有 10 人购买 [记录] [购买]
购买后,将显示帖子中所有出售内容。
若发现会员采用欺骗的方法获取财富,请立刻举报,我们会对会员处以2-N倍的罚金,严重者封掉ID!
此段为出售的内容,购买后显示
离线michael0829

发帖
957
金钱
10399
威望
90
贡献值
70
交易币
1206
只看该作者 1楼 发表于: 2017-05-30
感谢分享!
I Love You Michael Jackson Forever!
I Just Can't Stop Loving You Michel!

发帖
2753
金钱
30915
威望
621
贡献值
38
交易币
410
只看该作者 2楼 发表于: 2017-05-31
辛苦辛苦

离线wannam

发帖
2703
金钱
87077
威望
382
贡献值
189
交易币
3346
只看该作者 3楼 发表于: 2017-06-04
封面mj的眼神啊!唉,斯人若彩虹,长悬在天涯
离线lifan_npl

发帖
2213
金钱
31997
威望
853
贡献值
430
交易币
2594
只看该作者 4楼 发表于: 2017-06-10
楼主  好碟啊
我的淘宝店:
http://shop63152617.taobao.com  
离线肯尼

发帖
959
金钱
6465
威望
442
贡献值
239
交易币
1468
只看该作者 5楼 发表于: 2017-09-10
感谢分享
Remixed & Designed by Kenny Saxton ©
离线mjlove98

发帖
2585
金钱
4080
威望
197
贡献值
123
交易币
2663
只看该作者 6楼 发表于: 2017-10-04
Re:[Single] 1995 Earth Song (UK - 662695 2) - WAV整轨 ?by幽灵
感谢分享!
离线三分寰宇

发帖
74
金钱
67
威望
11
贡献值
1
交易币
25
只看该作者 7楼 发表于: 2018-02-15
楼主棒棒棒的
离线flash

发帖
276
金钱
484
威望
81
贡献值
0
交易币
276
只看该作者 8楼 发表于: 2018-08-09
感谢分享!
离线阳光网

发帖
478
金钱
9858
威望
53
贡献值
36
交易币
590
只看该作者 9楼 发表于: 2018-08-16
Re:[Single] 1995 Earth Song (UK - 662695 2) - WAV整轨 ?by幽灵
感谢分享
我最帅
快速回复
限100 字节
 
上一个 下一个