论坛风格切换切换到宽版
  • 726阅读
  • 9回复

[亲传][Single] 1995 Earth Song (UK - 662695 2) - WAV整轨 ♬by幽灵 [复制链接]

上一主题 下一主题
离线mjghosts
 

发帖
8256
金钱
219309
威望
9187
贡献值
2734
交易币
4791
只看楼主 倒序阅读 楼主  发表于: 2017-05-29
— 本帖被 mjghosts 执行加亮操作(2017-05-29) —
*常见的一张单曲碟,曲目3的混音比较精彩! ;q:.&dak1  
P$E#C:=  
注:独家整理,转载请注明出处!EAC无损整轨(压缩包内含CD图片) c#eV!fl>&  
2CX'J8Sy  
解压密码:www.mjsunny.com
E? > ERO3  
hr9[$4'H  
Tracklist 8c-r;DE  
1 Earth Song (Radio Edit) 4:58 Yj+p^@{S2P  
2 Earth Song (Hani's Club Experience) 7:55 m Cvgs  
3 Michael Jackson DMC Megamix    11:18 AS[yNCsjC  
3.1    Billie Jean     %5|awWo_?  
3.2    Rock With You     &6-udZB-  
3.3    Bad     =aM(r6 C  
3.4    Thriller     1-`Il]@?8  
3.5    Don't Stop Til You Get Enough     FsI51@V72Q  
3.6    Black Or White     v8Ga@*  
3.7    Scream     8PQKB*<dB"  
3.8    Wanna Be Startin' Somethin'    
R"NR-iU  
R pUq#Y:a  
Bf37/kkf(  
e nsou!l  
d~NvS-u7  
I"TFj$Pg  
Exact Audio Copy V1.0 beta 6 from 9. April 2015 L1'R6W~%dN  
V\U,PNkZQ  
EAC 抓取日志文件从29. 五月 2017, 2:41 }=.:bwX5  
[I*zZ`  
Michael Jackson / Earth Song a o"\L0;{  
=ELl86=CG  
使用驱动器  :MATSHITADVD-RAM UJ890AS   Adapter: 1  ID: 1 3aL8GMiu  
8_yhV{  
读取模式      : 可靠Secure |$AoI  
使用精确流     : 是 NGsG4y^g?z  
清空音频缓存    : 否 N@Fof(T&  
使用 C2 指示器 : 是 X@:[.eI~  
l_Ee us  
读取偏移校正:               : 102 IIrp-EMXJ  
读取 Lead-In 和 Lead-Out : 否 -u!{8S~wA  
用静音填充抓取中丢失偏移的采样       : 是 ?]1_ 2\M  
去除首尾静音块               : 否 F^La\cZ*'  
在CRC 计算中使用了空样本       : 是 CF|4, K)  
已用接口                  : Win NT 及 2000 本地 Win32 接口 (RhGBgp  
?H7YmN  
所用输出模式: : 内部 WAV 函数 3m2hB%SNb  
样本格式    : 44.100 Hz; 16 Bit; 立体声 Gp&o  
S.^/Cl;aj  
> St]MS  
已抓取 CD 的 TOC K<#Q;(SFU  
'aLTiF+  
     音轨 |    起始    |    长度    |  起始扇区  |  结束扇区   +;@p'af!9  
    -------------------------------------------- |3ob1/)p0  
      1 |  0:00.00 |  5:02.12 |      0 |  22661 71)DLGL  
      2 |  5:02.12 |  7:56.63 |  22662 |  58424 OE{PP9 eh  
      3 | 12:59.00 | 11:17.35 |  58425 | 109234 ;s$bVGHr  
J%|n^^ /un  
&_1Ivaen6  
范围状态及错误 5:" zs  
"}91wfG9  
已选择范围 b~5Q|3P9  
=Su~i Oa  
     文件名 J:\12 Music*音乐\[WAV] Michael Jackson Audios\=【Single】1995 Earth Song (UK - 662695 2) 3''\CDImage.wav z8 n=\xL  
IRq@~vdt)  
     峰值电平 100.0 % !%8|R]d  
     抓取速度 5.2 X n"Gow/-;  
     范围质量 100.0 % \R}`S`fIw`  
     复制 CRC 1B183D94 =W*Js%4  
     复制成功 K0YUN^St  
Y<h [5  
没有错误发生 94Hs.S)  
4Iq-4IG(  
df'xx)kW  
AccurateRip 摘要 KeIk9T13O  
~ "IjT'W3  
音轨  1  精确地校准抓取  30)  [27E8F8FF]  (AR v2) O]/BNacS  
音轨  2  精确地校准抓取  30)  [8CACCC36]  (AR v2) d^.@~  
音轨  3  精确地校准抓取  31)  [60105AA8]  (AR v2) A/xo'G  
,'FdUq)i  
所有音轨精确校准抓取 --t5jSS44  
@C=Dk  
状态报告结尾
Mu~DB:Y9e  
%K$f2):  
链接:http://pan.baidu.com/s/1ctkLMA 密码: }2X"  
此帖售价 3 金钱,已有 10 人购买 [记录] [购买]
购买后,将显示帖子中所有出售内容。
若发现会员采用欺骗的方法获取财富,请立刻举报,我们会对会员处以2-N倍的罚金,严重者封掉ID!
此段为出售的内容,购买后显示
离线michael0829

发帖
955
金钱
10069
威望
90
贡献值
70
交易币
1204
只看该作者 1楼 发表于: 2017-05-30
感谢分享!
I Love You Michael Jackson Forever!
I Just Can't Stop Loving You Michel!

发帖
2751
金钱
30829
威望
621
贡献值
38
交易币
408
只看该作者 2楼 发表于: 2017-05-31
辛苦辛苦

离线wannam

发帖
2703
金钱
87033
威望
382
贡献值
189
交易币
3346
只看该作者 3楼 发表于: 2017-06-04
封面mj的眼神啊!唉,斯人若彩虹,长悬在天涯
离线lifan_npl

发帖
2212
金钱
31692
威望
853
贡献值
430
交易币
2593
只看该作者 4楼 发表于: 2017-06-10
楼主  好碟啊
我的淘宝店:
http://shop63152617.taobao.com  
离线肯尼

发帖
959
金钱
6465
威望
442
贡献值
239
交易币
1468
只看该作者 5楼 发表于: 2017-09-10
感谢分享
Remixed & Designed by Kenny Saxton ©
离线mjlove98

发帖
2584
金钱
4090
威望
197
贡献值
123
交易币
2662
只看该作者 6楼 发表于: 2017-10-04
Re:[Single] 1995 Earth Song (UK - 662695 2) - WAV整轨 ?by幽灵
感谢分享!
离线三分寰宇

发帖
72
金钱
77
威望
11
贡献值
1
交易币
23
只看该作者 7楼 发表于: 02-15
楼主棒棒棒的
离线flash

发帖
272
金钱
509
威望
81
贡献值
0
交易币
272
只看该作者 8楼 发表于: 08-09
感谢分享!
离线阳光网

发帖
467
金钱
9739
威望
52
贡献值
35
交易币
575
只看该作者 9楼 发表于: 08-16
Re:[Single] 1995 Earth Song (UK - 662695 2) - WAV整轨 ?by幽灵
感谢分享
我最帅
快速回复
限100 字节
 
上一个 下一个