论坛风格切换切换到宽版
  • 945阅读
  • 9回复

[亲传][Single] 1995 Earth Song (UK - 662695 2) - WAV整轨 ♬by幽灵 [复制链接]

上一主题 下一主题
离线mjghosts
 

发帖
8262
金钱
219556
威望
9187
贡献值
2734
交易币
4797
只看楼主 倒序阅读 楼主  发表于: 2017-05-29
— 本帖被 mjghosts 执行加亮操作(2017-05-29) —
*常见的一张单曲碟,曲目3的混音比较精彩! pW2-RHGJY  
t=r*/DxX=  
注:独家整理,转载请注明出处!EAC无损整轨(压缩包内含CD图片) Q-f?7*>  
Nc[u?-  
解压密码:www.mjsunny.com
gLPgh%B4  
y[sO0u\  
Tracklist K)r|oW=6Y  
1 Earth Song (Radio Edit) 4:58 @t?uhT*Z=  
2 Earth Song (Hani's Club Experience) 7:55 ww$Ec  
3 Michael Jackson DMC Megamix    11:18 :LEC[</yvl  
3.1    Billie Jean     *3]_Huw<  
3.2    Rock With You     -{rUE +  
3.3    Bad     y$C\b\hM  
3.4    Thriller     \olYv!f  
3.5    Don't Stop Til You Get Enough     K@>($BX]  
3.6    Black Or White     f )Ef-o  
3.7    Scream     ^ R7|x+  
3.8    Wanna Be Startin' Somethin'    
7w51UmO  
F0x'^Z}Q;  
( we)0AxF'  
/^hc8X  
i[/`9 AK  
Z;~7L*|  
Exact Audio Copy V1.0 beta 6 from 9. April 2015 D6,Ol4d  
ek1<9" y  
EAC 抓取日志文件从29. 五月 2017, 2:41 )F+wk"`+6  
i}5M'~ F  
Michael Jackson / Earth Song SP"t2LTP  
Q^*4FH!W  
使用驱动器  :MATSHITADVD-RAM UJ890AS   Adapter: 1  ID: 1 *dN_=32u  
Ibg~.>.u{  
读取模式      : 可靠Secure NQA2usb  
使用精确流     : 是 Tp|>(~;ai  
清空音频缓存    : 否 Ww"]3  
使用 C2 指示器 : 是 yy+:x/(N[  
|AT`(71  
读取偏移校正:               : 102 0wCQPvO  
读取 Lead-In 和 Lead-Out : 否 e)N< r  
用静音填充抓取中丢失偏移的采样       : 是 7&D)+{g  
去除首尾静音块               : 否 ANJL8t-m  
在CRC 计算中使用了空样本       : 是 Fq_>}k@fI  
已用接口                  : Win NT 及 2000 本地 Win32 接口 99(@O,*(Y  
5Zd oem  
所用输出模式: : 内部 WAV 函数 .9WOT ti  
样本格式    : 44.100 Hz; 16 Bit; 立体声 %l14K_  
.@%L8_sMR  
Shn=Q  
已抓取 CD 的 TOC C:}1r  
</D.}ia  
     音轨 |    起始    |    长度    |  起始扇区  |  结束扇区   24k]X`/n  
    -------------------------------------------- [Z"Z5e`  
      1 |  0:00.00 |  5:02.12 |      0 |  22661 pe0ax- Zv  
      2 |  5:02.12 |  7:56.63 |  22662 |  58424 k ,ldi  
      3 | 12:59.00 | 11:17.35 |  58425 | 109234 %K')_NS@  
Khi;2{`  
;$zvm`|:  
范围状态及错误 pTG[F  
%q3`k#?<  
已选择范围 ]r 0j  
3{|~'5*  
     文件名 J:\12 Music*音乐\[WAV] Michael Jackson Audios\=【Single】1995 Earth Song (UK - 662695 2) 3''\CDImage.wav %m f)BC  
=cS5f#0  
     峰值电平 100.0 % "1^tVw|  
     抓取速度 5.2 X yH-&o,  
     范围质量 100.0 % y `FZ 0FI  
     复制 CRC 1B183D94 N".BC|r  
     复制成功 d2i ?FT>  
j*|0#q;e6  
没有错误发生 !ck~4~J  
9#1?Pt^{<  
g|| q 3  
AccurateRip 摘要 ,.2qh|Ol  
V\L%*6O  
音轨  1  精确地校准抓取  30)  [27E8F8FF]  (AR v2) tMP"9JE,  
音轨  2  精确地校准抓取  30)  [8CACCC36]  (AR v2) wBw(T1VN  
音轨  3  精确地校准抓取  31)  [60105AA8]  (AR v2) X-" +nThMn  
A\9LJ#E  
所有音轨精确校准抓取 ^jRX6  
:t "_I  
状态报告结尾
9I<~t@q5e@  
&\cS{35  
链接:http://pan.baidu.com/s/1ctkLMA 密码: /uR/,R++  
此帖售价 3 金钱,已有 10 人购买 [记录] [购买]
购买后,将显示帖子中所有出售内容。
若发现会员采用欺骗的方法获取财富,请立刻举报,我们会对会员处以2-N倍的罚金,严重者封掉ID!
此段为出售的内容,购买后显示
离线michael0829

发帖
958
金钱
10744
威望
90
贡献值
70
交易币
1207
只看该作者 1楼 发表于: 2017-05-30
感谢分享!
I Love You Michael Jackson Forever!
I Just Can't Stop Loving You Michel!

发帖
2767
金钱
30998
威望
622
贡献值
39
交易币
428
只看该作者 2楼 发表于: 2017-05-31
辛苦辛苦

离线wannam

发帖
2703
金钱
87101
威望
382
贡献值
189
交易币
3346
只看该作者 3楼 发表于: 2017-06-04
封面mj的眼神啊!唉,斯人若彩虹,长悬在天涯
离线lifan_npl

发帖
2224
金钱
31752
威望
853
贡献值
430
交易币
2605
只看该作者 4楼 发表于: 2017-06-10
楼主  好碟啊
我的淘宝店:
http://shop63152617.taobao.com  
离线肯尼

发帖
959
金钱
6535
威望
442
贡献值
239
交易币
1468
只看该作者 5楼 发表于: 2017-09-10
感谢分享
Remixed & Designed by Kenny Saxton ©
离线mjlove98

发帖
2593
金钱
4041
威望
197
贡献值
123
交易币
2671
只看该作者 6楼 发表于: 2017-10-04
Re:[Single] 1995 Earth Song (UK - 662695 2) - WAV整轨 ?by幽灵
感谢分享!
离线三分寰宇

发帖
74
金钱
67
威望
11
贡献值
1
交易币
25
只看该作者 7楼 发表于: 2018-02-15
楼主棒棒棒的
离线flash

发帖
279
金钱
480
威望
81
贡献值
0
交易币
279
只看该作者 8楼 发表于: 2018-08-09
感谢分享!
离线阳光网

发帖
482
金钱
9912
威望
53
贡献值
36
交易币
594
只看该作者 9楼 发表于: 2018-08-16
Re:[Single] 1995 Earth Song (UK - 662695 2) - WAV整轨 ?by幽灵
感谢分享
我最帅
快速回复
限100 字节
 
上一个 下一个