论坛风格切换切换到宽版
  • 855阅读
  • 9回复

[亲传][Single] 1995 Earth Song (UK - 662695 2) - WAV整轨 ♬by幽灵 [复制链接]

上一主题 下一主题
离线mjghosts
 

发帖
8257
金钱
219515
威望
9187
贡献值
2734
交易币
4792
只看楼主 倒序阅读 楼主  发表于: 2017-05-29
— 本帖被 mjghosts 执行加亮操作(2017-05-29) —
*常见的一张单曲碟,曲目3的混音比较精彩! eC9~ wc  
W#e:rz8=  
注:独家整理,转载请注明出处!EAC无损整轨(压缩包内含CD图片) T7m rOp  
R.A}tV=j#  
解压密码:www.mjsunny.com
S) V uT0  
Y8.0R-:ZAN  
Tracklist z-[Jbjhd  
1 Earth Song (Radio Edit) 4:58 qTqvEa^X`  
2 Earth Song (Hani's Club Experience) 7:55 a&L8W4  
3 Michael Jackson DMC Megamix    11:18 }y|% wym  
3.1    Billie Jean     ~SM2W%  
3.2    Rock With You     j])iyn~-Ke  
3.3    Bad     ":]O3 D{r  
3.4    Thriller     zF)_t S  
3.5    Don't Stop Til You Get Enough     g?j"d{.9t  
3.6    Black Or White     m{%_5nW  
3.7    Scream     e-qr d  
3.8    Wanna Be Startin' Somethin'    
D:n0d fPU  
lS?f?n^  
/f%u_ 8pV%  
Tj:+:B(HB  
!\awT  
Y%=A>~s*c:  
Exact Audio Copy V1.0 beta 6 from 9. April 2015 OPKX&)SE-  
WM@uxe,  
EAC 抓取日志文件从29. 五月 2017, 2:41 Wc,8<Y'   
}FM<uBKW  
Michael Jackson / Earth Song +IS$Un  
"9WP^[  
使用驱动器  :MATSHITADVD-RAM UJ890AS   Adapter: 1  ID: 1 ?: meix  
H}U&=w'  
读取模式      : 可靠Secure ![vc/wuf  
使用精确流     : 是 er qm=)  
清空音频缓存    : 否 ;<&s _C3  
使用 C2 指示器 : 是 fmSw%r|pT  
^k)f oD  
读取偏移校正:               : 102 6B+ @76wH  
读取 Lead-In 和 Lead-Out : 否 iww h,(  
用静音填充抓取中丢失偏移的采样       : 是 VX>_Sp s  
去除首尾静音块               : 否 9CN / v  
在CRC 计算中使用了空样本       : 是 lO9>?y8.y  
已用接口                  : Win NT 及 2000 本地 Win32 接口 g{D&|qWj  
$ o t"Du  
所用输出模式: : 内部 WAV 函数 4\$Ze0tv  
样本格式    : 44.100 Hz; 16 Bit; 立体声 #Se  
Fza)dJ 7  
NF a ;  
已抓取 CD 的 TOC PO}Q8Q3  
sO  
     音轨 |    起始    |    长度    |  起始扇区  |  结束扇区   8n73MF  
    -------------------------------------------- IIu3mXAw  
      1 |  0:00.00 |  5:02.12 |      0 |  22661 [7Kn$OfP  
      2 |  5:02.12 |  7:56.63 |  22662 |  58424 i5wA=K_  
      3 | 12:59.00 | 11:17.35 |  58425 | 109234 GqAedz;.  
 $}F]pa[  
cj8r-Vu/N  
范围状态及错误 5m bs0GL  
.*f;v4!  
已选择范围 'qP^MdoE%~  
iwVra"y  
     文件名 J:\12 Music*音乐\[WAV] Michael Jackson Audios\=【Single】1995 Earth Song (UK - 662695 2) 3''\CDImage.wav ,,Db:4qfjD  
p/5!a~1'xN  
     峰值电平 100.0 % z84W{! P  
     抓取速度 5.2 X C>u 3n^  
     范围质量 100.0 % g:6yvEu$ -  
     复制 CRC 1B183D94 ,G:4H%?  
     复制成功 #wd \&  
$ i&$ZdX  
没有错误发生 Dsua13 hF  
YBCjcD[G  
'H'+6   
AccurateRip 摘要 FezW/+D  
Y1'.m5E  
音轨  1  精确地校准抓取  30)  [27E8F8FF]  (AR v2) dbuOiZ  
音轨  2  精确地校准抓取  30)  [8CACCC36]  (AR v2) 7 b. -&,  
音轨  3  精确地校准抓取  31)  [60105AA8]  (AR v2) (XwLKkw0n  
KVcZ@0[S  
所有音轨精确校准抓取 r:5Ve&~  
R>U<8z"i  
状态报告结尾
Uaj=}p\+.p  
QBw ZfX  
链接:http://pan.baidu.com/s/1ctkLMA 密码: N.G*ii\  
此帖售价 3 金钱,已有 10 人购买 [记录] [购买]
购买后,将显示帖子中所有出售内容。
若发现会员采用欺骗的方法获取财富,请立刻举报,我们会对会员处以2-N倍的罚金,严重者封掉ID!
此段为出售的内容,购买后显示
离线michael0829

发帖
957
金钱
10399
威望
90
贡献值
70
交易币
1206
只看该作者 1楼 发表于: 2017-05-30
感谢分享!
I Love You Michael Jackson Forever!
I Just Can't Stop Loving You Michel!

发帖
2753
金钱
30915
威望
621
贡献值
38
交易币
410
只看该作者 2楼 发表于: 2017-05-31
辛苦辛苦

离线wannam

发帖
2703
金钱
87077
威望
382
贡献值
189
交易币
3346
只看该作者 3楼 发表于: 2017-06-04
封面mj的眼神啊!唉,斯人若彩虹,长悬在天涯
离线lifan_npl

发帖
2213
金钱
31997
威望
853
贡献值
430
交易币
2594
只看该作者 4楼 发表于: 2017-06-10
楼主  好碟啊
我的淘宝店:
http://shop63152617.taobao.com  
离线肯尼

发帖
959
金钱
6465
威望
442
贡献值
239
交易币
1468
只看该作者 5楼 发表于: 2017-09-10
感谢分享
Remixed & Designed by Kenny Saxton ©
离线mjlove98

发帖
2585
金钱
4080
威望
197
贡献值
123
交易币
2663
只看该作者 6楼 发表于: 2017-10-04
Re:[Single] 1995 Earth Song (UK - 662695 2) - WAV整轨 ?by幽灵
感谢分享!
离线三分寰宇

发帖
74
金钱
67
威望
11
贡献值
1
交易币
25
只看该作者 7楼 发表于: 2018-02-15
楼主棒棒棒的
离线flash

发帖
276
金钱
484
威望
81
贡献值
0
交易币
276
只看该作者 8楼 发表于: 2018-08-09
感谢分享!
离线阳光网

发帖
478
金钱
9858
威望
53
贡献值
36
交易币
590
只看该作者 9楼 发表于: 2018-08-16
Re:[Single] 1995 Earth Song (UK - 662695 2) - WAV整轨 ?by幽灵
感谢分享
我最帅
快速回复
限100 字节
 
上一个 下一个