论坛风格切换切换到宽版
  • 630阅读
  • 8回复

[亲传][Single] 1995 Earth Song (UK - 662695 2) - WAV整轨 ♬by幽灵 [复制链接]

上一主题 下一主题
离线mjghosts
 

发帖
8251
金钱
218537
威望
9176
贡献值
2723
交易币
4762
只看楼主 倒序阅读 楼主  发表于: 2017-05-29
— 本帖被 mjghosts 执行加亮操作(2017-05-29) —
*常见的一张单曲碟,曲目3的混音比较精彩! L2N O_N  
zA<Hj;9SM  
注:独家整理,转载请注明出处!EAC无损整轨(压缩包内含CD图片) })Pq!u:3  
r6u ) 6J=  
解压密码:www.mjsunny.com
mqIcc'6f  
~8htg8CZ`  
Tracklist ~?BN4ptc  
1 Earth Song (Radio Edit) 4:58 6q8b>LG|  
2 Earth Song (Hani's Club Experience) 7:55 X (0`"rjg  
3 Michael Jackson DMC Megamix    11:18 i#RT4}l"a  
3.1    Billie Jean     sC^9  
3.2    Rock With You     /HiRbwQK#  
3.3    Bad     8}A+{xVp8  
3.4    Thriller     4?vTuZ/ M  
3.5    Don't Stop Til You Get Enough     <"SOH; w  
3.6    Black Or White     XoO#{7a  
3.7    Scream     $QbaPmHW  
3.8    Wanna Be Startin' Somethin'    
;t_'87h$y  
F^xhhz&e  
j1sZRl)D  
Alh"ZT^*  
c8"9Lv  
GmJ4AYEP  
Exact Audio Copy V1.0 beta 6 from 9. April 2015 pod=|(c  
T`?{Is['(  
EAC 抓取日志文件从29. 五月 2017, 2:41 UmC_C[/n?  
&E(KOfk#  
Michael Jackson / Earth Song (8$; 4q[!  
ap7ZT7KW  
使用驱动器  :MATSHITADVD-RAM UJ890AS   Adapter: 1  ID: 1 c-dOb.v0  
yGN2/>]  
读取模式      : 可靠Secure p}r1@L s  
使用精确流     : 是 Rb8wq.LqD  
清空音频缓存    : 否 P m Zb!|  
使用 C2 指示器 : 是 X:c k  
u3Qm"?$`  
读取偏移校正:               : 102 2c Pd$j  
读取 Lead-In 和 Lead-Out : 否 cKbjW  
用静音填充抓取中丢失偏移的采样       : 是 )fRZ}7k:  
去除首尾静音块               : 否 V2&O]bR  
在CRC 计算中使用了空样本       : 是 Uh9p ,AV  
已用接口                  : Win NT 及 2000 本地 Win32 接口 R'#1|eWCa  
;nDCyn4i]  
所用输出模式: : 内部 WAV 函数 @`,~d{ziF  
样本格式    : 44.100 Hz; 16 Bit; 立体声 [#}0)  
AxsTB9/  
8~~*/oCoJt  
已抓取 CD 的 TOC &N`s@Ka  
g"F&~y/p  
     音轨 |    起始    |    长度    |  起始扇区  |  结束扇区   H;eGBVi  
    -------------------------------------------- 3[RP:W@%  
      1 |  0:00.00 |  5:02.12 |      0 |  22661 b!h*I>`  
      2 |  5:02.12 |  7:56.63 |  22662 |  58424 5}pn5iI  
      3 | 12:59.00 | 11:17.35 |  58425 | 109234 ^uDNArDmj5  
npj_i /&g  
MHm=X8eg  
范围状态及错误 r&MHww1i  
[b=l'e/  
已选择范围 %/K'VE6pb  
GW29Rj1  
     文件名 J:\12 Music*音乐\[WAV] Michael Jackson Audios\=【Single】1995 Earth Song (UK - 662695 2) 3''\CDImage.wav t=K;/ 1  
h0=Q.Yz6  
     峰值电平 100.0 % <#[_S$54  
     抓取速度 5.2 X w6PKr^  
     范围质量 100.0 % P?zPb'UVqa  
     复制 CRC 1B183D94 +# 38  
     复制成功 B;3lF ;3`  
N`G* h^YQ  
没有错误发生 %X--`91|u  
9(\eL9^  
=&5^[:ksB  
AccurateRip 摘要 3k#?E]'  
Y`O"+Jr  
音轨  1  精确地校准抓取  30)  [27E8F8FF]  (AR v2) qHGwD20 ~  
音轨  2  精确地校准抓取  30)  [8CACCC36]  (AR v2) rzR=% >  
音轨  3  精确地校准抓取  31)  [60105AA8]  (AR v2) c Nhy.Z~D  
@y|ZXPC#  
所有音轨精确校准抓取 Eeumi#$Z   
TL29{'4V  
状态报告结尾
B"07:sO  
n!Ic.T3PA  
链接:http://pan.baidu.com/s/1ctkLMA 密码: 3U_-sMOB|  
此帖售价 3 金钱,已有 9 人购买 [记录] [购买]
购买后,将显示帖子中所有出售内容。
若发现会员采用欺骗的方法获取财富,请立刻举报,我们会对会员处以2-N倍的罚金,严重者封掉ID!
此段为出售的内容,购买后显示
离线michael0829

发帖
955
金钱
9804
威望
90
贡献值
70
交易币
1204
只看该作者 1楼 发表于: 2017-05-30
感谢分享!
I Love You Michael Jackson Forever!
I Just Can't Stop Loving You Michel!

发帖
2740
金钱
30927
威望
620
贡献值
37
交易币
393
只看该作者 2楼 发表于: 2017-05-31
辛苦辛苦

离线wannam

发帖
2702
金钱
87018
威望
382
贡献值
189
交易币
3345
只看该作者 3楼 发表于: 2017-06-04
封面mj的眼神啊!唉,斯人若彩虹,长悬在天涯
离线lifan_npl

发帖
2196
金钱
31917
威望
851
贡献值
428
交易币
2569
只看该作者 4楼 发表于: 2017-06-10
楼主  好碟啊
我的淘宝:
http://shop63152617.taobao.com  
离线肯尼

发帖
955
金钱
6312
威望
431
贡献值
228
交易币
1440
只看该作者 5楼 发表于: 2017-09-10
感谢分享
顺势待发张元穹 Kenny Saxton @肯尼 & 齐奕同Michael Qi @迈颤我栗
2014年6月25日 合辑 火热制作中
2014 MJFantastics Music International Ltd.
在线mjlove98

发帖
2566
金钱
4339
威望
197
贡献值
123
交易币
2644
只看该作者 6楼 发表于: 2017-10-04
Re:[Single] 1995 Earth Song (UK - 662695 2) - WAV整轨 ?by幽灵
感谢分享!
离线三分寰宇

发帖
70
金钱
97
威望
11
贡献值
1
交易币
21
只看该作者 7楼 发表于: 02-15
楼主棒棒棒的
离线flash

发帖
271
金钱
530
威望
81
贡献值
0
交易币
271
只看该作者 8楼 发表于: 08-09
感谢分享!
快速回复
限100 字节
 
上一个 下一个