论坛风格切换切换到宽版
  • 1159阅读
  • 10回复

[亲传][Album 1970] Third Album (1992) (JP - POCT 1835) - WAV整轨 ♬by幽灵 [复制链接]

上一主题 下一主题
离线mjghosts
 

发帖
8262
金钱
219556
威望
9187
贡献值
2734
交易币
4797
只看楼主 倒序阅读 楼主  发表于: 2017-05-29
— 本帖被 mjghosts 执行加亮操作(2017-05-29) —
*1970年J5的第三张专辑,抓轨的CD是92年日二版。 4w0Y(y  
Q::6|B,G  
注:独家整理,转载请注明出处!EAC无损整轨(压缩包内含CD图片) qUF}rl S=r  
[#6Eax,j  
解压密码:www.mjsunny.com
@-Js)zcl q  
<xQHb^:  
6@@J>S>  
@9<MW  
#x;i R8^  
@ \(*pa  
Exact Audio Copy V1.0 beta 6 from 9. April 2015 i-4pdK u  
K)C9)J<  
EAC 抓取日志文件从29. 五月 2017, 3:23 Pe_iA_  
ovn)lIs  
Jackson 5 / Third Album K2glkGK  
wv8WqYV  
使用驱动器  :MATSHITADVD-RAM UJ890AS   Adapter: 1  ID: 1 qh)o44/ $  
M"eiKX  
读取模式      : 可靠Secure eh-/,vmRa  
使用精确流     : 是 hi I`ot  
清空音频缓存    : 否 U[b $VZ}  
使用 C2 指示器 : 是 Ub8|x]ix  
ZS@Cd9*  
读取偏移校正:               : 102 # 4AyA$t  
读取 Lead-In 和 Lead-Out : 否 <B*}W2\  
用静音填充抓取中丢失偏移的采样       : 是 j"aimjqd3  
去除首尾静音块               : 否 gu[3L  
在CRC 计算中使用了空样本       : 是 \Ze"Hv  
已用接口                  : Win NT 及 2000 本地 Win32 接口 !tkP!%w  
YPraf$  
所用输出模式: : 内部 WAV 函数 HF9d~7R  
样本格式    : 44.100 Hz; 16 Bit; 立体声 _e<3 g9bj  
ppt`5F O  
I^pD=1Y]  
已抓取 CD 的 TOC gw0b>E8gZ&  
t1,sG8Z  
     音轨 |    起始    |    长度    |  起始扇区  |  结束扇区   W8:?y*6  
    -------------------------------------------- t&+f:)n  
      1 |  0:00.37 |  3:59.65 |     37 |  18026 #!d@;= [\  
      2 |  4:00.27 |  2:34.55 |  18027 |  29631 EGYYSoBLU  
      3 |  6:35.07 |  2:17.05 |  29632 |  39911 jX5lwP Q|F  
      4 |  8:52.12 |  5:53.07 |  39912 |  66393 l$$N~FN  
      5 | 14:45.19 |  3:10.08 |  66394 |  80651 IP'gN-#i  
      6 | 17:55.27 |  3:33.47 |  80652 |  96673 "G\OKt'Z  
      7 | 21:28.74 |  2:41.45 |  96674 | 108793 h$)},% e  
      8 | 24:10.44 |  3:08.65 | 108794 | 122958 E5.3wOE  
      9 | 27:19.34 |  3:29.23 | 122959 | 138656 n5i#GvO^  
     10 | 30:48.57 |  4:22.47 | 138657 | 158353 Q70LQCms  
     11 | 35:11.29 |  2:38.33 | 158354 | 170236 )En*5-1  
vy?Zz<c;  
F;l*@y Tq  
范围状态及错误 cx?t C#t  
:K{!@=o  
已选择范围 / $7E  
/*DC`,q  
     文件名 J:\12 Music*音乐\[WAV] Michael Jackson Audios\=【Jackson 5 1970】Third Album (1992) (JP - POCT 1835)\CDImage.wav SS;[{u!  
:=u Ku'~  
     峰值电平 87.1 % i,jPULzyjk  
     抓取速度 5.6 X "I.PV$Rxl  
     范围质量 100.0 % ,&$w*D%  
     复制 CRC 25F0A581 `[vm{+i  
     复制成功 0^htwec!  
Ba-Ftkb  
没有错误发生 7U_~_yb  
F6 ?4E"d  
gKK*` L~  
AccurateRip 摘要 }Xv2I$J  
XBi}hT  
音轨  1  不能准确地校验 (确认 2)  [4D2604EC], 返回 AccurateRip [14C186F8]  (AR v2) v{7Jzjd  
音轨  2  不能准确地校验 (确认 2)  [CF32D4E4], 返回 AccurateRip [34BA8D35]  (AR v2) =1' / ?  
音轨  3  不能准确地校验 (确认 2)  [FDAA53D4], 返回 AccurateRip [3BA1BC0C]  (AR v2) 8RC7 Ei  
音轨  4  不能准确地校验 (确认 2)  [2921EBCB], 返回 AccurateRip [A3A1AC68]  (AR v2) Qp9)Rc5  
音轨  5  不能准确地校验 (确认 2)  [E2560BA7], 返回 AccurateRip [9B3F0B25]  (AR v2) go^?F- dZ  
音轨  6  不能准确地校验 (确认 2)  [F383E42B], 返回 AccurateRip [A1BB41EE]  (AR v2) /Q Xq<NG  
音轨  7  不能准确地校验 (确认 2)  [808A8561], 返回 AccurateRip [74BD7965]  (AR v2) "/v{B?~%!  
音轨  8  不能准确地校验 (确认 2)  [07E61CE8], 返回 AccurateRip [BF735228]  (AR v2) |7G +O+j  
音轨  9  不能准确地校验 (确认 2)  [315DC249], 返回 AccurateRip [547AC769]  (AR v2) 8sm8L\-  
音轨 10  不能准确地校验 (确认 2)  [0C4B0310], 返回 AccurateRip [23BAFF9A]  (AR v2) X"yj sk  
音轨 11  不能准确地校验 (确认 2)  [0141F162], 返回 AccurateRip [CB5D6BD8]  (AR v2)  [o]^\a y  
IBYRuaEB  
没有音轨被准确核实 D@5Ud)_  
你的版本可能与数据库的版本不同 l#!p?l  
QH:PClW![  
状态报告结尾
}cDw9;~D  
`Mj>t(  
链接:http://pan.baidu.com/s/1ge4pFof 密码: `?Wy;5-  
此帖售价 5 金钱,已有 9 人购买 [记录] [购买]
购买后,将显示帖子中所有出售内容。
若发现会员采用欺骗的方法获取财富,请立刻举报,我们会对会员处以2-N倍的罚金,严重者封掉ID!
此段为出售的内容,购买后显示
离线michaelpf

发帖
26
金钱
1044
威望
76
贡献值
10
交易币
21
只看该作者 1楼 发表于: 2017-05-30
沙发我先来支持。谢谢楼主经常奉献神器
Michael,I love you!六道轮回  
离线michael0829

发帖
958
金钱
10744
威望
90
贡献值
70
交易币
1207
只看该作者 2楼 发表于: 2017-05-30
年代远久的CD,谢谢分享啊!
I Love You Michael Jackson Forever!
I Just Can't Stop Loving You Michel!

发帖
2767
金钱
30998
威望
622
贡献值
39
交易币
428
只看该作者 3楼 发表于: 2017-05-31
感谢分享

离线wannam

发帖
2703
金钱
87101
威望
382
贡献值
189
交易币
3346
只看该作者 4楼 发表于: 2017-06-04
I'll be there真是永远的经典,mj童年清透又具有穿透力的嗓音加上细腻婉转的情绪演绎得让听者无法不动容。
离线lifan_npl

发帖
2224
金钱
31752
威望
853
贡献值
430
交易币
2605
只看该作者 5楼 发表于: 2017-06-10
楼主  好碟啊
我的淘宝店:
http://shop63152617.taobao.com  
离线mjnet

发帖
381
金钱
30546
威望
104
贡献值
54
交易币
558
只看该作者 6楼 发表于: 2017-06-25
最愛日盤
离线肯尼

发帖
959
金钱
6535
威望
442
贡献值
239
交易币
1468
只看该作者 7楼 发表于: 2017-09-10
感谢分享!
Remixed & Designed by Kenny Saxton ©
离线mjlove98

发帖
2593
金钱
4041
威望
197
贡献值
123
交易币
2671
只看该作者 8楼 发表于: 2017-12-30
Re:[Album 1970] Third Album (1992) (JP - POCT 1835) - WAV整轨 ?by幽灵
感谢分享了
离线mjbad25

发帖
168
金钱
4677
威望
0
贡献值
1
交易币
173
只看该作者 9楼 发表于: 2018-06-12
这种现在淘宝如果有,至少几百元一张,谢谢分享
快速回复
限100 字节
 
上一个 下一个