论坛风格切换切换到宽版
  • 986阅读
  • 10回复

[亲传][Album 1970] Third Album (1992) (JP - POCT 1835) - WAV整轨 ♬by幽灵 [复制链接]

上一主题 下一主题
离线mjghosts
 

发帖
8257
金钱
219515
威望
9187
贡献值
2734
交易币
4792
只看楼主 倒序阅读 楼主  发表于: 2017-05-29
— 本帖被 mjghosts 执行加亮操作(2017-05-29) —
*1970年J5的第三张专辑,抓轨的CD是92年日二版。 Qp<?[C}'W  
;)[RG\  
注:独家整理,转载请注明出处!EAC无损整轨(压缩包内含CD图片) 0G9@A8LU  
6}IOUWLB@  
解压密码:www.mjsunny.com
*D F5sY  
`?rPs8+R  
)rz4IfE  
5bv(J  T  
*f.eyg#  
:cG_aO kid  
Exact Audio Copy V1.0 beta 6 from 9. April 2015 m}]"TFzoVM  
9Z6] ];8E  
EAC 抓取日志文件从29. 五月 2017, 3:23 eek5Xm  
d'kQE_y2.  
Jackson 5 / Third Album @&S4j]rq  
5(%+8<2  
使用驱动器  :MATSHITADVD-RAM UJ890AS   Adapter: 1  ID: 1 k^p|H:  
W.-[ceM  
读取模式      : 可靠Secure G! zV=p  
使用精确流     : 是 -G(z!ed  
清空音频缓存    : 否 Ua,Lg.z  
使用 C2 指示器 : 是 H"WkyvqXb  
^p|MkB?uM  
读取偏移校正:               : 102 u!k\W{  
读取 Lead-In 和 Lead-Out : 否 c;&m}ImLe.  
用静音填充抓取中丢失偏移的采样       : 是 mSY;hJi  
去除首尾静音块               : 否 Lf3Ri/@ p  
在CRC 计算中使用了空样本       : 是 8ysU.5S  
已用接口                  : Win NT 及 2000 本地 Win32 接口 ?uc=(J+6  
U-QK   
所用输出模式: : 内部 WAV 函数 H~i+: X=I  
样本格式    : 44.100 Hz; 16 Bit; 立体声 ^+F@KXn L  
R56:}<Y,  
cWl  
已抓取 CD 的 TOC T\:Vu{|  
X~*1  
     音轨 |    起始    |    长度    |  起始扇区  |  结束扇区   y#F( xm+L  
    -------------------------------------------- e[$=5U~c  
      1 |  0:00.37 |  3:59.65 |     37 |  18026 TppR \[4]  
      2 |  4:00.27 |  2:34.55 |  18027 |  29631 @Hw#O33/'  
      3 |  6:35.07 |  2:17.05 |  29632 |  39911 $bIVD  
      4 |  8:52.12 |  5:53.07 |  39912 |  66393 2a'b}<|[(  
      5 | 14:45.19 |  3:10.08 |  66394 |  80651 %ZF47P%6  
      6 | 17:55.27 |  3:33.47 |  80652 |  96673 {&nL'R  
      7 | 21:28.74 |  2:41.45 |  96674 | 108793 T}d% XMXq  
      8 | 24:10.44 |  3:08.65 | 108794 | 122958 L9ECF;)  
      9 | 27:19.34 |  3:29.23 | 122959 | 138656 {_T?0L  
     10 | 30:48.57 |  4:22.47 | 138657 | 158353 = i9|lU"Va  
     11 | 35:11.29 |  2:38.33 | 158354 | 170236 NrA?^F  
qM%l  
C]H'z  
范围状态及错误 fP 4  
cvSr><(  
已选择范围 DVC<P}/  
JSKAlw  
     文件名 J:\12 Music*音乐\[WAV] Michael Jackson Audios\=【Jackson 5 1970】Third Album (1992) (JP - POCT 1835)\CDImage.wav d^-sxl3}  
iLhxcM2K  
     峰值电平 87.1 % #0*OkZMt  
     抓取速度 5.6 X Cx,)$!1  
     范围质量 100.0 % <OR f{  
     复制 CRC 25F0A581 @)hrj2Jw  
     复制成功 OsSGVk #Qh  
<Oyxzs  
没有错误发生 ~sk{O%OI  
4R8W ot  
"@h 5 SF  
AccurateRip 摘要 Y$L>tFA  
@['4X1pqt  
音轨  1  不能准确地校验 (确认 2)  [4D2604EC], 返回 AccurateRip [14C186F8]  (AR v2) *, Mg  
音轨  2  不能准确地校验 (确认 2)  [CF32D4E4], 返回 AccurateRip [34BA8D35]  (AR v2) wd=xs7Dz<p  
音轨  3  不能准确地校验 (确认 2)  [FDAA53D4], 返回 AccurateRip [3BA1BC0C]  (AR v2) e1k\:]6  
音轨  4  不能准确地校验 (确认 2)  [2921EBCB], 返回 AccurateRip [A3A1AC68]  (AR v2) =XT'D@q~W  
音轨  5  不能准确地校验 (确认 2)  [E2560BA7], 返回 AccurateRip [9B3F0B25]  (AR v2) 4]\t6,Cz8  
音轨  6  不能准确地校验 (确认 2)  [F383E42B], 返回 AccurateRip [A1BB41EE]  (AR v2) /)ubyl]^p  
音轨  7  不能准确地校验 (确认 2)  [808A8561], 返回 AccurateRip [74BD7965]  (AR v2) :EUV#5V.  
音轨  8  不能准确地校验 (确认 2)  [07E61CE8], 返回 AccurateRip [BF735228]  (AR v2) cZ" Ut  
音轨  9  不能准确地校验 (确认 2)  [315DC249], 返回 AccurateRip [547AC769]  (AR v2) \E'Nk$V3  
音轨 10  不能准确地校验 (确认 2)  [0C4B0310], 返回 AccurateRip [23BAFF9A]  (AR v2) '9,14e6   
音轨 11  不能准确地校验 (确认 2)  [0141F162], 返回 AccurateRip [CB5D6BD8]  (AR v2) dwc$?Bg,5  
,x+_/kqx  
没有音轨被准确核实 _ +,2b:D:  
你的版本可能与数据库的版本不同 OpwZTy}1}  
];P^q`n=.  
状态报告结尾
@=c{GAj  
(n-8p6x(  
链接:http://pan.baidu.com/s/1ge4pFof 密码: ;G.m;5A  
此帖售价 5 金钱,已有 9 人购买 [记录] [购买]
购买后,将显示帖子中所有出售内容。
若发现会员采用欺骗的方法获取财富,请立刻举报,我们会对会员处以2-N倍的罚金,严重者封掉ID!
此段为出售的内容,购买后显示
离线michaelpf

发帖
26
金钱
1044
威望
76
贡献值
10
交易币
21
只看该作者 1楼 发表于: 2017-05-30
沙发我先来支持。谢谢楼主经常奉献神器
Michael,I love you!六道轮回  
离线michael0829

发帖
957
金钱
10399
威望
90
贡献值
70
交易币
1206
只看该作者 2楼 发表于: 2017-05-30
年代远久的CD,谢谢分享啊!
I Love You Michael Jackson Forever!
I Just Can't Stop Loving You Michel!

发帖
2753
金钱
30915
威望
621
贡献值
38
交易币
410
只看该作者 3楼 发表于: 2017-05-31
感谢分享

离线wannam

发帖
2703
金钱
87077
威望
382
贡献值
189
交易币
3346
只看该作者 4楼 发表于: 2017-06-04
I'll be there真是永远的经典,mj童年清透又具有穿透力的嗓音加上细腻婉转的情绪演绎得让听者无法不动容。
离线lifan_npl

发帖
2213
金钱
31997
威望
853
贡献值
430
交易币
2594
只看该作者 5楼 发表于: 2017-06-10
楼主  好碟啊
我的淘宝店:
http://shop63152617.taobao.com  
离线mjnet

发帖
381
金钱
30546
威望
104
贡献值
54
交易币
558
只看该作者 6楼 发表于: 2017-06-25
最愛日盤
离线肯尼

发帖
959
金钱
6465
威望
442
贡献值
239
交易币
1468
只看该作者 7楼 发表于: 2017-09-10
感谢分享!
Remixed & Designed by Kenny Saxton ©
离线mjlove98

发帖
2585
金钱
4080
威望
197
贡献值
123
交易币
2663
只看该作者 8楼 发表于: 2017-12-30
Re:[Album 1970] Third Album (1992) (JP - POCT 1835) - WAV整轨 ?by幽灵
感谢分享了
离线mjbad25

发帖
168
金钱
4677
威望
0
贡献值
1
交易币
173
只看该作者 9楼 发表于: 2018-06-12
这种现在淘宝如果有,至少几百元一张,谢谢分享
快速回复
限100 字节
 
上一个 下一个