论坛风格切换切换到宽版
  • 622阅读
  • 9回复

[亲传][Album 1970] Third Album (1992) (JP - POCT 1835) - WAV整轨 ♬by幽灵 [复制链接]

上一主题 下一主题
离线mjghosts
 

发帖
8244
金钱
217720
威望
9174
贡献值
2723
交易币
4755
只看楼主 倒序阅读 楼主  发表于: 2017-05-29
— 本帖被 mjghosts 执行加亮操作(2017-05-29) —
*1970年J5的第三张专辑,抓轨的CD是92年日二版。 jt,dr3|/n  
:$5$H  
注:独家整理,转载请注明出处!EAC无损整轨(压缩包内含CD图片) s6+`cC4  
fOtzb YVC  
解压密码:www.mjsunny.com
w_hN2eYo&e  
N_^s;Qj  
IqrT@jgN-  
H\!p%Y  
h qT6]*  
>u R0 Xs;V  
Exact Audio Copy V1.0 beta 6 from 9. April 2015 e$=UA%  
BK;Gh0mp  
EAC 抓取日志文件从29. 五月 2017, 3:23 9qcA+gz:|  
%3;vDB*L$  
Jackson 5 / Third Album C(@#I7G  
;:DDz  
使用驱动器  :MATSHITADVD-RAM UJ890AS   Adapter: 1  ID: 1 /; {E}`  
o4PJ9x5R!  
读取模式      : 可靠Secure kfj)`x  
使用精确流     : 是 @]F1J  
清空音频缓存    : 否 UYw=i4J'  
使用 C2 指示器 : 是 ` G- V %  
;Y9-0W  
读取偏移校正:               : 102 -~] q?k?  
读取 Lead-In 和 Lead-Out : 否 r7^oqEp@B  
用静音填充抓取中丢失偏移的采样       : 是 j@u]( nf  
去除首尾静音块               : 否 [JVEKc ym  
在CRC 计算中使用了空样本       : 是 K 7 OIT2-  
已用接口                  : Win NT 及 2000 本地 Win32 接口 ? FlQ\q  
G_]zymXQ  
所用输出模式: : 内部 WAV 函数 pf$gvL  
样本格式    : 44.100 Hz; 16 Bit; 立体声 lG5KZ[/Or  
92x)Pc^D  
+L|x^ B3  
已抓取 CD 的 TOC V+5av Z}  
bae;2| w  
     音轨 |    起始    |    长度    |  起始扇区  |  结束扇区   UC_o;  
    -------------------------------------------- +ib&6IU  
      1 |  0:00.37 |  3:59.65 |     37 |  18026 #/> a`Ur_  
      2 |  4:00.27 |  2:34.55 |  18027 |  29631 ^8KxU  
      3 |  6:35.07 |  2:17.05 |  29632 |  39911 1~Z   
      4 |  8:52.12 |  5:53.07 |  39912 |  66393 0t[ 1#!=k  
      5 | 14:45.19 |  3:10.08 |  66394 |  80651 {n&GZG"f  
      6 | 17:55.27 |  3:33.47 |  80652 |  96673 jx{ fel  
      7 | 21:28.74 |  2:41.45 |  96674 | 108793 `=S%!akj  
      8 | 24:10.44 |  3:08.65 | 108794 | 122958 'P*OzZ4>$  
      9 | 27:19.34 |  3:29.23 | 122959 | 138656 k!bG![Ie|  
     10 | 30:48.57 |  4:22.47 | 138657 | 158353 p2U6B  
     11 | 35:11.29 |  2:38.33 | 158354 | 170236 #l h' !  
wwv+s~(0  
E62_k 0q  
范围状态及错误 ZuZCIqN  
@^J>. g  
已选择范围 :Rnwyj])  
|/$954Hr#<  
     文件名 J:\12 Music*音乐\[WAV] Michael Jackson Audios\=【Jackson 5 1970】Third Album (1992) (JP - POCT 1835)\CDImage.wav ]"htOO  
94]i|2qj*  
     峰值电平 87.1 % la4%Vqwgu  
     抓取速度 5.6 X -}( o+!nl  
     范围质量 100.0 % NS TO\36  
     复制 CRC 25F0A581 84i0h$ZZo  
     复制成功 B[ D s?:  
%qqeL   
没有错误发生 0]$-}AYM  
rSm#/)4A  
"{3|(Qs  
AccurateRip 摘要 <1:I[b  
]"YXa~b  
音轨  1  不能准确地校验 (确认 2)  [4D2604EC], 返回 AccurateRip [14C186F8]  (AR v2) TIaiJvo  
音轨  2  不能准确地校验 (确认 2)  [CF32D4E4], 返回 AccurateRip [34BA8D35]  (AR v2) c? GV  
音轨  3  不能准确地校验 (确认 2)  [FDAA53D4], 返回 AccurateRip [3BA1BC0C]  (AR v2) w vI v+Q9  
音轨  4  不能准确地校验 (确认 2)  [2921EBCB], 返回 AccurateRip [A3A1AC68]  (AR v2) 9(_n8br1  
音轨  5  不能准确地校验 (确认 2)  [E2560BA7], 返回 AccurateRip [9B3F0B25]  (AR v2) G Uh<AG*+  
音轨  6  不能准确地校验 (确认 2)  [F383E42B], 返回 AccurateRip [A1BB41EE]  (AR v2) 98 uMD  
音轨  7  不能准确地校验 (确认 2)  [808A8561], 返回 AccurateRip [74BD7965]  (AR v2) "+ k}#<P4\  
音轨  8  不能准确地校验 (确认 2)  [07E61CE8], 返回 AccurateRip [BF735228]  (AR v2) Q7UQwAN'  
音轨  9  不能准确地校验 (确认 2)  [315DC249], 返回 AccurateRip [547AC769]  (AR v2) 3RcnoXX_  
音轨 10  不能准确地校验 (确认 2)  [0C4B0310], 返回 AccurateRip [23BAFF9A]  (AR v2) rsw= a_S  
音轨 11  不能准确地校验 (确认 2)  [0141F162], 返回 AccurateRip [CB5D6BD8]  (AR v2) {?A/1q4rr  
89P7iSV#*  
没有音轨被准确核实 BE0Xg  
你的版本可能与数据库的版本不同 \`-xxhb?e  
%/_E8GE  
状态报告结尾
&k`lb kq  
gnf4H V~  
链接:http://pan.baidu.com/s/1ge4pFof 密码: ogV v 8Xb  
此帖售价 5 金钱,已有 8 人购买 [记录] [购买]
购买后,将显示帖子中所有出售内容。
若发现会员采用欺骗的方法获取财富,请立刻举报,我们会对会员处以2-N倍的罚金,严重者封掉ID!
此段为出售的内容,购买后显示
离线michaelpf

发帖
26
金钱
1044
威望
76
贡献值
10
交易币
21
只看该作者 1楼 发表于: 2017-05-30
沙发我先来支持。谢谢楼主经常奉献神器
Michael,I love you!六道轮回  
离线michael0829

发帖
955
金钱
9574
威望
90
贡献值
70
交易币
1204
只看该作者 2楼 发表于: 2017-05-30
年代远久的CD,谢谢分享啊!
I Love You Michael Jackson Forever!
I Just Can't Stop Loving You Michel!

发帖
2735
金钱
31355
威望
620
贡献值
37
交易币
388
只看该作者 3楼 发表于: 2017-05-31
感谢分享

离线wannam

发帖
2702
金钱
87012
威望
382
贡献值
189
交易币
3345
只看该作者 4楼 发表于: 2017-06-04
I'll be there真是永远的经典,mj童年清透又具有穿透力的嗓音加上细腻婉转的情绪演绎得让听者无法不动容。
在线lifan_npl

发帖
2189
金钱
19354
威望
816
贡献值
395
交易币
2550
只看该作者 5楼 发表于: 2017-06-10
楼主  好碟啊
我的淘宝:
http://shop63152617.taobao.com  
离线mjnet

发帖
380
金钱
30479
威望
104
贡献值
54
交易币
557
只看该作者 6楼 发表于: 2017-06-25
最愛日盤
离线肯尼

发帖
955
金钱
7435
威望
431
贡献值
228
交易币
1440
只看该作者 7楼 发表于: 2017-09-10
感谢分享!
顺势待发张元穹 Kenny Saxton @肯尼 & 齐奕同Michael Qi @迈颤我栗
2014年6月25日 合辑 火热制作中
2014 MJFantastics Music International Ltd.
离线mjlove98

发帖
2559
金钱
5237
威望
197
贡献值
123
交易币
2637
只看该作者 8楼 发表于: 2017-12-30
Re:[Album 1970] Third Album (1992) (JP - POCT 1835) - WAV整轨 ?by幽灵
感谢分享了
离线mjbad25

发帖
160
金钱
5532
威望
0
贡献值
1
交易币
165
只看该作者 9楼 发表于: 06-12
这种现在淘宝如果有,至少几百元一张,谢谢分享
快速回复
限100 字节
 
上一个 下一个