论坛风格切换切换到宽版
  • 903阅读
  • 14回复

[亲传][Album 1980] Triumph (1986) (JP - 32·8P-181) - WAV整轨 ♬by幽灵 [复制链接]

上一主题 下一主题
离线mjghosts
 

发帖
8256
金钱
219309
威望
9187
贡献值
2734
交易币
4791
只看楼主 倒序阅读 楼主  发表于: 2017-05-29
— 本帖被 mjghosts 执行加亮操作(2017-05-29) —
*1980年发行的Jacksons专辑,抓轨的CD是86年日本首版。 ^ Paf-/  
uZM%F)  
注:独家整理,转载请注明出处!EAC无损整轨(压缩包内含CD图片) K=! C\T"I%  
G#Kw6  
解压密码:www.mjsunny.com
Bz(L}V]\k  
j[Jwa*GQP  
6u'E}hAx|  
2:@,~{`#*  
N\"Hf=Y(~  
TNDp{!<|L;  
Exact Audio Copy V1.0 beta 6 from 9. April 2015 cA+T-A]  
;VzdlCZ@  
EAC 抓取日志文件从29. 五月 2017, 3:04 @QMU$]&i]  
:%gM Xsb  
The Jacksons / Triumph j u&v4]  
t7yvd7  
使用驱动器  :MATSHITADVD-RAM UJ890AS   Adapter: 1  ID: 1 /2''EF';  
?E,-P!&R  
读取模式      : 可靠Secure X(O:y^sX}  
使用精确流     : 是 TS`m&N{i")  
清空音频缓存    : 否 .F'Cb)Z  
使用 C2 指示器 : 是 k0&FUO  
pHowioFx  
读取偏移校正:               : 102 D^xg2D  
读取 Lead-In 和 Lead-Out : 否 IA Ws}xIly  
用静音填充抓取中丢失偏移的采样       : 是 uJ=d!Kn  
去除首尾静音块               : 否 DxD\o+:r  
在CRC 计算中使用了空样本       : 是 vTo+jQs^  
已用接口                  : Win NT 及 2000 本地 Win32 接口 CfO{KiM(2  
^hsr/|  
所用输出模式: : 内部 WAV 函数 v-8{mK`9\  
样本格式    : 44.100 Hz; 16 Bit; 立体声 [0 rH/{  
lKf kRyO_S  
0$NzRPbH  
已抓取 CD 的 TOC f'MRC \  
w#_7,*6]  
     音轨 |    起始    |    长度    |  起始扇区  |  结束扇区   ;dtA-EfOZ  
    -------------------------------------------- 1;+77<  
      1 |  0:00.00 |  6:00.62 |      0 |  27061 lfG',hlI;  
      2 |  6:00.62 |  4:52.38 |  27062 |  48999 @My RcC  
      3 | 10:53.25 |  4:31.47 |  49000 |  69371 _j4 K  
      4 | 15:24.72 |  5:00.03 |  69372 |  91874 V3T.EW  
      5 | 20:25.00 |  5:44.32 |  91875 | 117706 B qINU  
      6 | 26:09.32 |  3:24.43 | 117707 | 133049 gK"(;Jih$  
      7 | 29:34.00 |  6:29.60 | 133050 | 162284 M04u>| ,  
      8 | 36:03.60 |  4:21.40 | 162285 | 181899 PN= 5ICT  
      9 | 40:25.25 |  4:20.40 | 181900 | 201439 TwF.UL@G%  
Y9 Bk$$#\  
f =A#:d  
范围状态及错误 6(7dr?^eGT  
|Om9(xT  
已选择范围 KNN$+[_;H4  
>) Bv>HM  
     文件名 J:\12 Music*音乐\[WAV] Michael Jackson Audios\=【The Jacksons 1980】Triumph (1986) (JP - 32·8P-181)\CDImage.wav qVO,sKQ{  
h#dfhcU>  
     峰值电平 100.0 % #s#BYbF  
     抓取速度 6.2 X {9) HB:  
     范围质量 100.0 % |eFaOL|  
     复制 CRC CF1F2C6E _;/+8=  
     复制成功 G)f!AuN=  
h Z/p'  
没有错误发生 /n:Q>8^n'W  
sPl3JP&s  
)4hA Fy6l  
AccurateRip 摘要 hBifn\dFr  
($8!r|g5#  
音轨  1  不能准确地校验 (确认 7)  [F691A799], 返回 AccurateRip [B64B7901]  (AR v2) }AiF 7N0  
音轨  2  不能准确地校验 (确认 7)  [8FE64ABB], 返回 AccurateRip [D41043FC]  (AR v2) _EP~PW#J  
音轨  3  不能准确地校验 (确认 7)  [A078D7D4], 返回 AccurateRip [E43FDF47]  (AR v2) <xrya _R?  
音轨  4  不能准确地校验 (确认 7)  [CB1AB794], 返回 AccurateRip [84B9FCEA]  (AR v2) RSw; b.t7  
音轨  5  不能准确地校验 (确认 7)  [7C22FA08], 返回 AccurateRip [8B371230]  (AR v2) +tG'  
音轨  6  不能准确地校验 (确认 7)  [A2D9B621], 返回 AccurateRip [686E98EE]  (AR v2) "ub0}p4V  
音轨  7  不能准确地校验 (确认 7)  [ACED051F], 返回 AccurateRip [BFACF3AA]  (AR v2) w4&\-S#  
音轨  8  不能准确地校验 (确认 7)  [6026005C], 返回 AccurateRip [69462A41]  (AR v2) 83aWMmA(1  
音轨  9  不能准确地校验 (确认 7)  [BB262EF8], 返回 AccurateRip [A03ACE48]  (AR v2) ,w=u?  
e5"5 U7  
没有音轨被准确核实 o{l]n*  
你的版本可能与数据库的版本不同 zyt >(A1  
\JCpwNT{P  
状态报告结尾
\ NKw,`/  
9Sa6v?sRor  
链接:http://pan.baidu.com/s/1boUgngF 密码: N| P?!G-=  
此帖售价 5 金钱,已有 13 人购买 [记录] [购买]
购买后,将显示帖子中所有出售内容。
若发现会员采用欺骗的方法获取财富,请立刻举报,我们会对会员处以2-N倍的罚金,严重者封掉ID!
此段为出售的内容,购买后显示
离线michael0829

发帖
955
金钱
10054
威望
90
贡献值
70
交易币
1204
只看该作者 1楼 发表于: 2017-05-30
不太喜欢Michael的兄弟们,虽然Jacksons时期专辑也有Michael!
I Love You Michael Jackson Forever!
I Just Can't Stop Loving You Michel!
离线Mr灬W

发帖
1130
金钱
12952
威望
161
贡献值
56
交易币
1283
只看该作者 2楼 发表于: 2017-05-30
感谢分享!
Heal The World
离线大彩电

发帖
5970
金钱
5918
威望
354
贡献值
90
交易币
273
只看该作者 3楼 发表于: 2017-05-30
最爱的时期


发帖
2750
金钱
30821
威望
621
贡献值
38
交易币
407
只看该作者 4楼 发表于: 2017-05-31
感谢分享。


发帖
2750
金钱
30821
威望
621
贡献值
38
交易币
407
只看该作者 5楼 发表于: 2017-05-31
感谢分享  1X&jlD?  

离线wannam

发帖
2703
金钱
87033
威望
382
贡献值
189
交易币
3346
只看该作者 6楼 发表于: 2017-06-04
喜欢this place hotel
离线lifan_npl

发帖
2211
金钱
31689
威望
853
贡献值
430
交易币
2592
只看该作者 7楼 发表于: 2017-06-10
楼主  好碟啊
我的淘宝店:
http://shop63152617.taobao.com  
离线mjnet

发帖
381
金钱
30548
威望
104
贡献值
54
交易币
558
只看该作者 8楼 发表于: 2017-06-25
日盤沒有!!謝謝!!!
离线肯尼

发帖
959
金钱
6465
威望
442
贡献值
239
交易币
1468
只看该作者 9楼 发表于: 2017-09-10
感谢分享。
Remixed & Designed by Kenny Saxton ©
快速回复
限100 字节
 
上一个 下一个