论坛风格切换切换到宽版
  • 697阅读
  • 12回复

[亲传][Album 1980] Triumph (1986) (JP - 32·8P-181) - WAV整轨 ♬by幽灵 [复制链接]

上一主题 下一主题
离线mjghosts
 

发帖
8244
金钱
217720
威望
9174
贡献值
2723
交易币
4755
只看楼主 倒序阅读 楼主  发表于: 2017-05-29
— 本帖被 mjghosts 执行加亮操作(2017-05-29) —
*1980年发行的Jacksons专辑,抓轨的CD是86年日本首版。 7h~M&\M  
b"b!&u  
注:独家整理,转载请注明出处!EAC无损整轨(压缩包内含CD图片) '%N p9Iqt  
aHw VoT  
解压密码:www.mjsunny.com
r%4:,{HF  
jBM>Pe^`3  
r\zK>GVm_  
%zGPF  
<mxUgU  
#Xc~3rg9  
Exact Audio Copy V1.0 beta 6 from 9. April 2015 ,?}TSJKC  
Ruf*aF(  
EAC 抓取日志文件从29. 五月 2017, 3:04 V3UEuA  
4|~o<t8  
The Jacksons / Triumph y+c+/L8  
ZN. #g_  
使用驱动器  :MATSHITADVD-RAM UJ890AS   Adapter: 1  ID: 1 7r:!HmRl  
JVN0];IL}  
读取模式      : 可靠Secure tX)^$3A  
使用精确流     : 是 a8NL  
清空音频缓存    : 否 %R."  
使用 C2 指示器 : 是 Zh,(/-XN;  
]sB-}n)  
读取偏移校正:               : 102 ,#m:U5#h  
读取 Lead-In 和 Lead-Out : 否 *> LA30R*v  
用静音填充抓取中丢失偏移的采样       : 是 \SKobO?qI  
去除首尾静音块               : 否 07b =Zhh  
在CRC 计算中使用了空样本       : 是 4 '"C8vw.  
已用接口                  : Win NT 及 2000 本地 Win32 接口 '-X[T}  
G9_7jX*  
所用输出模式: : 内部 WAV 函数 {:] u 6l  
样本格式    : 44.100 Hz; 16 Bit; 立体声 ;"B@QPX  
:lW8f~!  
nT :n>ja  
已抓取 CD 的 TOC 6t=)1T  
MzMVs3w|  
     音轨 |    起始    |    长度    |  起始扇区  |  结束扇区   .On3ZN  
    -------------------------------------------- (y s<{Y-;  
      1 |  0:00.00 |  6:00.62 |      0 |  27061 P~84#5R1  
      2 |  6:00.62 |  4:52.38 |  27062 |  48999 v6H!.0  
      3 | 10:53.25 |  4:31.47 |  49000 |  69371 ^fV-m&F)K*  
      4 | 15:24.72 |  5:00.03 |  69372 |  91874 e5D\m g)  
      5 | 20:25.00 |  5:44.32 |  91875 | 117706 pgW^hj\  
      6 | 26:09.32 |  3:24.43 | 117707 | 133049 e0]#vqdO  
      7 | 29:34.00 |  6:29.60 | 133050 | 162284 'J)9#  
      8 | 36:03.60 |  4:21.40 | 162285 | 181899 W)^%/lAh  
      9 | 40:25.25 |  4:20.40 | 181900 | 201439 RB6TM  
n<F3&2w  
@1qdnU  
范围状态及错误 ` +)Bl%*  
yTNHM_P  
已选择范围 jthyZZ   
|h&okR+_,  
     文件名 J:\12 Music*音乐\[WAV] Michael Jackson Audios\=【The Jacksons 1980】Triumph (1986) (JP - 32·8P-181)\CDImage.wav =B`=f,,#3  
1_8@yO  
     峰值电平 100.0 % =AF;3  
     抓取速度 6.2 X kLXa1^Lq  
     范围质量 100.0 % H1 i+j;RN  
     复制 CRC CF1F2C6E sqj8I"<`  
     复制成功 3g0v,7,Zv  
I@1VX5  
没有错误发生 C2L=i3R  
ciN*gwI)  
iUS?xKN$~-  
AccurateRip 摘要 *{=q:E$  
D Z=OZ.v  
音轨  1  不能准确地校验 (确认 7)  [F691A799], 返回 AccurateRip [B64B7901]  (AR v2) B,A\/%<  
音轨  2  不能准确地校验 (确认 7)  [8FE64ABB], 返回 AccurateRip [D41043FC]  (AR v2) 0"u=g)3  
音轨  3  不能准确地校验 (确认 7)  [A078D7D4], 返回 AccurateRip [E43FDF47]  (AR v2) sV`XJ9e|  
音轨  4  不能准确地校验 (确认 7)  [CB1AB794], 返回 AccurateRip [84B9FCEA]  (AR v2) vpu   
音轨  5  不能准确地校验 (确认 7)  [7C22FA08], 返回 AccurateRip [8B371230]  (AR v2) Oz.Zxw  
音轨  6  不能准确地校验 (确认 7)  [A2D9B621], 返回 AccurateRip [686E98EE]  (AR v2) MZSyu  
音轨  7  不能准确地校验 (确认 7)  [ACED051F], 返回 AccurateRip [BFACF3AA]  (AR v2) Bh!J&SM:  
音轨  8  不能准确地校验 (确认 7)  [6026005C], 返回 AccurateRip [69462A41]  (AR v2) "C [uz&  
音轨  9  不能准确地校验 (确认 7)  [BB262EF8], 返回 AccurateRip [A03ACE48]  (AR v2) |-VbJd  
F84?Mi{r2  
没有音轨被准确核实 W[j7Vi8v  
你的版本可能与数据库的版本不同 7q:  
hk1jxnQ h  
状态报告结尾
{:9P4<%H  
/I&b5Vp  
链接:http://pan.baidu.com/s/1boUgngF 密码: in6iJ*E@'  
此帖售价 5 金钱,已有 11 人购买 [记录] [购买]
购买后,将显示帖子中所有出售内容。
若发现会员采用欺骗的方法获取财富,请立刻举报,我们会对会员处以2-N倍的罚金,严重者封掉ID!
此段为出售的内容,购买后显示
离线michael0829

发帖
955
金钱
9574
威望
90
贡献值
70
交易币
1204
只看该作者 1楼 发表于: 2017-05-30
不太喜欢Michael的兄弟们,虽然Jacksons时期专辑也有Michael!
I Love You Michael Jackson Forever!
I Just Can't Stop Loving You Michel!
离线Mr灬W

发帖
1129
金钱
12950
威望
161
贡献值
56
交易币
1282
只看该作者 2楼 发表于: 2017-05-30
感谢分享!
Heal The World
离线大彩电

发帖
5969
金钱
5338
威望
354
贡献值
90
交易币
272
只看该作者 3楼 发表于: 2017-05-30
最爱的时期


发帖
2735
金钱
31355
威望
620
贡献值
37
交易币
388
只看该作者 4楼 发表于: 2017-05-31
感谢分享。


发帖
2735
金钱
31355
威望
620
贡献值
37
交易币
388
只看该作者 5楼 发表于: 2017-05-31
感谢分享 B%s7bS  

离线wannam

发帖
2702
金钱
87012
威望
382
贡献值
189
交易币
3345
只看该作者 6楼 发表于: 2017-06-04
喜欢this place hotel
在线lifan_npl

发帖
2189
金钱
19354
威望
816
贡献值
395
交易币
2550
只看该作者 7楼 发表于: 2017-06-10
楼主  好碟啊
我的淘宝:
http://shop63152617.taobao.com  
离线mjnet

发帖
380
金钱
30479
威望
104
贡献值
54
交易币
557
只看该作者 8楼 发表于: 2017-06-25
日盤沒有!!謝謝!!!
离线肯尼

发帖
955
金钱
7435
威望
431
贡献值
228
交易币
1440
只看该作者 9楼 发表于: 2017-09-10
感谢分享。
顺势待发张元穹 Kenny Saxton @肯尼 & 齐奕同Michael Qi @迈颤我栗
2014年6月25日 合辑 火热制作中
2014 MJFantastics Music International Ltd.
快速回复
限100 字节
 
上一个 下一个