论坛风格切换切换到宽版
  • 1200阅读
  • 14回复

[亲传][Album 1980] Triumph (1986) (JP - 32·8P-181) - WAV整轨 ♬by幽灵 [复制链接]

上一主题 下一主题
离线mjghosts
 

发帖
8261
金钱
219535
威望
9187
贡献值
2734
交易币
4796
只看楼主 倒序阅读 楼主  发表于: 2017-05-29
— 本帖被 mjghosts 执行加亮操作(2017-05-29) —
*1980年发行的Jacksons专辑,抓轨的CD是86年日本首版。 WMl_$Fd6  
.r]n<  
注:独家整理,转载请注明出处!EAC无损整轨(压缩包内含CD图片) 0D 0#*J  
Q;5aM%a`  
解压密码:www.mjsunny.com
4Mg09  
xI_WkoI  
$3"0w   
7Zr jU {  
uA\A4  
qY#*zx  
Exact Audio Copy V1.0 beta 6 from 9. April 2015 2ZLK`^S  
} vcr71u  
EAC 抓取日志文件从29. 五月 2017, 3:04 Tz%l 9aC  
-cIc&5CS  
The Jacksons / Triumph ux{OgF fi  
@{t^8I#]  
使用驱动器  :MATSHITADVD-RAM UJ890AS   Adapter: 1  ID: 1 T /[)U  
1mA)=hu  
读取模式      : 可靠Secure VO++(G)  
使用精确流     : 是 f\/};a  
清空音频缓存    : 否 0!+ab'3a  
使用 C2 指示器 : 是 AS4m227  
+wT,dUin_<  
读取偏移校正:               : 102 Km\M /j|  
读取 Lead-In 和 Lead-Out : 否 t@)~{W {  
用静音填充抓取中丢失偏移的采样       : 是 |a^ydwb  
去除首尾静音块               : 否 rKi)VVkx_  
在CRC 计算中使用了空样本       : 是 $o]suF;3  
已用接口                  : Win NT 及 2000 本地 Win32 接口 /[{?zS{  
f_;3|i  
所用输出模式: : 内部 WAV 函数 R<JI  
样本格式    : 44.100 Hz; 16 Bit; 立体声 G-,PsXSwe  
Lg9ktRKK  
hM>xe8yE  
已抓取 CD 的 TOC ;5y!,OF6  
y fP&Q<|  
     音轨 |    起始    |    长度    |  起始扇区  |  结束扇区   N}Q,  
    -------------------------------------------- |,}QhR  
      1 |  0:00.00 |  6:00.62 |      0 |  27061 i<=@ 7W  
      2 |  6:00.62 |  4:52.38 |  27062 |  48999 CGv(dE,G&]  
      3 | 10:53.25 |  4:31.47 |  49000 |  69371 2.; OHQTE  
      4 | 15:24.72 |  5:00.03 |  69372 |  91874 D:.^]o[  
      5 | 20:25.00 |  5:44.32 |  91875 | 117706 )[qY|yu  
      6 | 26:09.32 |  3:24.43 | 117707 | 133049 JziMjR  
      7 | 29:34.00 |  6:29.60 | 133050 | 162284 LM*9b  
      8 | 36:03.60 |  4:21.40 | 162285 | 181899 :%!SzI?  
      9 | 40:25.25 |  4:20.40 | 181900 | 201439 FIG5]u  
^Jc~G~x4*  
M_*w)<  
范围状态及错误 nz>A\H  
urtcSq&H'  
已选择范围 's&Vg09D,  
-B`;Sx  
     文件名 J:\12 Music*音乐\[WAV] Michael Jackson Audios\=【The Jacksons 1980】Triumph (1986) (JP - 32·8P-181)\CDImage.wav 1f}S:Z  
[3/P EDkw  
     峰值电平 100.0 % 9N'$Y*. d<  
     抓取速度 6.2 X %*jpQOw  
     范围质量 100.0 % /~AwX8X  
     复制 CRC CF1F2C6E ^g~-$t<!  
     复制成功 `5!7Il  
.|iUDp6vz  
没有错误发生 %|-Rh^H[JK  
kdW i!Hp  
]8H;LgM2  
AccurateRip 摘要 co~TQpy^  
\Dt0 } ?;k  
音轨  1  不能准确地校验 (确认 7)  [F691A799], 返回 AccurateRip [B64B7901]  (AR v2) y()#FRp7  
音轨  2  不能准确地校验 (确认 7)  [8FE64ABB], 返回 AccurateRip [D41043FC]  (AR v2) 71)HxC[6vA  
音轨  3  不能准确地校验 (确认 7)  [A078D7D4], 返回 AccurateRip [E43FDF47]  (AR v2) m6 IZG l7%  
音轨  4  不能准确地校验 (确认 7)  [CB1AB794], 返回 AccurateRip [84B9FCEA]  (AR v2) PE4{;|a }  
音轨  5  不能准确地校验 (确认 7)  [7C22FA08], 返回 AccurateRip [8B371230]  (AR v2) yGN<.IP75  
音轨  6  不能准确地校验 (确认 7)  [A2D9B621], 返回 AccurateRip [686E98EE]  (AR v2) b!`:|!7r'  
音轨  7  不能准确地校验 (确认 7)  [ACED051F], 返回 AccurateRip [BFACF3AA]  (AR v2) BJ&>'rc  
音轨  8  不能准确地校验 (确认 7)  [6026005C], 返回 AccurateRip [69462A41]  (AR v2) c)$/Uu  
音轨  9  不能准确地校验 (确认 7)  [BB262EF8], 返回 AccurateRip [A03ACE48]  (AR v2) }4bwLO  
~&KfJ  
没有音轨被准确核实 .#+rH}=Z  
你的版本可能与数据库的版本不同 MJ7!f+!5  
_$, .NK,6  
状态报告结尾
mBnC]$<R  
xDVzHgbf  
链接:http://pan.baidu.com/s/1boUgngF 密码: 4}NFa; M1  
此帖售价 5 金钱,已有 13 人购买 [记录] [购买]
购买后,将显示帖子中所有出售内容。
若发现会员采用欺骗的方法获取财富,请立刻举报,我们会对会员处以2-N倍的罚金,严重者封掉ID!
此段为出售的内容,购买后显示
离线michael0829

发帖
957
金钱
10559
威望
90
贡献值
70
交易币
1206
只看该作者 1楼 发表于: 2017-05-30
不太喜欢Michael的兄弟们,虽然Jacksons时期专辑也有Michael!
I Love You Michael Jackson Forever!
I Just Can't Stop Loving You Michel!
离线Mr灬W

发帖
1130
金钱
12952
威望
161
贡献值
56
交易币
1283
只看该作者 2楼 发表于: 2017-05-30
感谢分享!
Heal The World
离线大彩电

发帖
5970
金钱
6538
威望
354
贡献值
90
交易币
273
只看该作者 3楼 发表于: 2017-05-30
最爱的时期


发帖
2763
金钱
30921
威望
621
贡献值
38
交易币
420
只看该作者 4楼 发表于: 2017-05-31
感谢分享。


发帖
2763
金钱
30921
威望
621
贡献值
38
交易币
420
只看该作者 5楼 发表于: 2017-05-31
感谢分享 h` n>6I  

离线wannam

发帖
2703
金钱
87079
威望
382
贡献值
189
交易币
3346
只看该作者 6楼 发表于: 2017-06-04
喜欢this place hotel
离线lifan_npl

发帖
2217
金钱
31760
威望
853
贡献值
430
交易币
2598
只看该作者 7楼 发表于: 2017-06-10
楼主  好碟啊
我的淘宝店:
http://shop63152617.taobao.com  
离线mjnet

发帖
381
金钱
30546
威望
104
贡献值
54
交易币
558
只看该作者 8楼 发表于: 2017-06-25
日盤沒有!!謝謝!!!
离线肯尼

发帖
959
金钱
6535
威望
442
贡献值
239
交易币
1468
只看该作者 9楼 发表于: 2017-09-10
感谢分享。
Remixed & Designed by Kenny Saxton ©
快速回复
限100 字节
 
上一个 下一个