论坛风格切换切换到宽版
  • 1342阅读
  • 14回复

[亲传][Album 1980] Triumph (1986) (JP - 32·8P-181) - WAV整轨 ♬by幽灵 [复制链接]

上一主题 下一主题
离线mjghosts
 

发帖
8262
金钱
219666
威望
9187
贡献值
2734
交易币
4797
只看楼主 倒序阅读 楼主  发表于: 2017-05-29
— 本帖被 mjghosts 执行加亮操作(2017-05-29) —
*1980年发行的Jacksons专辑,抓轨的CD是86年日本首版。 Y+gNi_dE  
}?*$AVs2q  
注:独家整理,转载请注明出处!EAC无损整轨(压缩包内含CD图片) nnTiu,2R  
$U'*}S  
解压密码:www.mjsunny.com
zor  
lt%9Zgr[u  
1cV0TUrz  
,vB nr_D#  
x5k6"S"1,  
o`nJJ:Cxq-  
Exact Audio Copy V1.0 beta 6 from 9. April 2015 `~1#X  
gH0Rd WX  
EAC 抓取日志文件从29. 五月 2017, 3:04 <<&SyP  
_ 3{8Zg  
The Jacksons / Triumph !X1 KOG  
5oR)  
使用驱动器  :MATSHITADVD-RAM UJ890AS   Adapter: 1  ID: 1 O>IG7Ujl  
P?zL`czWd  
读取模式      : 可靠Secure =j8g6#'u  
使用精确流     : 是 oSH]TL2@Cd  
清空音频缓存    : 否 D\  P-|}  
使用 C2 指示器 : 是 M2M&L,/O  
) Hqn  
读取偏移校正:               : 102 :(i=> ~O  
读取 Lead-In 和 Lead-Out : 否 Zrq\:KxX  
用静音填充抓取中丢失偏移的采样       : 是 .WlZT-  
去除首尾静音块               : 否 9iGp0_J  
在CRC 计算中使用了空样本       : 是 Oma G|2u  
已用接口                  : Win NT 及 2000 本地 Win32 接口 jC'Diu4|Q  
B{NGrC`5)  
所用输出模式: : 内部 WAV 函数 {Yv5Z.L&(  
样本格式    : 44.100 Hz; 16 Bit; 立体声 %Pk@`t(3  
@*JS[w$1  
A )xfO-  
已抓取 CD 的 TOC 34qfP{9!N  
S{JBV@@tC  
     音轨 |    起始    |    长度    |  起始扇区  |  结束扇区   Wp//SV  
    -------------------------------------------- ,/..f!bp  
      1 |  0:00.00 |  6:00.62 |      0 |  27061 YJB f~0r  
      2 |  6:00.62 |  4:52.38 |  27062 |  48999 E^t}p[s  
      3 | 10:53.25 |  4:31.47 |  49000 |  69371 qr?RU .W  
      4 | 15:24.72 |  5:00.03 |  69372 |  91874 41\V;yib  
      5 | 20:25.00 |  5:44.32 |  91875 | 117706 -\}Ix>  
      6 | 26:09.32 |  3:24.43 | 117707 | 133049 xu* dPG)v  
      7 | 29:34.00 |  6:29.60 | 133050 | 162284 IJofbuzw:  
      8 | 36:03.60 |  4:21.40 | 162285 | 181899 -P=Hp/ELi  
      9 | 40:25.25 |  4:20.40 | 181900 | 201439 ,98`tB0  
Iih]q  
\FjY;rqfKe  
范围状态及错误 =idZvD  
+v"%@lC};  
已选择范围  7VAet  
?\![W5uuXG  
     文件名 J:\12 Music*音乐\[WAV] Michael Jackson Audios\=【The Jacksons 1980】Triumph (1986) (JP - 32·8P-181)\CDImage.wav $7bux 1L  
,5thD  
     峰值电平 100.0 % wv_<be[?*  
     抓取速度 6.2 X #Vh$u%q3  
     范围质量 100.0 % \t@4)+s/)  
     复制 CRC CF1F2C6E xEvm>BZi  
     复制成功 Ve^rzGU  
Y'v;!11#  
没有错误发生 XbKNH>  
,?zOJ,wl  
(YH/#n1"{  
AccurateRip 摘要 Tx\g5rk  
*oU-V#   
音轨  1  不能准确地校验 (确认 7)  [F691A799], 返回 AccurateRip [B64B7901]  (AR v2) ^NPbD<~Lb  
音轨  2  不能准确地校验 (确认 7)  [8FE64ABB], 返回 AccurateRip [D41043FC]  (AR v2) WYNO6Xb#:  
音轨  3  不能准确地校验 (确认 7)  [A078D7D4], 返回 AccurateRip [E43FDF47]  (AR v2) ccu13Kr>E  
音轨  4  不能准确地校验 (确认 7)  [CB1AB794], 返回 AccurateRip [84B9FCEA]  (AR v2) ~^R?HS  
音轨  5  不能准确地校验 (确认 7)  [7C22FA08], 返回 AccurateRip [8B371230]  (AR v2) v5N2$Sqp*  
音轨  6  不能准确地校验 (确认 7)  [A2D9B621], 返回 AccurateRip [686E98EE]  (AR v2) ~M4@hG!  
音轨  7  不能准确地校验 (确认 7)  [ACED051F], 返回 AccurateRip [BFACF3AA]  (AR v2) ]~A<Q{  
音轨  8  不能准确地校验 (确认 7)  [6026005C], 返回 AccurateRip [69462A41]  (AR v2) |U4t 8  
音轨  9  不能准确地校验 (确认 7)  [BB262EF8], 返回 AccurateRip [A03ACE48]  (AR v2) J \V.J/  
[M{EO)  
没有音轨被准确核实 tuiQk=[ c  
你的版本可能与数据库的版本不同 Lv{xwHnE  
7berkU0P  
状态报告结尾
;dh8|ujh  
m*^|9*dIC  
链接:http://pan.baidu.com/s/1boUgngF 密码: |_P-  
此帖售价 5 金钱,已有 13 人购买 [记录] [购买]
购买后,将显示帖子中所有出售内容。
若发现会员采用欺骗的方法获取财富,请立刻举报,我们会对会员处以2-N倍的罚金,严重者封掉ID!
此段为出售的内容,购买后显示
离线michael0829

发帖
958
金钱
10879
威望
90
贡献值
70
交易币
1207
只看该作者 1楼 发表于: 2017-05-30
不太喜欢Michael的兄弟们,虽然Jacksons时期专辑也有Michael!
I Love You Michael Jackson Forever!
I Just Can't Stop Loving You Michel!
离线Mr灬W

发帖
1130
金钱
12952
威望
161
贡献值
56
交易币
1283
只看该作者 2楼 发表于: 2017-05-30
感谢分享!
Heal The World
离线大彩电

发帖
5970
金钱
6978
威望
354
贡献值
90
交易币
273
只看该作者 3楼 发表于: 2017-05-30
最爱的时期


发帖
2769
金钱
30908
威望
622
贡献值
39
交易币
430
只看该作者 4楼 发表于: 2017-05-31
感谢分享。


发帖
2769
金钱
30908
威望
622
贡献值
39
交易币
430
只看该作者 5楼 发表于: 2017-05-31
感谢分享 -Y=c g;  

离线wannam

发帖
2703
金钱
87101
威望
382
贡献值
189
交易币
3346
只看该作者 6楼 发表于: 2017-06-04
喜欢this place hotel
离线lifan_npl

发帖
2225
金钱
31745
威望
853
贡献值
430
交易币
2606
只看该作者 7楼 发表于: 2017-06-10
楼主  好碟啊
我的淘宝店:
http://shop63152617.taobao.com  
离线mjnet

发帖
381
金钱
30546
威望
104
贡献值
54
交易币
558
只看该作者 8楼 发表于: 2017-06-25
日盤沒有!!謝謝!!!
离线肯尼

发帖
959
金钱
6535
威望
442
贡献值
239
交易币
1468
只看该作者 9楼 发表于: 2017-09-10
感谢分享。
Remixed & Designed by Kenny Saxton ©
快速回复
限100 字节
 
上一个 下一个