论坛风格切换切换到宽版
  • 795阅读
  • 13回复

[亲传][Album 1980] Triumph (1986) (JP - 32·8P-181) - WAV整轨 ♬by幽灵 [复制链接]

上一主题 下一主题
离线mjghosts
 

发帖
8252
金钱
218775
威望
9176
贡献值
2723
交易币
4763
只看楼主 倒序阅读 楼主  发表于: 2017-05-29
— 本帖被 mjghosts 执行加亮操作(2017-05-29) —
*1980年发行的Jacksons专辑,抓轨的CD是86年日本首版。 _M>S=3w  
Vw.4;Zy(  
注:独家整理,转载请注明出处!EAC无损整轨(压缩包内含CD图片) q?w%%.9]X  
+5GC?cW  
解压密码:www.mjsunny.com
,ueA'GZ  
rJp9ut'FEz  
0!c/4^  
! OVi\v 'm  
hR>`I0|p&  
xy)W_~Mk  
Exact Audio Copy V1.0 beta 6 from 9. April 2015 c!$~_?]  
i&}LuF8  
EAC 抓取日志文件从29. 五月 2017, 3:04 EL *l5!Iu  
e 7Sg-NWV  
The Jacksons / Triumph Ac>G F  
=lh&oPc1  
使用驱动器  :MATSHITADVD-RAM UJ890AS   Adapter: 1  ID: 1 _=qk.|p/  
y+.(E-g  
读取模式      : 可靠Secure ' b,zE[Q  
使用精确流     : 是 X*r?@uK5  
清空音频缓存    : 否 XOZ@ek)LY  
使用 C2 指示器 : 是 w (,x{Bg\  
QSo48OFs  
读取偏移校正:               : 102 ;4vx+>-  
读取 Lead-In 和 Lead-Out : 否 B/EGaYH  
用静音填充抓取中丢失偏移的采样       : 是 jdD`C`w|,  
去除首尾静音块               : 否 `7 J4h9K  
在CRC 计算中使用了空样本       : 是 d:n .Vp  
已用接口                  : Win NT 及 2000 本地 Win32 接口 G7HvA46  
Or()AzwE@  
所用输出模式: : 内部 WAV 函数 -fx$)d~  
样本格式    : 44.100 Hz; 16 Bit; 立体声 =NL(L  
eKqo6P:#f  
sCAWrbOe>  
已抓取 CD 的 TOC OxVe}Fym  
&m@DK>  
     音轨 |    起始    |    长度    |  起始扇区  |  结束扇区   `c_Wk] i  
    -------------------------------------------- Qnv)\M1  
      1 |  0:00.00 |  6:00.62 |      0 |  27061 A!`Q[%$  
      2 |  6:00.62 |  4:52.38 |  27062 |  48999 k!wEPi]  
      3 | 10:53.25 |  4:31.47 |  49000 |  69371 >VvA&p71b  
      4 | 15:24.72 |  5:00.03 |  69372 |  91874 $[*<e~?  
      5 | 20:25.00 |  5:44.32 |  91875 | 117706 :.f m LL  
      6 | 26:09.32 |  3:24.43 | 117707 | 133049 /:aY)0F0<&  
      7 | 29:34.00 |  6:29.60 | 133050 | 162284 'W J3q|o/  
      8 | 36:03.60 |  4:21.40 | 162285 | 181899 p#AQXIF0  
      9 | 40:25.25 |  4:20.40 | 181900 | 201439 [Xo[J?w],2  
.d%CD`8!  
MJI`1*(  
范围状态及错误 IX 2 dic'  
R"qxT.P(  
已选择范围 Meo. V|1  
S/7?6y~  
     文件名 J:\12 Music*音乐\[WAV] Michael Jackson Audios\=【The Jacksons 1980】Triumph (1986) (JP - 32·8P-181)\CDImage.wav tx||<8  
rl](0"Y0 t  
     峰值电平 100.0 % h_K!ch }  
     抓取速度 6.2 X @PyZ u7'  
     范围质量 100.0 % FWDAG$K@0  
     复制 CRC CF1F2C6E J'Y;j^  
     复制成功 ~~X-$rtU  
&Z 6s\r%  
没有错误发生 :[.**,0R  
j )b[7%  
4|Ay;}X \  
AccurateRip 摘要 )>U7+ Me  
KetNFwbUf  
音轨  1  不能准确地校验 (确认 7)  [F691A799], 返回 AccurateRip [B64B7901]  (AR v2) 9B?-&t  
音轨  2  不能准确地校验 (确认 7)  [8FE64ABB], 返回 AccurateRip [D41043FC]  (AR v2) z6;6 o!ej  
音轨  3  不能准确地校验 (确认 7)  [A078D7D4], 返回 AccurateRip [E43FDF47]  (AR v2) bn6WvC 3?  
音轨  4  不能准确地校验 (确认 7)  [CB1AB794], 返回 AccurateRip [84B9FCEA]  (AR v2) =WM^i86  
音轨  5  不能准确地校验 (确认 7)  [7C22FA08], 返回 AccurateRip [8B371230]  (AR v2) ?n(OH~@$i  
音轨  6  不能准确地校验 (确认 7)  [A2D9B621], 返回 AccurateRip [686E98EE]  (AR v2) 3  G_0DS  
音轨  7  不能准确地校验 (确认 7)  [ACED051F], 返回 AccurateRip [BFACF3AA]  (AR v2) =a^}]k}  
音轨  8  不能准确地校验 (确认 7)  [6026005C], 返回 AccurateRip [69462A41]  (AR v2) LeaJ).Maw  
音轨  9  不能准确地校验 (确认 7)  [BB262EF8], 返回 AccurateRip [A03ACE48]  (AR v2) (]N- HN]v  
FE,BvNBZ  
没有音轨被准确核实 Z|$M 9E  
你的版本可能与数据库的版本不同 )J{ .z   
=bJ7!&  
状态报告结尾
&OsO _F  
R,dbq4xkl  
链接:http://pan.baidu.com/s/1boUgngF 密码: cB=ExD.Q  
此帖售价 5 金钱,已有 12 人购买 [记录] [购买]
购买后,将显示帖子中所有出售内容。
若发现会员采用欺骗的方法获取财富,请立刻举报,我们会对会员处以2-N倍的罚金,严重者封掉ID!
此段为出售的内容,购买后显示
离线michael0829

发帖
955
金钱
9834
威望
90
贡献值
70
交易币
1204
只看该作者 1楼 发表于: 2017-05-30
不太喜欢Michael的兄弟们,虽然Jacksons时期专辑也有Michael!
I Love You Michael Jackson Forever!
I Just Can't Stop Loving You Michel!
离线Mr灬W

发帖
1130
金钱
12952
威望
161
贡献值
56
交易币
1283
只看该作者 2楼 发表于: 2017-05-30
感谢分享!
Heal The World
在线大彩电

发帖
5970
金钱
5648
威望
354
贡献值
90
交易币
273
只看该作者 3楼 发表于: 2017-05-30
最爱的时期


发帖
2740
金钱
30927
威望
620
贡献值
37
交易币
393
只看该作者 4楼 发表于: 2017-05-31
感谢分享。


发帖
2740
金钱
30927
威望
620
贡献值
37
交易币
393
只看该作者 5楼 发表于: 2017-05-31
感谢分享 _XV%}Xb'  

离线wannam

发帖
2702
金钱
87018
威望
382
贡献值
189
交易币
3345
只看该作者 6楼 发表于: 2017-06-04
喜欢this place hotel
离线lifan_npl

发帖
2196
金钱
31917
威望
851
贡献值
428
交易币
2569
只看该作者 7楼 发表于: 2017-06-10
楼主  好碟啊
我的淘宝:
http://shop63152617.taobao.com  
离线mjnet

发帖
381
金钱
30568
威望
104
贡献值
54
交易币
558
只看该作者 8楼 发表于: 2017-06-25
日盤沒有!!謝謝!!!
离线肯尼

发帖
955
金钱
6312
威望
431
贡献值
228
交易币
1440
只看该作者 9楼 发表于: 2017-09-10
感谢分享。
顺势待发张元穹 Kenny Saxton @肯尼 & 齐奕同Michael Qi @迈颤我栗
2014年6月25日 合辑 火热制作中
2014 MJFantastics Music International Ltd.
快速回复
限100 字节
 
上一个 下一个