论坛风格切换切换到宽版
  • 913阅读
  • 15回复

[亲传][Comp] 1995 HIStory LIFEstyle (US Promo - ESK 7190) - WAV整轨 ♬by幽灵&shenlei [复制链接]

上一主题 下一主题
离线mjghosts
 

发帖
8251
金钱
218537
威望
9176
贡献值
2723
交易币
4762
只看楼主 倒序阅读 楼主  发表于: 2017-06-10
— 本帖被 mjghosts 执行加亮操作(2017-06-25) —
感谢论坛会员“shenlei”抓轨&提供! >h9I M$2  
Dj?> <@  
*1995年美版9曲宣传精选辑,全碟可听度颇高,全碟精确校准抓轨!* 3*XNV  
.hb:s,0mP  
注:独家整理,转载请注明出处!EAC无损整轨(压缩包内含CD图片) &m7]v,&  
Vm(y7}Aq{  
解压密码:www.mjsunny.com
$)i")=Hy  
PdFKs+Z`  
Tracklist: pU}(@oy  
RLXL&  
1 MJ Megamix 4:58 (,\+tr8r8  
1.1    Thriller     B]wk+8SMY.  
1.2    Billie Jean     |A~jsz6pI  
1.3    Bad     {]!mrAjD  
1.4    Don't Stop 'Til You Get Enough     re?,Wext\  
1.5    Black Or White     9&2O 9Nz6  
1.6    Remember The Time     U$.@]F4&  
1.7    The Way You Make Me Feel     *%NT~C q  
1.8    Wanna Be Startin' Somethin'     D/xbF`  
1.9    Rock With You     /9*B)m"  
1.10    Beat It     2#]#sZmk  
\ a<h/4#|  
2 Scream (Naughty Radio Edit With Rap) 4:31 @})|Z}~  
qJs<#MQ2  
3 Don't Stop 'Til You Get Enough (Album Version)    6:04 a2O75 kWnm  
Yui3+}Ms  
4 Wanna Be Startin' Somethin' (Album Version)    6:02 8I?Wt W  
%D34/=(X  
5    MJ Megaremix 10:33 z+wA rPxc  
5.1    Rock With You     $y&E(J  
5.2    Remember The Time     -H@:*  
5.3    Don't Stop 'Til You Get Enough     . B9iLI  
5.4    Billie Jean     WIT>!|w_  
5.5    Wanna Be Startin' Somethin'     w~A{(- dx  
5.6    Black Or White     J.b9F:&}  
5.7    Thriller     F?*-4I-  
+b<FO+E_  
6 Scream (Def Radio Mix) 3:20 &*,#5.  
ZR B)uA)5=  
7 Billie Jean (Album Version) 4:54 QzVnL U)  
ay ;S4c/_  
8 Beat It (Album Version)    4:18 kk@fL  
GL#up  
9 MJ Urban Megamix 4:58 R6.hA_ih  
9.1    Rock With You     xp)sBM7A  
9.2    Billie Jean     DDP/DD;n}r  
9.3    Don't Stop 'Til You Get Enough     _Xc8Yg }`  
9.4    Remember The Time     XB^'K2  
9.5    The Way You Make Me Feel Ts[_u@   
9.6    Wanna Be Startin' Somethin'
5|j<`()H :  
rdP[<Y9  
W0@n/U  
*20jz<  
EzM ?Nft  
Exact Audio Copy V1.1 from 23. June 2015 !Vn\u  
rNWw?_H-H(  
EAC 抓取日志文件从19. 四月 2017, 10:29 wx= $2N6  
'4+ ur`  
Michael Jackson ,  / HIStory LIFEstyle Promo CD 3tIVXtUCUk  
.\ULbN3Z  
使用驱动器  :PIONEER DVD-RW  DVR-221L   Adapter: 1  ID: 0 XH4  
pk$l+sNZ=  
读取模式      : 可靠Secure ;>EM[u  
使用精确流     : 是 _ @NL;w:!  
清空音频缓存    : 否 a od-3"7[  
使用 C2 指示器 : 否 Ju!]&G8  
HSE!x_$  
读取偏移校正:               : 6 ,Bi.1 %$  
读取 Lead-In 和 Lead-Out : 否 h,u, ^ r  
用静音填充抓取中丢失偏移的采样       : 是 }I+E\ <  
去除首尾静音块               : 否 b7?uq9  
在CRC 计算中使用了空样本       : 是 FF`T\&u  
已用接口                  : Win NT 及 2000 本地 Win32 接口 Olt?~}  
{yTGAf-DV  
所用输出模式: : 内部 WAV 函数 TVtvuvQ2K  
样本格式    : 44.100 Hz; 16 Bit; 立体声 hc(#{]].  
r4b 6 c  
5FPM`hLT  
已抓取 CD 的 TOC -e"H ^:  
\$~|ZwV{  
     音轨 |    起始    |    长度    |  起始扇区  |  结束扇区   2G & a{  
    -------------------------------------------- }^ ~F|  
      1 |  0:00.00 |  5:00.69 |      0 |  22568 aB2F C$z  
      2 |  5:00.69 |  4:28.68 |  22569 |  42736 W s3)gvpPA  
      3 |  9:29.62 |  6:05.30 |  42737 |  70141 e9Wa<i 8  
      4 | 15:35.17 |  6:03.18 |  70142 |  97384 38Mv25N  
      5 | 21:38.35 | 10:33.37 |  97385 | 144896 z3{G9Np  
      6 | 32:11.72 |  3:19.55 | 144897 | 159876 \"w"$9o6  
      7 | 35:31.52 |  4:54.10 | 159877 | 181936 ,a{P4Bq  
      8 | 40:25.62 |  4:19.33 | 181937 | 201394 r!|6:G+Q  
      9 | 44:45.20 |  4:55.67 | 201395 | 223586 !]A  
k{R>  
;RZ )  
范围状态及错误 6IN e@  
{Y(zd[  
已选择范围 B {n,t}z  
XAD- 'i  
     文件名 C:\Users\Administrator\Desktop\Michael Jackson ,  - HIStory LIFEstyle Promo CD.wav ih-#5M@  
nI?[rCM  
     峰值电平 100.0 % kP=eW_0D  
     抓取速度 11.7 X rK 8lBy:<  
     范围质量 100.0 % \Gef \   
     复制 CRC 01B39029 hk;5w{t}}  
     复制成功 `$Y.Y5mGtJ  
xWH.^o,"  
没有错误发生 0Uz"^xO["  
&N$<e(K  
(q/e1L-S  
AccurateRip 摘要 EgEa1l!NSQ  
pHGYQ;:L  
音轨  1  精确地校准抓取  1)  [142369E2]  (AR v1) d"1]4.c  
音轨  2  精确地校准抓取  1)  [95805C03]  (AR v1) ZuzEg*lb  
音轨  3  精确地校准抓取  1)  [AF1A2412]  (AR v1) /aCc17>2V{  
音轨  4  精确地校准抓取  1)  [DAC85BD6]  (AR v1) j<m(PHSe  
音轨  5  精确地校准抓取  1)  [3323A374]  (AR v1) .|KyNBn  
音轨  6  精确地校准抓取  1)  [84ABEFDB]  (AR v1) ~Y[r`]X`"m  
音轨  7  精确地校准抓取  1)  [638910B1]  (AR v1) b}$+H/V  
音轨  8  精确地校准抓取  1)  [24C76116]  (AR v1) P7bMIe  
音轨  9  精确地校准抓取  1)  [67C9E5D0]  (AR v1) V;VHv=9`o  
=`oCLsz=  
所有音轨精确校准抓取 R{`(c/%8  
dA}-]  
状态报告结尾 /|m2WxK)  
XAKs0*J>  
---- CUETools DB Plugin V2.1.6 `:fZ)$sY  
Y=?3 js?O  
[CTDB TOCID: UOv3.aOjUtE9Ky8vOZi4d5q8WR8-] found x_Y!5yg E  
Submit result: already submitted oUlY?x1  
Track | CTDB Status !X#OOqPr=  
  1   | (3/3) Accurately ripped #$07:UJ  
  2   | (3/3) Accurately ripped {*" |#6-  
  3   | (3/3) Accurately ripped &-6Gc;f8  
  4   | (3/3) Accurately ripped oxA<VWUNT  
  5   | (3/3) Accurately ripped cd_yzpL@}J  
  6   | (3/3) Accurately ripped R4cM%l_#W  
  7   | (3/3) Accurately ripped Z]Cq3~l  
  8   | (3/3) Accurately ripped %p=M;  
  9   | (3/3) Accurately ripped
L|xbR#v  
YnAm{YyI  
链接:http://pan.baidu.com/s/1hsbyoK0 密码: 8qTys8  
此帖售价 5 金钱,已有 13 人购买 [记录] [购买]
购买后,将显示帖子中所有出售内容。
若发现会员采用欺骗的方法获取财富,请立刻举报,我们会对会员处以2-N倍的罚金,严重者封掉ID!
此段为出售的内容,购买后显示

发帖
2740
金钱
30927
威望
620
贡献值
37
交易币
393
只看该作者 1楼 发表于: 2017-06-10
感谢分享。

离线jdh

发帖
5006
金钱
39197
威望
1116
贡献值
473
交易币
6255
只看该作者 2楼 发表于: 2017-06-10
感谢楼主分享。
离线lifan_npl

发帖
2196
金钱
31917
威望
851
贡献值
428
交易币
2569
只看该作者 3楼 发表于: 2017-06-10
楼主  好碟啊
我的淘宝:
http://shop63152617.taobao.com  
离线mtl

发帖
4493
金钱
10393
威望
1170
贡献值
639
交易币
3947
只看该作者 4楼 发表于: 2017-06-11
这是个什么碟?



鲁宾斯坦,霍洛维茨,巴克豪斯,赛尔金,米开朗杰利,阿劳,阿格里奇,波利尼,阿什肯纳齐,里希特,基辛,魏森博格,肯普夫,拉罗查,普罗特涅夫,吉列尔斯,科尔托,哈斯基尔,卡钦,古尔德,贝尔曼,希夫,齐默尔曼
离线mjghosts

发帖
8251
金钱
218537
威望
9176
贡献值
2723
交易币
4762
只看该作者 5楼 发表于: 2017-06-11
回 mtl 的帖子
mtl:这是个什么碟? (2017-06-11 18:56)  -7|H}!DFT  
51.%;aY~z  
混音,精选 J,6yYIq  
电台宣传用,非卖
离线wannam

发帖
2702
金钱
87018
威望
382
贡献值
189
交易币
3345
只看该作者 6楼 发表于: 2017-06-12
万分感谢
离线michael0829

发帖
955
金钱
9804
威望
90
贡献值
70
交易币
1204
只看该作者 7楼 发表于: 2017-06-16
喜欢混音,谢谢分享!
I Love You Michael Jackson Forever!
I Just Can't Stop Loving You Michel!
离线mjnet

发帖
380
金钱
30579
威望
104
贡献值
54
交易币
557
只看该作者 8楼 发表于: 2017-06-25
非常稀少!!謝謝!!
离线六月的天

发帖
514
金钱
539
威望
40
贡献值
9
交易币
464
只看该作者 9楼 发表于: 2017-07-31
感谢楼主分享
老迈最帅
快速回复
限100 字节
 
上一个 下一个