论坛风格切换切换到宽版
  • 1046阅读
  • 15回复

[亲传][Comp] 1995 HIStory LIFEstyle (US Promo - ESK 7190) - WAV整轨 ♬by幽灵&shenlei [复制链接]

上一主题 下一主题
离线mjghosts
 

发帖
8256
金钱
219309
威望
9187
贡献值
2734
交易币
4791
只看楼主 倒序阅读 楼主  发表于: 2017-06-10
— 本帖被 mjghosts 执行加亮操作(2017-06-25) —
感谢论坛会员“shenlei”抓轨&提供! zYJ`.,#C 5  
I,Y^_(JW  
*1995年美版9曲宣传精选辑,全碟可听度颇高,全碟精确校准抓轨!* bv"({:x  
O@&I.d$  
注:独家整理,转载请注明出处!EAC无损整轨(压缩包内含CD图片) HYa!$P3}[  
(jMp`4P  
解压密码:www.mjsunny.com
I9aber1  
y['icGU6  
Tracklist: 7MfvU|D[d/  
dD!SgK[Jv  
1 MJ Megamix 4:58 \:S8mDI^s  
1.1    Thriller     Pr"ESd>Y  
1.2    Billie Jean     hR2.w/2j  
1.3    Bad     A_+ WY|#M  
1.4    Don't Stop 'Til You Get Enough     /WMLr5  
1.5    Black Or White     uo^>95lkv  
1.6    Remember The Time     5y)kQ<x"  
1.7    The Way You Make Me Feel     A, os rv  
1.8    Wanna Be Startin' Somethin'     6 B )   
1.9    Rock With You     cIX59y#7  
1.10    Beat It     |^=`ln!  
e'jR<ln|  
2 Scream (Naughty Radio Edit With Rap) 4:31 Nb$)YMbA  
FnCHbPlb  
3 Don't Stop 'Til You Get Enough (Album Version)    6:04 "e(N h%t  
!6kLg1  
4 Wanna Be Startin' Somethin' (Album Version)    6:02 E;+3VJ+F"  
d`Wd"LJ=  
5    MJ Megaremix 10:33 W# ev  
5.1    Rock With You     Zj$U _  
5.2    Remember The Time     j134iVF%  
5.3    Don't Stop 'Til You Get Enough     lLl^2[4k5  
5.4    Billie Jean     ]H%y7kH8  
5.5    Wanna Be Startin' Somethin'     S}mqK|!  
5.6    Black Or White     w 7s+6,  
5.7    Thriller     *\L\Bzm  
*#\da]"{  
6 Scream (Def Radio Mix) 3:20 YEqZ((H  
?%K7IJ%  
7 Billie Jean (Album Version) 4:54 3V2dN )\  
gn,D9d+  
8 Beat It (Album Version)    4:18 iX (<ozH  
?5VPV9EX  
9 MJ Urban Megamix 4:58 V$o]}|  
9.1    Rock With You     $@utlIXA'  
9.2    Billie Jean     Q  h~  
9.3    Don't Stop 'Til You Get Enough     Gg TrIF  
9.4    Remember The Time      Q'~3Ik  
9.5    The Way You Make Me Feel T/$hN hQK  
9.6    Wanna Be Startin' Somethin'
Mwtd<7<!A  
,Pj UlcO_  
!n3J6%b9y/  
krecUpo  
T{4Ru6[  
Exact Audio Copy V1.1 from 23. June 2015 -+Gd<U$  
V[fcP;   
EAC 抓取日志文件从19. 四月 2017, 10:29 p?Jx2(%m  
3fhlMOm  
Michael Jackson ,  / HIStory LIFEstyle Promo CD , Vr'F  
Fpckb18}(O  
使用驱动器  :PIONEER DVD-RW  DVR-221L   Adapter: 1  ID: 0 /qObXI  
=x^b  
读取模式      : 可靠Secure w//L2.  
使用精确流     : 是 k-X E|v  
清空音频缓存    : 否 8e*1L:oB!  
使用 C2 指示器 : 否 )%D>U  
U f <hzP  
读取偏移校正:               : 6 [d}AlG!  
读取 Lead-In 和 Lead-Out : 否 oo{3-+ ?  
用静音填充抓取中丢失偏移的采样       : 是 r}]%(D](v  
去除首尾静音块               : 否 +'f+0T\)  
在CRC 计算中使用了空样本       : 是 U1!#TD)@  
已用接口                  : Win NT 及 2000 本地 Win32 接口 G!L(K  
KqI<#hUl  
所用输出模式: : 内部 WAV 函数 B2/d%B  
样本格式    : 44.100 Hz; 16 Bit; 立体声 CNkI9>L=W`  
n;+`%;6  
=lOdg3#\a  
已抓取 CD 的 TOC pg9 feIW1  
fG_<HJS(~  
     音轨 |    起始    |    长度    |  起始扇区  |  结束扇区   e,D RQ2AU  
    -------------------------------------------- [R(dCq>  
      1 |  0:00.00 |  5:00.69 |      0 |  22568 Sah!|9  
      2 |  5:00.69 |  4:28.68 |  22569 |  42736 XES$V15  
      3 |  9:29.62 |  6:05.30 |  42737 |  70141 L~!Lq4]V\g  
      4 | 15:35.17 |  6:03.18 |  70142 |  97384 tpQ8 m(  
      5 | 21:38.35 | 10:33.37 |  97385 | 144896 V;(Rg=5  
      6 | 32:11.72 |  3:19.55 | 144897 | 159876 BWLeitS/  
      7 | 35:31.52 |  4:54.10 | 159877 | 181936 i|N(= Z=  
      8 | 40:25.62 |  4:19.33 | 181937 | 201394 $*;ke5Dm4  
      9 | 44:45.20 |  4:55.67 | 201395 | 223586 2rqYm6  
/;9]LC.g  
-MItZ  
范围状态及错误 ]y<<zQ_fhY  
4&^BcWqA*f  
已选择范围 @M]7',2"  
~$Pz`amT|  
     文件名 C:\Users\Administrator\Desktop\Michael Jackson ,  - HIStory LIFEstyle Promo CD.wav 0s8w)%4$  
ds"q1  
     峰值电平 100.0 % O5eTkKUc  
     抓取速度 11.7 X I@<\DltPi  
     范围质量 100.0 % >=Pn\" j  
     复制 CRC 01B39029 _rU%DL?  
     复制成功 bYKe5y=  
6,q}1-  
没有错误发生 ,p\:Z3{ZH  
>{HQ"{Q  
!Enq2  
AccurateRip 摘要 D02(6|  
=G,wR'M  
音轨  1  精确地校准抓取  1)  [142369E2]  (AR v1) 2Pm[ kD4E=  
音轨  2  精确地校准抓取  1)  [95805C03]  (AR v1) ZO#f)>s2  
音轨  3  精确地校准抓取  1)  [AF1A2412]  (AR v1) @u @~gEt  
音轨  4  精确地校准抓取  1)  [DAC85BD6]  (AR v1) FMi:2.E  
音轨  5  精确地校准抓取  1)  [3323A374]  (AR v1) awv$ }EFo  
音轨  6  精确地校准抓取  1)  [84ABEFDB]  (AR v1) k-Yli21-/|  
音轨  7  精确地校准抓取  1)  [638910B1]  (AR v1) vSu dT  
音轨  8  精确地校准抓取  1)  [24C76116]  (AR v1) eaC%& k  
音轨  9  精确地校准抓取  1)  [67C9E5D0]  (AR v1) I>GBnx L  
o_1N "o%  
所有音轨精确校准抓取 zak|* _  
XZ . T%g  
状态报告结尾 qVKdc*R-  
zGFD71=#  
---- CUETools DB Plugin V2.1.6 vjq2(I)u  
+]s,VSL5`  
[CTDB TOCID: UOv3.aOjUtE9Ky8vOZi4d5q8WR8-] found !+Xul_XG  
Submit result: already submitted Td'Mc-/  
Track | CTDB Status =3 .dgtH  
  1   | (3/3) Accurately ripped F(yR\)!C  
  2   | (3/3) Accurately ripped y#j7vO  
  3   | (3/3) Accurately ripped kk /#&b2  
  4   | (3/3) Accurately ripped ,c&u\W=p  
  5   | (3/3) Accurately ripped Wx:v~/r  
  6   | (3/3) Accurately ripped 98Vv K?  
  7   | (3/3) Accurately ripped K=N&kda   
  8   | (3/3) Accurately ripped rr tMd  
  9   | (3/3) Accurately ripped
".>#Qp%  
c,r6+oX  
链接:http://pan.baidu.com/s/1hsbyoK0 密码: (f&V 7n  
此帖售价 5 金钱,已有 13 人购买 [记录] [购买]
购买后,将显示帖子中所有出售内容。
若发现会员采用欺骗的方法获取财富,请立刻举报,我们会对会员处以2-N倍的罚金,严重者封掉ID!
此段为出售的内容,购买后显示

发帖
2751
金钱
30829
威望
621
贡献值
38
交易币
408
只看该作者 1楼 发表于: 2017-06-10
感谢分享。

离线jdh

发帖
5013
金钱
39447
威望
1117
贡献值
473
交易币
6262
只看该作者 2楼 发表于: 2017-06-10
感谢楼主分享。
离线lifan_npl

发帖
2212
金钱
31692
威望
853
贡献值
430
交易币
2593
只看该作者 3楼 发表于: 2017-06-10
楼主  好碟啊
我的淘宝店:
http://shop63152617.taobao.com  
离线mtl

发帖
4503
金钱
10443
威望
1170
贡献值
639
交易币
3957
只看该作者 4楼 发表于: 2017-06-11
这是个什么碟?



鲁宾斯坦,霍洛维茨,巴克豪斯,赛尔金,米开朗杰利,阿劳,阿格里奇,波利尼,阿什肯纳齐,里希特,基辛,魏森博格,肯普夫,拉罗查,普罗特涅夫,吉列尔斯,科尔托,哈斯基尔,卡钦,古尔德,贝尔曼,希夫,齐默尔曼
离线mjghosts

发帖
8256
金钱
219309
威望
9187
贡献值
2734
交易币
4791
只看该作者 5楼 发表于: 2017-06-11
回 mtl 的帖子
mtl:这是个什么碟? (2017-06-11 18:56)  vp&.  
7H6Ge-u  
混音,精选 &B :L9^  
电台宣传用,非卖
离线wannam

发帖
2703
金钱
87033
威望
382
贡献值
189
交易币
3346
只看该作者 6楼 发表于: 2017-06-12
万分感谢
离线michael0829

发帖
955
金钱
10069
威望
90
贡献值
70
交易币
1204
只看该作者 7楼 发表于: 2017-06-16
喜欢混音,谢谢分享!
I Love You Michael Jackson Forever!
I Just Can't Stop Loving You Michel!
离线mjnet

发帖
381
金钱
30548
威望
104
贡献值
54
交易币
558
只看该作者 8楼 发表于: 2017-06-25
非常稀少!!謝謝!!
离线六月的天

发帖
515
金钱
542
威望
40
贡献值
9
交易币
465
只看该作者 9楼 发表于: 2017-07-31
感谢楼主分享
老迈最帅
快速回复
限100 字节
 
上一个 下一个