论坛风格切换切换到宽版
  • 1508阅读
  • 15回复

[亲传][Comp] 1995 HIStory LIFEstyle (US Promo - ESK 7190) - WAV整轨 ♬by幽灵&shenlei [复制链接]

上一主题 下一主题
离线mjghosts
 

发帖
8262
金钱
219556
威望
9187
贡献值
2734
交易币
4797
只看楼主 倒序阅读 楼主  发表于: 2017-06-10
— 本帖被 mjghosts 执行加亮操作(2017-06-25) —
感谢论坛会员“shenlei”抓轨&提供! xCm`g {  
PPNZ(j   
*1995年美版9曲宣传精选辑,全碟可听度颇高,全碟精确校准抓轨!* qd?k#Gw&  
7o64|@'j  
注:独家整理,转载请注明出处!EAC无损整轨(压缩包内含CD图片) 'q=Ly?9  
FA;uu\  
解压密码:www.mjsunny.com
QK%6Ncv  
3pKr {U92  
Tracklist: P:y M j&)  
RWi~34r  
1 MJ Megamix 4:58 xA9{o+  
1.1    Thriller     =%YU~  
1.2    Billie Jean     (:>: tcE  
1.3    Bad     \*s'S*~  
1.4    Don't Stop 'Til You Get Enough     n; 0bVVMV  
1.5    Black Or White     fo$iV;x`  
1.6    Remember The Time     SxYX`NQ  
1.7    The Way You Make Me Feel     \. A~>=:  
1.8    Wanna Be Startin' Somethin'     x"~F=jT  
1.9    Rock With You      gM20n^  
1.10    Beat It     O,ZvV3  
'5KgRK"  
2 Scream (Naughty Radio Edit With Rap) 4:31 @#1k+tSA,  
}8p;w T!  
3 Don't Stop 'Til You Get Enough (Album Version)    6:04 vL{~?vq6  
=- ~82%  
4 Wanna Be Startin' Somethin' (Album Version)    6:02 ` #A&v  
p@/!+$^{  
5    MJ Megaremix 10:33 m.EI("n"J  
5.1    Rock With You     \/la`D  
5.2    Remember The Time     $GNN* WmHw  
5.3    Don't Stop 'Til You Get Enough     tm@&f  
5.4    Billie Jean     CO%7^}xSE,  
5.5    Wanna Be Startin' Somethin'     No>XRG+  
5.6    Black Or White     6X~.J4  
5.7    Thriller     dKTyh:_{  
Y<-h#_  
6 Scream (Def Radio Mix) 3:20 CuC1s>  
CX?q%o2b  
7 Billie Jean (Album Version) 4:54 })W9=xO~  
O+x"c3@Z)D  
8 Beat It (Album Version)    4:18 A,67)li3  
6$CwH!42F  
9 MJ Urban Megamix 4:58 37apOK4+  
9.1    Rock With You     zh{,.c  
9.2    Billie Jean     ai%*s&0/Y  
9.3    Don't Stop 'Til You Get Enough     NSawD.9mV  
9.4    Remember The Time     * N]^(+/A  
9.5    The Way You Make Me Feel l`uI K.  
9.6    Wanna Be Startin' Somethin'
?3lA ogB  
TjDtNE  
h%U}Y5Ps~  
GeDI\-  
81"` B2  
Exact Audio Copy V1.1 from 23. June 2015 j g//I<D  
J^`5L7CO  
EAC 抓取日志文件从19. 四月 2017, 10:29 70GBf"  
'prHXzi(h  
Michael Jackson ,  / HIStory LIFEstyle Promo CD 71\53Qr#U  
p d#Sn+&rf  
使用驱动器  :PIONEER DVD-RW  DVR-221L   Adapter: 1  ID: 0 o^vX\a?`u  
29,ET}~  
读取模式      : 可靠Secure 8^>c_%e}  
使用精确流     : 是 ^~;ia7V&2  
清空音频缓存    : 否 w!7ApEH1  
使用 C2 指示器 : 否 I_<XL<  
qh~bX i!  
读取偏移校正:               : 6 :+,;5  
读取 Lead-In 和 Lead-Out : 否  vmqa_gU\  
用静音填充抓取中丢失偏移的采样       : 是 }csA|cC  
去除首尾静音块               : 否 xnY?<?J"!  
在CRC 计算中使用了空样本       : 是 }`"}eN @,  
已用接口                  : Win NT 及 2000 本地 Win32 接口 h Qn?qJy%W  
~:a1ELqVw  
所用输出模式: : 内部 WAV 函数 ,;g%/6X  
样本格式    : 44.100 Hz; 16 Bit; 立体声 `n PdZ.  
h.\I tK{)  
o*KAS@&  
已抓取 CD 的 TOC '.|}  
)M8d\]  
     音轨 |    起始    |    长度    |  起始扇区  |  结束扇区   ~>:JwTy  
    -------------------------------------------- QYA4C1h'  
      1 |  0:00.00 |  5:00.69 |      0 |  22568 ?O 25k!7  
      2 |  5:00.69 |  4:28.68 |  22569 |  42736 L91(|gQP  
      3 |  9:29.62 |  6:05.30 |  42737 |  70141 DS8HSSD  
      4 | 15:35.17 |  6:03.18 |  70142 |  97384 6Emn@Mn=  
      5 | 21:38.35 | 10:33.37 |  97385 | 144896 0+0 Y$;<  
      6 | 32:11.72 |  3:19.55 | 144897 | 159876  5+GTK)D  
      7 | 35:31.52 |  4:54.10 | 159877 | 181936 #cR5k@  
      8 | 40:25.62 |  4:19.33 | 181937 | 201394 #~Kno@  
      9 | 44:45.20 |  4:55.67 | 201395 | 223586 FkaQVT  
m[ S1  
eT F s9$  
范围状态及错误 kaZcYuT.9  
<SRSJJR|(  
已选择范围 <XpG5vV  
6K.0dhl>`B  
     文件名 C:\Users\Administrator\Desktop\Michael Jackson ,  - HIStory LIFEstyle Promo CD.wav xirZ.wjW  
gDsb~>rb|  
     峰值电平 100.0 % z!\)sL/"  
     抓取速度 11.7 X $]]|#}J  
     范围质量 100.0 % 64-;| k4F  
     复制 CRC 01B39029 >a2i%j/T  
     复制成功 e47N9&4  
+>S\.h s4  
没有错误发生 1x~dsM;q  
1z$K54Mj  
qz<>9n@o  
AccurateRip 摘要 HX p $\%A)  
i~0x/wSl_  
音轨  1  精确地校准抓取  1)  [142369E2]  (AR v1) qRnD{g|{1  
音轨  2  精确地校准抓取  1)  [95805C03]  (AR v1) zo>@"uH4  
音轨  3  精确地校准抓取  1)  [AF1A2412]  (AR v1) l}MVk%[  
音轨  4  精确地校准抓取  1)  [DAC85BD6]  (AR v1) Xdtyer%  
音轨  5  精确地校准抓取  1)  [3323A374]  (AR v1) e WWtMnq  
音轨  6  精确地校准抓取  1)  [84ABEFDB]  (AR v1) ~lH_d[  
音轨  7  精确地校准抓取  1)  [638910B1]  (AR v1) TK s l.|  
音轨  8  精确地校准抓取  1)  [24C76116]  (AR v1) h6~ H5X  
音轨  9  精确地校准抓取  1)  [67C9E5D0]  (AR v1) :TkR]bhm  
zr@H Yl  
所有音轨精确校准抓取 ,.]1N:   
$iMbtA5a Q  
状态报告结尾 EZJ[+ -Q;  
h[>Puoz  
---- CUETools DB Plugin V2.1.6 ,d@FO|G#pt  
H:]'r5sw  
[CTDB TOCID: UOv3.aOjUtE9Ky8vOZi4d5q8WR8-] found -9; XNp  
Submit result: already submitted O&evv8 6L  
Track | CTDB Status !SdP<{[  
  1   | (3/3) Accurately ripped iC4rzgq  
  2   | (3/3) Accurately ripped r1[#_A`Yn  
  3   | (3/3) Accurately ripped ?U3~rro!  
  4   | (3/3) Accurately ripped +2,EK   
  5   | (3/3) Accurately ripped O|0V mm  
  6   | (3/3) Accurately ripped juEH$7N !  
  7   | (3/3) Accurately ripped qPn!.m$/  
  8   | (3/3) Accurately ripped 4F,RlKHBl  
  9   | (3/3) Accurately ripped
p4@0Dz`Q  
t;W'<.m_  
链接:http://pan.baidu.com/s/1hsbyoK0 密码: ]u47]L#  
此帖售价 5 金钱,已有 13 人购买 [记录] [购买]
购买后,将显示帖子中所有出售内容。
若发现会员采用欺骗的方法获取财富,请立刻举报,我们会对会员处以2-N倍的罚金,严重者封掉ID!
此段为出售的内容,购买后显示

发帖
2767
金钱
30998
威望
622
贡献值
39
交易币
428
只看该作者 1楼 发表于: 2017-06-10
感谢分享。

离线jdh

发帖
5018
金钱
40320
威望
1117
贡献值
473
交易币
6267
只看该作者 2楼 发表于: 2017-06-10
感谢楼主分享。
离线lifan_npl

发帖
2224
金钱
31752
威望
853
贡献值
430
交易币
2605
只看该作者 3楼 发表于: 2017-06-10
楼主  好碟啊
我的淘宝店:
http://shop63152617.taobao.com  
离线mtl

发帖
4506
金钱
10458
威望
1170
贡献值
639
交易币
3960
只看该作者 4楼 发表于: 2017-06-11
这是个什么碟?



鲁宾斯坦,霍洛维茨,巴克豪斯,赛尔金,米开朗杰利,阿劳,阿格里奇,波利尼,阿什肯纳齐,里希特,基辛,魏森博格,肯普夫,拉罗查,普罗特涅夫,吉列尔斯,科尔托,哈斯基尔,卡钦,古尔德,贝尔曼,希夫,齐默尔曼
离线mjghosts

发帖
8262
金钱
219556
威望
9187
贡献值
2734
交易币
4797
只看该作者 5楼 发表于: 2017-06-11
回 mtl 的帖子
mtl:这是个什么碟? (2017-06-11 18:56)  =gr3a,2  
_52BIrAO2  
混音,精选 SA$1rqU=  
电台宣传用,非卖
离线wannam

发帖
2703
金钱
87101
威望
382
贡献值
189
交易币
3346
只看该作者 6楼 发表于: 2017-06-12
万分感谢
离线michael0829

发帖
958
金钱
10744
威望
90
贡献值
70
交易币
1207
只看该作者 7楼 发表于: 2017-06-16
喜欢混音,谢谢分享!
I Love You Michael Jackson Forever!
I Just Can't Stop Loving You Michel!
离线mjnet

发帖
381
金钱
30546
威望
104
贡献值
54
交易币
558
只看该作者 8楼 发表于: 2017-06-25
非常稀少!!謝謝!!
离线六月的天

发帖
515
金钱
536
威望
40
贡献值
9
交易币
465
只看该作者 9楼 发表于: 2017-07-31
感谢楼主分享
老迈最帅
快速回复
限100 字节
 
上一个 下一个