论坛风格切换切换到宽版
  • 1282阅读
  • 15回复

[亲传][Comp] 1995 HIStory LIFEstyle (US Promo - ESK 7190) - WAV整轨 ♬by幽灵&shenlei [复制链接]

上一主题 下一主题
离线mjghosts
 

发帖
8257
金钱
219515
威望
9187
贡献值
2734
交易币
4792
只看楼主 倒序阅读 楼主  发表于: 2017-06-10
— 本帖被 mjghosts 执行加亮操作(2017-06-25) —
感谢论坛会员“shenlei”抓轨&提供! _6m3$k_[MJ  
W\,lII0  
*1995年美版9曲宣传精选辑,全碟可听度颇高,全碟精确校准抓轨!* 5G!U'.gr  
mGpkM?Y"  
注:独家整理,转载请注明出处!EAC无损整轨(压缩包内含CD图片) y)^CDe2xU  
#!=>muZt  
解压密码:www.mjsunny.com
Fe& n,  
1YIux,2\  
Tracklist: C;)Xwm>e  
NDe[2  
1 MJ Megamix 4:58 J/]o WC`u  
1.1    Thriller     i)@U.-*5m  
1.2    Billie Jean     Wk\mgGn+  
1.3    Bad     u@=+#q~/P  
1.4    Don't Stop 'Til You Get Enough     {2}tPT[a(  
1.5    Black Or White     c W81  
1.6    Remember The Time     1&X}1  
1.7    The Way You Make Me Feel     HpB!a,R6B  
1.8    Wanna Be Startin' Somethin'     ;yk9(wea}"  
1.9    Rock With You     fkdf~Vb  
1.10    Beat It     Hnfvo*6d.e  
kR<xtHW  
2 Scream (Naughty Radio Edit With Rap) 4:31 P#AAOSlLV  
JzHqNUn*M  
3 Don't Stop 'Til You Get Enough (Album Version)    6:04 &foD&  
q_-ma_F#s  
4 Wanna Be Startin' Somethin' (Album Version)    6:02 +H41]W6  
k}X[u8A  
5    MJ Megaremix 10:33 9t#P~>:jY}  
5.1    Rock With You     >o#ERNf  
5.2    Remember The Time     yji>*XG  
5.3    Don't Stop 'Til You Get Enough     TiQ^}5~M  
5.4    Billie Jean     V`[P4k+b   
5.5    Wanna Be Startin' Somethin'       La9r  
5.6    Black Or White      #I;D  
5.7    Thriller     2 Kl a8  
PyFj@n  
6 Scream (Def Radio Mix) 3:20 x#mtS-sw2Q  
1A^1@^{m'  
7 Billie Jean (Album Version) 4:54 \_ 9rr6^ "  
NI.`mc6X d  
8 Beat It (Album Version)    4:18 Xu#:Fe}:  
'I v_mig  
9 MJ Urban Megamix 4:58 mxp Y&Y  
9.1    Rock With You     f4"4ZVcr  
9.2    Billie Jean     "Pj}E=!k  
9.3    Don't Stop 'Til You Get Enough     ehT%s+aUw  
9.4    Remember The Time     +EkW>$  
9.5    The Way You Make Me Feel P1V1as  
9.6    Wanna Be Startin' Somethin'
w4%AJmt  
l r~gG3   
3n48%5  
W)4QOS&  
|/T43ADW  
Exact Audio Copy V1.1 from 23. June 2015 ][7p+IsB  
b{5K2k&,  
EAC 抓取日志文件从19. 四月 2017, 10:29 8C7Z{@A&#  
{{!Y]\2S  
Michael Jackson ,  / HIStory LIFEstyle Promo CD gEJi[E@  
Q@QFV~  
使用驱动器  :PIONEER DVD-RW  DVR-221L   Adapter: 1  ID: 0 =? :@  
 ux-CpI  
读取模式      : 可靠Secure %0-wpuHc(]  
使用精确流     : 是 QIU,!w-3X  
清空音频缓存    : 否 %[QV,fD'E  
使用 C2 指示器 : 否 C"w {\ &R  
Oejq@iM"(  
读取偏移校正:               : 6 0GXO&rCG  
读取 Lead-In 和 Lead-Out : 否 d/,E2i{I7  
用静音填充抓取中丢失偏移的采样       : 是 j 6)Y  
去除首尾静音块               : 否 4? (W%?  
在CRC 计算中使用了空样本       : 是 ; y.E!  
已用接口                  : Win NT 及 2000 本地 Win32 接口 4FMF|U  
n&XGBwgW  
所用输出模式: : 内部 WAV 函数 fnu"*5bE  
样本格式    : 44.100 Hz; 16 Bit; 立体声 o|8`>!hF  
U8QX46Br  
?pGkk=,KB  
已抓取 CD 的 TOC (k"_># %  
fQLax  
     音轨 |    起始    |    长度    |  起始扇区  |  结束扇区   {U!uVQC'  
    -------------------------------------------- .m4;^S2cO  
      1 |  0:00.00 |  5:00.69 |      0 |  22568 IO$z%r7  
      2 |  5:00.69 |  4:28.68 |  22569 |  42736 CC >=UF  
      3 |  9:29.62 |  6:05.30 |  42737 |  70141 $a;]_Y  
      4 | 15:35.17 |  6:03.18 |  70142 |  97384 q }C+tn"\  
      5 | 21:38.35 | 10:33.37 |  97385 | 144896 &lc8G  
      6 | 32:11.72 |  3:19.55 | 144897 | 159876 D$e B ,~  
      7 | 35:31.52 |  4:54.10 | 159877 | 181936 E">T*ao  
      8 | 40:25.62 |  4:19.33 | 181937 | 201394 _Tm0x>EM  
      9 | 44:45.20 |  4:55.67 | 201395 | 223586 N1EezC'^  
{OMg d3%14  
1'w:`/_  
范围状态及错误 %oykcf,#  
gz#4{iT~  
已选择范围 > dZ3+f  
1cN')"  
     文件名 C:\Users\Administrator\Desktop\Michael Jackson ,  - HIStory LIFEstyle Promo CD.wav P!g-X%ngo  
l)8&Ip  
     峰值电平 100.0 % t={0(  
     抓取速度 11.7 X Ws[D{dS/  
     范围质量 100.0 % EYzg%\HH  
     复制 CRC 01B39029 L_O$>c  
     复制成功 BNm4k7 ]M  
nS.G~c|  
没有错误发生 J\co1kO9/  
-AD2I {C  
4*H"Z(HP  
AccurateRip 摘要 $~u.Wq  
~UMOT!4}3  
音轨  1  精确地校准抓取  1)  [142369E2]  (AR v1) D_D,t8_Y  
音轨  2  精确地校准抓取  1)  [95805C03]  (AR v1) c.K =(y*  
音轨  3  精确地校准抓取  1)  [AF1A2412]  (AR v1) c[(Pg%  
音轨  4  精确地校准抓取  1)  [DAC85BD6]  (AR v1) T 1Cs>#)  
音轨  5  精确地校准抓取  1)  [3323A374]  (AR v1) =Viy^ieN$  
音轨  6  精确地校准抓取  1)  [84ABEFDB]  (AR v1) Z6s5M{mE  
音轨  7  精确地校准抓取  1)  [638910B1]  (AR v1) 4O$2]D.\  
音轨  8  精确地校准抓取  1)  [24C76116]  (AR v1) #+jUhxq  
音轨  9  精确地校准抓取  1)  [67C9E5D0]  (AR v1) vDDljQXw4  
^#SBpLw  
所有音轨精确校准抓取 &?<AwtNN  
Bymny>.M  
状态报告结尾 TA;,>f*  
L8P 36]>  
---- CUETools DB Plugin V2.1.6 l2/ @<0P  
Phlk1*1n  
[CTDB TOCID: UOv3.aOjUtE9Ky8vOZi4d5q8WR8-] found Bbs 0v6&,  
Submit result: already submitted ZNy9_a:dX  
Track | CTDB Status `.8-cz  
  1   | (3/3) Accurately ripped ,;3:pr  
  2   | (3/3) Accurately ripped Rp eBm#E2  
  3   | (3/3) Accurately ripped k+txb?  
  4   | (3/3) Accurately ripped .h6Y< E  
  5   | (3/3) Accurately ripped @?M; 'xMbB  
  6   | (3/3) Accurately ripped W U0UG$o`  
  7   | (3/3) Accurately ripped Vy r] x  
  8   | (3/3) Accurately ripped C#T)@UxBZ  
  9   | (3/3) Accurately ripped
#4lHaFq  
vj(@.uU)  
链接:http://pan.baidu.com/s/1hsbyoK0 密码: |&(H^<+Xp  
此帖售价 5 金钱,已有 13 人购买 [记录] [购买]
购买后,将显示帖子中所有出售内容。
若发现会员采用欺骗的方法获取财富,请立刻举报,我们会对会员处以2-N倍的罚金,严重者封掉ID!
此段为出售的内容,购买后显示

发帖
2753
金钱
30915
威望
621
贡献值
38
交易币
410
只看该作者 1楼 发表于: 2017-06-10
感谢分享。

离线jdh

发帖
5016
金钱
39857
威望
1117
贡献值
473
交易币
6265
只看该作者 2楼 发表于: 2017-06-10
感谢楼主分享。
离线lifan_npl

发帖
2213
金钱
31997
威望
853
贡献值
430
交易币
2594
只看该作者 3楼 发表于: 2017-06-10
楼主  好碟啊
我的淘宝店:
http://shop63152617.taobao.com  
离线mtl

发帖
4503
金钱
10443
威望
1170
贡献值
639
交易币
3957
只看该作者 4楼 发表于: 2017-06-11
这是个什么碟?



鲁宾斯坦,霍洛维茨,巴克豪斯,赛尔金,米开朗杰利,阿劳,阿格里奇,波利尼,阿什肯纳齐,里希特,基辛,魏森博格,肯普夫,拉罗查,普罗特涅夫,吉列尔斯,科尔托,哈斯基尔,卡钦,古尔德,贝尔曼,希夫,齐默尔曼
离线mjghosts

发帖
8257
金钱
219515
威望
9187
贡献值
2734
交易币
4792
只看该作者 5楼 发表于: 2017-06-11
回 mtl 的帖子
mtl:这是个什么碟? (2017-06-11 18:56)  m'f,_ \'  
DS'n  
混音,精选 -*XCxU'  
电台宣传用,非卖
离线wannam

发帖
2703
金钱
87077
威望
382
贡献值
189
交易币
3346
只看该作者 6楼 发表于: 2017-06-12
万分感谢
离线michael0829

发帖
957
金钱
10399
威望
90
贡献值
70
交易币
1206
只看该作者 7楼 发表于: 2017-06-16
喜欢混音,谢谢分享!
I Love You Michael Jackson Forever!
I Just Can't Stop Loving You Michel!
离线mjnet

发帖
381
金钱
30546
威望
104
贡献值
54
交易币
558
只看该作者 8楼 发表于: 2017-06-25
非常稀少!!謝謝!!
离线六月的天

发帖
515
金钱
542
威望
40
贡献值
9
交易币
465
只看该作者 9楼 发表于: 2017-07-31
感谢楼主分享
老迈最帅
快速回复
限100 字节
 
上一个 下一个