论坛风格切换切换到宽版
  • 908阅读
  • 20回复

[亲传][Album] Thriller25周年 (2008) (JP - EICP 961~2) - WAV整轨 ♬by幽灵 [复制链接]

上一主题 下一主题
离线mjghosts
 

发帖
8252
金钱
218775
威望
9176
贡献值
2723
交易币
4763
只看楼主 倒序阅读 楼主  发表于: 2017-06-11
— 本帖被 mjghosts 执行加亮操作(2017-06-11) —
*大家应该比较熟悉的版本了,08年重新制作的颤栗25周年纪念版,添加了一些之前未发行过的曲目和新混音。日本黑带首版,完美精确校准抓轨! (Ka# 6   
Trrh`@R  
注:独家整理,转载请注明出处!EAC无损整轨(压缩包内含CD图片) zgqw*)C~  
j1ZFsTFMWp  
解压密码:www.mjsunny.com
x}{VHp`|ld  
$ZS9CkN  
Tracklist 0U>Q<I}  
1 Wanna Be Startin' Somethin'     h uJqqC  
2 Baby Be Mine     qj&)w9RLJE  
3 The Girl Is Mine     ]lUu%<-;  
4 Thriller     @m V C  
5 Beat It     U3}R^W~eb  
6 Billie Jean     [Ni4[\  
7 Human Nature     !qlGt)G3  
8 P.Y.T. (Pretty Young Thing)     c*dww  
9 The Lady In My Life     F :S,{&jB  
10 Vincent Price Excerpt From "Thriller" Voice-Over Session     oui!fTy  
11 The Girl Is Mine 2008     `VtwKt*  
12 P.Y.T. (Pretty Young Thing) 2008     86#mmm)  
13 Wanna Be Startin' Somethin' 2008     Yys~p2  
14 Beat It 2008     ~7pjk  
15 Billie Jean 2008     {ah=i8$  
16 For All Time (Unreleased Track From The Original Thriller Sessions)     \'Ta8  
17 Got The Hots (Unreleased Track From The Original Thriller Sessions)
#[y<h3f]  
(0W}e(D8  
b`W*vduf  
A Vm{#^p[(  
T-C#xmY(  
Exact Audio Copy V1.0 beta 6 from 9. April 2015 \oX8/-0f  
xn@0pL3B~  
EAC 抓取日志文件从3. 六月 2017, 17:38 br  Z, s  
VONAw3k7!  
Michael Jackson / Thriller 25 _AYC|R|  
Eqbe$o`dd  
使用驱动器  :MATSHITADVD-RAM UJ890AS   Adapter: 1  ID: 1 [!@oRK=~  
_1<'"u#6w  
读取模式      : 可靠Secure :KSor}t  
使用精确流     : 是 lhoq3A  
清空音频缓存    : 否 oNB,.:  
使用 C2 指示器 : 是 `n`"g<K)Q  
C$LRY~ \  
读取偏移校正:               : 102 Y^2Qxo3"3  
读取 Lead-In 和 Lead-Out : 否 030U7VT1  
用静音填充抓取中丢失偏移的采样       : 是 =6L*!JP<  
去除首尾静音块               : 否 =+`j?1  
在CRC 计算中使用了空样本       : 是 D!}K)T1~R  
已用接口                  : Win NT 及 2000 本地 Win32 接口 Sf&?3a+f  
Q"|kW[Sg  
所用输出模式: : 内部 WAV 函数 BKQIo)g.G  
样本格式    : 44.100 Hz; 16 Bit; 立体声 ;wXY3|@  
pSQCT  
0^9:KZ.!  
已抓取 CD 的 TOC tyuk{* Me:  
|'c4er/;#  
     音轨 |    起始    |    长度    |  起始扇区  |  结束扇区   /e|[SITe  
    -------------------------------------------- Y:%m;b$]  
      1 |  0:00.00 |  6:02.28 |      0 |  27177 VJN/#   
      2 |  6:02.28 |  4:20.13 |  27178 |  46690 [O7w =  
      3 | 10:22.41 |  3:42.04 |  46691 |  63344 EK?@Z.q+  
      4 | 14:04.45 |  5:57.19 |  63345 |  90138 CYtjY~  
      5 | 20:01.64 |  4:18.04 |  90139 | 109492 ]bTzbu@  
      6 | 24:19.68 |  4:53.62 | 109493 | 131529 LAv:+o(m/  
      7 | 29:13.55 |  4:05.42 | 131530 | 149946 &_9YLXtMi;  
      8 | 33:19.22 |  3:58.55 | 149947 | 167851 Ak5[PBbW  
      9 | 37:18.02 |  4:58.60 | 167852 | 190261 .!yWF?T8  
     10 | 42:16.62 |  0:24.34 | 190262 | 192095 |5=~(-I>@  
     11 | 42:41.21 |  3:11.51 | 192096 | 206471 $A;7Em  
     12 | 45:52.72 |  4:21.10 | 206472 | 226056 48tcgFg[  
     13 | 50:14.07 |  4:14.09 | 226057 | 245115 L#`2.nU  
     14 | 54:28.16 |  4:12.36 | 245116 | 264051 2J;kD2"!  
     15 | 58:40.52 |  4:37.53 | 264052 | 284879 \G$QNUU  
     16 | 63:18.30 |  4:05.51 | 284880 | 303305 nnt8 sf@\  
     17 | 67:24.06 |  4:27.54 | 303306 | 323384 R=-+YBw7/  
3ty4D2y  
WD15pq l  
范围状态及错误 t< sp%zXZ  
QVIcb ;&:}  
已选择范围 UTZ776`S&X  
b,#`n  
     文件名 J:\12 Music*音乐\[WAV] Michael Jackson Audios\=【未发布】\T25\CDImage.wav OmB TA=E<  
i<%m Iq1L  
     峰值电平 99.8 % (O$}(Tn  
     抓取速度 7.0 X ;0IvF#SJ(.  
     范围质量 100.0 % p-.Ri^p   
     复制 CRC 1BE3341E qQ^d9EK'?~  
     复制成功 M~uMY+>   
rwy+~  
没有错误发生 G'u|Q mb1  
1\/{#c  
Us'Cs+5XcG  
AccurateRip 摘要 ^w.]Hd 2  
iQqqs`K  
音轨  1  精确地校准抓取  23)  [FF04AEE5]  (AR v2) kd yAl,  
音轨  2  精确地校准抓取  22)  [2E2748FB]  (AR v2) j1/+\8Y  
音轨  3  精确地校准抓取  23)  [7925F243]  (AR v2) /0(%(2jIWl  
音轨  4  精确地校准抓取  22)  [95D0B77B]  (AR v2) +p9- .YM  
音轨  5  精确地校准抓取  22)  [BE078B93]  (AR v2) c&E]E(  
音轨  6  精确地校准抓取  23)  [4E5BD4D8]  (AR v2) }`9jH:q-Z  
音轨  7  精确地校准抓取  22)  [AF52E0FE]  (AR v2) 0LdJZP  
音轨  8  精确地校准抓取  22)  [AEFCE961]  (AR v2) SAR= {/  
音轨  9  精确地校准抓取  22)  [E399BA53]  (AR v2) ;+a2\j+  
音轨 10  精确地校准抓取  23)  [8BCF451E]  (AR v2) 3f"C!l]Xu  
音轨 11  精确地校准抓取  22)  [217EF228]  (AR v2) UbO4%YHt  
音轨 12  精确地校准抓取  22)  [D69E3080]  (AR v2) dN< , %}R  
音轨 13  精确地校准抓取  22)  [72071AB8]  (AR v2) t8P PE  
音轨 14  精确地校准抓取  21)  [FF6A29BE]  (AR v2) Nar>FR7ut  
音轨 15  精确地校准抓取  22)  [B28B4010]  (AR v2) /& r|ec5  
音轨 16  精确地校准抓取  23)  [D21B938C]  (AR v2) >{wuEPA  
音轨 17  精确地校准抓取  23)  [7630E6AF]  (AR v2) J? .F\`N)  
vy [C'a  
所有音轨精确校准抓取 #Y2i*:<  
6Z?Su(s(5  
状态报告结尾
ygzxCn|#  
RO.U(T  
链接:http://pan.baidu.com/s/1jIoR1f4 密码: I-kWS 4  
此帖售价 10 金钱,已有 18 人购买 [记录] [购买]
购买后,将显示帖子中所有出售内容。
若发现会员采用欺骗的方法获取财富,请立刻举报,我们会对会员处以2-N倍的罚金,严重者封掉ID!
此段为出售的内容,购买后显示
离线Mr灬W

发帖
1130
金钱
12952
威望
161
贡献值
56
交易币
1283
只看该作者 1楼 发表于: 2017-06-11
感谢分享!
Heal The World
离线mjghosts

发帖
8252
金钱
218775
威望
9176
贡献值
2723
交易币
4763
只看该作者 2楼 发表于: 2017-06-11
回 Mr灬W 的帖子
Mr灬W:感谢分享! (2017-06-11 17:34)  P09;ng67  
<P=twT;P  
客气。 .?loO3 m  
PS:不小心在压缩包里留了个彩蛋
离线lifan_npl

发帖
2196
金钱
31917
威望
851
贡献值
428
交易币
2569
只看该作者 3楼 发表于: 2017-06-11
谢谢分享  我有一个红色的侧标版本
我的淘宝:
http://shop63152617.taobao.com  
离线mjghosts

发帖
8252
金钱
218775
威望
9176
贡献值
2723
交易币
4763
只看该作者 4楼 发表于: 2017-06-11
回 lifan_npl 的帖子
lifan_npl:谢谢分享  我有一个红色的侧标版本[表情]  (2017-06-11 22:39)  )we}6sE"  
] Bcp;D  
不错哈!
离线michaelpf

发帖
26
金钱
1044
威望
76
贡献值
10
交易币
21
只看该作者 5楼 发表于: 2017-06-12
我最爱的一张专辑,不得不收藏啊!谢谢幽灵
Michael,I love you!六道轮回  
离线Mr灬W

发帖
1130
金钱
12952
威望
161
贡献值
56
交易币
1283
只看该作者 6楼 发表于: 2017-06-12
哈哈,看到了,一个种子 0:9.;x9_  
Qa-K$dm%  
内容来自[短消息]
离线wannam

发帖
2702
金钱
87018
威望
382
贡献值
189
交易币
3345
只看该作者 7楼 发表于: 2017-06-12
非常有feel的封面

发帖
2740
金钱
30927
威望
620
贡献值
37
交易币
393
只看该作者 8楼 发表于: 2017-06-12
感谢分享。

在线mich008

发帖
840
金钱
5911
威望
24
贡献值
15
交易币
902
只看该作者 9楼 发表于: 2017-06-13
就差这个版本了
快速回复
限100 字节
 
上一个 下一个