论坛风格切换切换到宽版
  • 1231阅读
  • 21回复

[亲传][Album] Thriller25周年 (2008) (JP - EICP 961~2) - WAV整轨 ♬by幽灵 [复制链接]

上一主题 下一主题
离线mjghosts
 

发帖
8257
金钱
219460
威望
9187
贡献值
2734
交易币
4792
只看楼主 倒序阅读 楼主  发表于: 2017-06-11
— 本帖被 mjghosts 执行加亮操作(2017-06-11) —
*大家应该比较熟悉的版本了,08年重新制作的颤栗25周年纪念版,添加了一些之前未发行过的曲目和新混音。日本黑带首版,完美精确校准抓轨! ,/BBG\mJ  
(@vu/yN  
注:独家整理,转载请注明出处!EAC无损整轨(压缩包内含CD图片) vq B)PL5)  
9?:SxI;v  
解压密码:www.mjsunny.com
x\)0+c~\}x  
?{mFQ  
Tracklist 3+;]dqZ  
1 Wanna Be Startin' Somethin'     40<ifz[7  
2 Baby Be Mine     !G.)%+Z  
3 The Girl Is Mine     4E}]>  
4 Thriller     a.L ?J  
5 Beat It     \::<]  
6 Billie Jean     Fyrr,#  
7 Human Nature     IKb 7#Ut  
8 P.Y.T. (Pretty Young Thing)     ~T7\lJ{%G  
9 The Lady In My Life     <\|f;7/  
10 Vincent Price Excerpt From "Thriller" Voice-Over Session     2u4aCfIx  
11 The Girl Is Mine 2008     qd6XKl\5  
12 P.Y.T. (Pretty Young Thing) 2008     f7mP4[+dS  
13 Wanna Be Startin' Somethin' 2008     JeU|e$I4>  
14 Beat It 2008     id8a#&t]  
15 Billie Jean 2008     ?ntyF-n&  
16 For All Time (Unreleased Track From The Original Thriller Sessions)     rIR~YMv!  
17 Got The Hots (Unreleased Track From The Original Thriller Sessions)
OWT5Bjl  
y)X1!3~(  
by,"Orpwq;  
V4ml& D  
;  6Js   
Exact Audio Copy V1.0 beta 6 from 9. April 2015 ,d'x]&a  
jXB<"bw  
EAC 抓取日志文件从3. 六月 2017, 17:38 a^t#kdT  
`j{ 5$X  
Michael Jackson / Thriller 25 /MKcS%/H/  
*/fmy|#   
使用驱动器  :MATSHITADVD-RAM UJ890AS   Adapter: 1  ID: 1 _"%mLH=!8  
tYK 5?d  
读取模式      : 可靠Secure l?LwQmq6  
使用精确流     : 是 MX2 Zm  
清空音频缓存    : 否 cL}} ^  
使用 C2 指示器 : 是 o5)lTVQ~~  
Q{1Q w'+@  
读取偏移校正:               : 102 p(o"K@I  
读取 Lead-In 和 Lead-Out : 否 Dz4e.tvN  
用静音填充抓取中丢失偏移的采样       : 是 I~ Q2jg2  
去除首尾静音块               : 否 nKpXRuFn\  
在CRC 计算中使用了空样本       : 是 ~.\CG'g  
已用接口                  : Win NT 及 2000 本地 Win32 接口 eW%Cef  
5DB4vh  
所用输出模式: : 内部 WAV 函数 5eS0 B{,c  
样本格式    : 44.100 Hz; 16 Bit; 立体声 lsJl+%&8  
zM:&`6;e  
PX!$w*q  
已抓取 CD 的 TOC oN3DM;  
jUnS&1]MF  
     音轨 |    起始    |    长度    |  起始扇区  |  结束扇区   rLP:kP'b  
    -------------------------------------------- Bgw=((p  
      1 |  0:00.00 |  6:02.28 |      0 |  27177 ~@Yiwp\"  
      2 |  6:02.28 |  4:20.13 |  27178 |  46690 %0-fn'  
      3 | 10:22.41 |  3:42.04 |  46691 |  63344 aYy+iP'$  
      4 | 14:04.45 |  5:57.19 |  63345 |  90138 `4GEq2%  
      5 | 20:01.64 |  4:18.04 |  90139 | 109492 w~+C.4=7  
      6 | 24:19.68 |  4:53.62 | 109493 | 131529 0<ze'FbV]  
      7 | 29:13.55 |  4:05.42 | 131530 | 149946 ]Q8[,HTG  
      8 | 33:19.22 |  3:58.55 | 149947 | 167851 5B:% ##Ug5  
      9 | 37:18.02 |  4:58.60 | 167852 | 190261 S1d^mu  
     10 | 42:16.62 |  0:24.34 | 190262 | 192095 ERka l7+  
     11 | 42:41.21 |  3:11.51 | 192096 | 206471 D^m`&asC  
     12 | 45:52.72 |  4:21.10 | 206472 | 226056 zeqwmV=  
     13 | 50:14.07 |  4:14.09 | 226057 | 245115 m/E$0tf  
     14 | 54:28.16 |  4:12.36 | 245116 | 264051 =qWcw7!"  
     15 | 58:40.52 |  4:37.53 | 264052 | 284879 Ka4KsJN  
     16 | 63:18.30 |  4:05.51 | 284880 | 303305 Q L 1e  
     17 | 67:24.06 |  4:27.54 | 303306 | 323384 iNO}</7?  
(=\))t8J  
;:WM^S  
范围状态及错误 )(/Bw&$  
u-/5&Endb  
已选择范围  9M]%h  
5+Ld1nom  
     文件名 J:\12 Music*音乐\[WAV] Michael Jackson Audios\=【未发布】\T25\CDImage.wav U,g)N[|  
(ah^</  
     峰值电平 99.8 % "AuU5G 9'I  
     抓取速度 7.0 X oF(=@UL  
     范围质量 100.0 % 'pa8h L  
     复制 CRC 1BE3341E FgnS+c3W(  
     复制成功 b/]@G05>>  
3?x}48  
没有错误发生  QUb#84  
gk^`-`P  
5M= S7B3=  
AccurateRip 摘要 6xW17P  
A4IPd  
音轨  1  精确地校准抓取  23)  [FF04AEE5]  (AR v2) 'iikcf*)C  
音轨  2  精确地校准抓取  22)  [2E2748FB]  (AR v2) nK>D& S_!  
音轨  3  精确地校准抓取  23)  [7925F243]  (AR v2) FV>xAU$  
音轨  4  精确地校准抓取  22)  [95D0B77B]  (AR v2) gMB/ ~g5b0  
音轨  5  精确地校准抓取  22)  [BE078B93]  (AR v2) w@$_2t  
音轨  6  精确地校准抓取  23)  [4E5BD4D8]  (AR v2) G_5E#{u  
音轨  7  精确地校准抓取  22)  [AF52E0FE]  (AR v2) NVG`XL  
音轨  8  精确地校准抓取  22)  [AEFCE961]  (AR v2) *OR(8;  
音轨  9  精确地校准抓取  22)  [E399BA53]  (AR v2) -z?O^:e#x  
音轨 10  精确地校准抓取  23)  [8BCF451E]  (AR v2) Jo9!:2?  
音轨 11  精确地校准抓取  22)  [217EF228]  (AR v2) S+M:{<AR  
音轨 12  精确地校准抓取  22)  [D69E3080]  (AR v2) tbq_ Rg7s  
音轨 13  精确地校准抓取  22)  [72071AB8]  (AR v2) od`:w[2\  
音轨 14  精确地校准抓取  21)  [FF6A29BE]  (AR v2) ~\~XD+jy"  
音轨 15  精确地校准抓取  22)  [B28B4010]  (AR v2) 5%%A2FrB.S  
音轨 16  精确地校准抓取  23)  [D21B938C]  (AR v2) ]qNPOnlp  
音轨 17  精确地校准抓取  23)  [7630E6AF]  (AR v2) fH[:S9@  
3I.0uLjg^  
所有音轨精确校准抓取 *l\vqgv.Z  
a&~]77)  
状态报告结尾
}dSxrT  
>6cENe_@t  
链接:http://pan.baidu.com/s/1jIoR1f4 密码: *|Fl&`2  
此帖售价 10 金钱,已有 19 人购买 [记录] [购买]
购买后,将显示帖子中所有出售内容。
若发现会员采用欺骗的方法获取财富,请立刻举报,我们会对会员处以2-N倍的罚金,严重者封掉ID!
此段为出售的内容,购买后显示
离线Mr灬W

发帖
1130
金钱
12952
威望
161
贡献值
56
交易币
1283
只看该作者 1楼 发表于: 2017-06-11
感谢分享!
Heal The World
离线mjghosts

发帖
8257
金钱
219460
威望
9187
贡献值
2734
交易币
4792
只看该作者 2楼 发表于: 2017-06-11
回 Mr灬W 的帖子
Mr灬W:感谢分享! (2017-06-11 17:34)  \f  LBw0  
)yP>}ME  
客气。 M<)2  
PS:不小心在压缩包里留了个彩蛋
离线lifan_npl

发帖
2213
金钱
31997
威望
853
贡献值
430
交易币
2594
只看该作者 3楼 发表于: 2017-06-11
谢谢分享  我有一个红色的侧标版本
我的淘宝店:
http://shop63152617.taobao.com  
离线mjghosts

发帖
8257
金钱
219460
威望
9187
贡献值
2734
交易币
4792
只看该作者 4楼 发表于: 2017-06-11
回 lifan_npl 的帖子
lifan_npl:谢谢分享  我有一个红色的侧标版本[表情]  (2017-06-11 22:39)  q5:0&:m$4$  
$?]@_=  
不错哈!
离线michaelpf

发帖
26
金钱
1044
威望
76
贡献值
10
交易币
21
只看该作者 5楼 发表于: 2017-06-12
我最爱的一张专辑,不得不收藏啊!谢谢幽灵
Michael,I love you!六道轮回  
离线Mr灬W

发帖
1130
金钱
12952
威望
161
贡献值
56
交易币
1283
只看该作者 6楼 发表于: 2017-06-12
哈哈,看到了,一个种子 `2pO5B50  
RwUW;hU  
内容来自[短消息]
离线wannam

发帖
2703
金钱
87075
威望
382
贡献值
189
交易币
3346
只看该作者 7楼 发表于: 2017-06-12
非常有feel的封面

发帖
2752
金钱
30900
威望
621
贡献值
38
交易币
409
只看该作者 8楼 发表于: 2017-06-12
感谢分享。

离线mich008

发帖
852
金钱
6241
威望
24
贡献值
15
交易币
914
只看该作者 9楼 发表于: 2017-06-13
就差这个版本了
快速回复
限100 字节
 
上一个 下一个