论坛风格切换切换到宽版
  • 1032阅读
  • 21回复

[亲传][Album] Thriller25周年 (2008) (JP - EICP 961~2) - WAV整轨 ♬by幽灵 [复制链接]

上一主题 下一主题
离线mjghosts
 

发帖
8256
金钱
219309
威望
9187
贡献值
2734
交易币
4791
只看楼主 倒序阅读 楼主  发表于: 2017-06-11
— 本帖被 mjghosts 执行加亮操作(2017-06-11) —
*大家应该比较熟悉的版本了,08年重新制作的颤栗25周年纪念版,添加了一些之前未发行过的曲目和新混音。日本黑带首版,完美精确校准抓轨! $cJ fdE  
Cojs;`3iF:  
注:独家整理,转载请注明出处!EAC无损整轨(压缩包内含CD图片) 5XB]p|YU~s  
|%ZJN{!R  
解压密码:www.mjsunny.com
1;S?9N_B  
0!ZaR 6  
Tracklist =SeQ- H#  
1 Wanna Be Startin' Somethin'     P!IA;i  
2 Baby Be Mine     Ay 4P_>^  
3 The Girl Is Mine     (hZNWQ0  
4 Thriller     AzZhIhWl">  
5 Beat It     $MwBt  
6 Billie Jean     T$R#d&t  
7 Human Nature     sZr \mQ~  
8 P.Y.T. (Pretty Young Thing)     ]u$tKC  
9 The Lady In My Life     w6X:39d  
10 Vincent Price Excerpt From "Thriller" Voice-Over Session     x4wTQ$*1  
11 The Girl Is Mine 2008     %k['<BYG<  
12 P.Y.T. (Pretty Young Thing) 2008     CdmpKkq#  
13 Wanna Be Startin' Somethin' 2008     6|f8DX%3V  
14 Beat It 2008     .JB1#&B +  
15 Billie Jean 2008     \ctzv``/n  
16 For All Time (Unreleased Track From The Original Thriller Sessions)     Te?PYV-  
17 Got The Hots (Unreleased Track From The Original Thriller Sessions)
Vq`/]&  
0n`Temb/  
j #P4&  
~Y*.cGA  
hrzxc4,W  
Exact Audio Copy V1.0 beta 6 from 9. April 2015 \I4Uj.'> \  
+MaEet  
EAC 抓取日志文件从3. 六月 2017, 17:38 0]'  2i  
zZRLFfz<9  
Michael Jackson / Thriller 25 ]:?S}DRG  
F-ofR]|) >  
使用驱动器  :MATSHITADVD-RAM UJ890AS   Adapter: 1  ID: 1 y&8`NS#_p?  
/c-k{5mH%  
读取模式      : 可靠Secure d#bg(y\G|  
使用精确流     : 是 h;r^9g  
清空音频缓存    : 否 ~~k0&mK|Q  
使用 C2 指示器 : 是 dJ])`S  
/`aPV"$M  
读取偏移校正:               : 102 p= x &X~  
读取 Lead-In 和 Lead-Out : 否 /=9dX; #  
用静音填充抓取中丢失偏移的采样       : 是 z~p!7q&g  
去除首尾静音块               : 否 d`$w3Hy  
在CRC 计算中使用了空样本       : 是 N!dBF t"  
已用接口                  : Win NT 及 2000 本地 Win32 接口 06.8m;{N  
7iM@BeIf  
所用输出模式: : 内部 WAV 函数 >>C S8  
样本格式    : 44.100 Hz; 16 Bit; 立体声 |G6'GTwZD  
T9r6,yY  
a x;<idC}  
已抓取 CD 的 TOC 5{1=BZftZ  
0 .T5% _ /  
     音轨 |    起始    |    长度    |  起始扇区  |  结束扇区   zn^ G V  
    -------------------------------------------- ".#h$  
      1 |  0:00.00 |  6:02.28 |      0 |  27177 ,g"JgX  
      2 |  6:02.28 |  4:20.13 |  27178 |  46690 'BgR01w J  
      3 | 10:22.41 |  3:42.04 |  46691 |  63344 0/7.RpX,.  
      4 | 14:04.45 |  5:57.19 |  63345 |  90138 ScVbo3{m*T  
      5 | 20:01.64 |  4:18.04 |  90139 | 109492 Q/j#Pst  
      6 | 24:19.68 |  4:53.62 | 109493 | 131529 g@/}SJh/>  
      7 | 29:13.55 |  4:05.42 | 131530 | 149946 +tg${3ti_  
      8 | 33:19.22 |  3:58.55 | 149947 | 167851 ]{+Y!tD  
      9 | 37:18.02 |  4:58.60 | 167852 | 190261 `}$bJCSF.n  
     10 | 42:16.62 |  0:24.34 | 190262 | 192095 e8(Qx3T?b  
     11 | 42:41.21 |  3:11.51 | 192096 | 206471 Tl]yl$  
     12 | 45:52.72 |  4:21.10 | 206472 | 226056 4:b'VHW.  
     13 | 50:14.07 |  4:14.09 | 226057 | 245115 .~rg#*]^  
     14 | 54:28.16 |  4:12.36 | 245116 | 264051 #(+V&< K  
     15 | 58:40.52 |  4:37.53 | 264052 | 284879 1Id"|/b%$  
     16 | 63:18.30 |  4:05.51 | 284880 | 303305 j:2 F97  
     17 | 67:24.06 |  4:27.54 | 303306 | 323384 9 p^gF2?k  
UFj!7gX]  
A =&`TfXu  
范围状态及错误 WW^+X~Y  
;7H^;+P  
已选择范围 g\IwV+iDf  
[io|qLr}\  
     文件名 J:\12 Music*音乐\[WAV] Michael Jackson Audios\=【未发布】\T25\CDImage.wav 2hryY  
pNmWBp|ER  
     峰值电平 99.8 % SdnO#J}{  
     抓取速度 7.0 X D$NpyF.87  
     范围质量 100.0 % qss )5a/x.  
     复制 CRC 1BE3341E ub`zS-vb  
     复制成功 =2} kiLKO  
%p&y/^=0I  
没有错误发生 H5:f&m  
Q#K10*-O6  
vEGI  
AccurateRip 摘要 P4/~_$e  
?0+g.,9  
音轨  1  精确地校准抓取  23)  [FF04AEE5]  (AR v2) n"Bc2}{  
音轨  2  精确地校准抓取  22)  [2E2748FB]  (AR v2) 3 5L0 CM  
音轨  3  精确地校准抓取  23)  [7925F243]  (AR v2) @_#\qGY  
音轨  4  精确地校准抓取  22)  [95D0B77B]  (AR v2) YV@efPy}n  
音轨  5  精确地校准抓取  22)  [BE078B93]  (AR v2) '!,(G3  
音轨  6  精确地校准抓取  23)  [4E5BD4D8]  (AR v2) #reW)P>  
音轨  7  精确地校准抓取  22)  [AF52E0FE]  (AR v2) gxAy{ t  
音轨  8  精确地校准抓取  22)  [AEFCE961]  (AR v2) 'V&Uh]>  
音轨  9  精确地校准抓取  22)  [E399BA53]  (AR v2) pv-c>8Wb6  
音轨 10  精确地校准抓取  23)  [8BCF451E]  (AR v2) j|!t3}((  
音轨 11  精确地校准抓取  22)  [217EF228]  (AR v2) 8?YeaMIBB  
音轨 12  精确地校准抓取  22)  [D69E3080]  (AR v2) 3T4HX|rC  
音轨 13  精确地校准抓取  22)  [72071AB8]  (AR v2) ;YW@ 3F-h  
音轨 14  精确地校准抓取  21)  [FF6A29BE]  (AR v2) \4C[<Gbx$(  
音轨 15  精确地校准抓取  22)  [B28B4010]  (AR v2) ecQ,DOX|b  
音轨 16  精确地校准抓取  23)  [D21B938C]  (AR v2) *kYGXT,f]  
音轨 17  精确地校准抓取  23)  [7630E6AF]  (AR v2) G43r85LO  
P t/]Z<VL  
所有音轨精确校准抓取 zR]!g|;f  
1+XM1(|c`  
状态报告结尾
`ZI-1&Y3  
Ot:}Ncq^\O  
链接:http://pan.baidu.com/s/1jIoR1f4 密码: 4K? \5(b  
此帖售价 10 金钱,已有 19 人购买 [记录] [购买]
购买后,将显示帖子中所有出售内容。
若发现会员采用欺骗的方法获取财富,请立刻举报,我们会对会员处以2-N倍的罚金,严重者封掉ID!
此段为出售的内容,购买后显示
离线Mr灬W

发帖
1130
金钱
12952
威望
161
贡献值
56
交易币
1283
只看该作者 1楼 发表于: 2017-06-11
感谢分享!
Heal The World
离线mjghosts

发帖
8256
金钱
219309
威望
9187
贡献值
2734
交易币
4791
只看该作者 2楼 发表于: 2017-06-11
回 Mr灬W 的帖子
Mr灬W:感谢分享! (2017-06-11 17:34)  rByth,|  
62HA[cr&)  
客气。 <ZSXOh,'  
PS:不小心在压缩包里留了个彩蛋
离线lifan_npl

发帖
2211
金钱
31689
威望
853
贡献值
430
交易币
2592
只看该作者 3楼 发表于: 2017-06-11
谢谢分享  我有一个红色的侧标版本
我的淘宝店:
http://shop63152617.taobao.com  
离线mjghosts

发帖
8256
金钱
219309
威望
9187
贡献值
2734
交易币
4791
只看该作者 4楼 发表于: 2017-06-11
回 lifan_npl 的帖子
lifan_npl:谢谢分享  我有一个红色的侧标版本[表情]  (2017-06-11 22:39)  }qdGS<{  
=kWm9W<^  
不错哈!
离线michaelpf

发帖
26
金钱
1044
威望
76
贡献值
10
交易币
21
只看该作者 5楼 发表于: 2017-06-12
我最爱的一张专辑,不得不收藏啊!谢谢幽灵
Michael,I love you!六道轮回  
离线Mr灬W

发帖
1130
金钱
12952
威望
161
贡献值
56
交易币
1283
只看该作者 6楼 发表于: 2017-06-12
哈哈,看到了,一个种子 p#UrZKR  
I]|X6  
内容来自[短消息]
离线wannam

发帖
2703
金钱
87033
威望
382
贡献值
189
交易币
3346
只看该作者 7楼 发表于: 2017-06-12
非常有feel的封面

发帖
2750
金钱
30821
威望
621
贡献值
38
交易币
407
只看该作者 8楼 发表于: 2017-06-12
感谢分享。

离线mich008

发帖
848
金钱
5953
威望
24
贡献值
15
交易币
910
只看该作者 9楼 发表于: 2017-06-13
就差这个版本了
快速回复
限100 字节
 
上一个 下一个