论坛风格切换切换到宽版
  • 1452阅读
  • 22回复

[亲传][Album] Thriller25周年 (2008) (JP - EICP 961~2) - WAV整轨 ♬by幽灵 [复制链接]

上一主题 下一主题
离线mjghosts
 

发帖
8261
金钱
219535
威望
9187
贡献值
2734
交易币
4796
只看楼主 倒序阅读 楼主  发表于: 2017-06-11
— 本帖被 mjghosts 执行加亮操作(2017-06-11) —
*大家应该比较熟悉的版本了,08年重新制作的颤栗25周年纪念版,添加了一些之前未发行过的曲目和新混音。日本黑带首版,完美精确校准抓轨! m/W0vPM 1  
9GdQ$^m  
注:独家整理,转载请注明出处!EAC无损整轨(压缩包内含CD图片) H"hL+F^  
*LnY}#  
解压密码:www.mjsunny.com
8SmtEV[b3  
{oIv%U9  
Tracklist a o_A %?Ld  
1 Wanna Be Startin' Somethin'     VT.BHZ  
2 Baby Be Mine     mQ#E{{:H+  
3 The Girl Is Mine     'M"JF;*r  
4 Thriller      q0Rd^c  
5 Beat It     V&)lS Qw  
6 Billie Jean     4 I}xygV  
7 Human Nature     qta^i819  
8 P.Y.T. (Pretty Young Thing)     1S !<D)n  
9 The Lady In My Life     ['F,  
10 Vincent Price Excerpt From "Thriller" Voice-Over Session     ZSL:q%:.  
11 The Girl Is Mine 2008     w3j51v` 0'  
12 P.Y.T. (Pretty Young Thing) 2008     v]*(Wd~|  
13 Wanna Be Startin' Somethin' 2008     .BLF7> M1  
14 Beat It 2008     XxT7YCi  
15 Billie Jean 2008     k:(i sKIA  
16 For All Time (Unreleased Track From The Original Thriller Sessions)     d\nBc6  
17 Got The Hots (Unreleased Track From The Original Thriller Sessions)
yKR0]6ahA  
Y~=]RCg  
6km{= ```  
\-c8/=  
4uip!@$K  
Exact Audio Copy V1.0 beta 6 from 9. April 2015 {b@rQCre7  
f[)_=T+  
EAC 抓取日志文件从3. 六月 2017, 17:38 |=.z0{A7H  
9E{Bn#  
Michael Jackson / Thriller 25 uNLB3Rdy}  
+4emkDTdR  
使用驱动器  :MATSHITADVD-RAM UJ890AS   Adapter: 1  ID: 1 HF-Msu6  
|Iy55~hK`  
读取模式      : 可靠Secure nLq7J:  
使用精确流     : 是 LX.1]T*m`  
清空音频缓存    : 否 @]f"X>  
使用 C2 指示器 : 是 7p}G!]`  
+P6#7.p`Z  
读取偏移校正:               : 102 Y_`D5c:  
读取 Lead-In 和 Lead-Out : 否 [~)i<V|qJ  
用静音填充抓取中丢失偏移的采样       : 是 ww"ihUX  
去除首尾静音块               : 否 RVfRGc^lK  
在CRC 计算中使用了空样本       : 是 a34'[R  
已用接口                  : Win NT 及 2000 本地 Win32 接口 ~c!zTe  
ovCk :Vz  
所用输出模式: : 内部 WAV 函数 U-TwrX  
样本格式    : 44.100 Hz; 16 Bit; 立体声 ~nb%w?vv  
8aGZ% UI  
<C6/R]x#  
已抓取 CD 的 TOC  Xvs{2  
4:cbasy  
     音轨 |    起始    |    长度    |  起始扇区  |  结束扇区   h_]3L/  
    -------------------------------------------- ;JFE7\-mC  
      1 |  0:00.00 |  6:02.28 |      0 |  27177  wB5zp  
      2 |  6:02.28 |  4:20.13 |  27178 |  46690 Wnl8XHPn  
      3 | 10:22.41 |  3:42.04 |  46691 |  63344 uGl0z79  
      4 | 14:04.45 |  5:57.19 |  63345 |  90138 3HbHl?-UNU  
      5 | 20:01.64 |  4:18.04 |  90139 | 109492 J+\F)k>r  
      6 | 24:19.68 |  4:53.62 | 109493 | 131529 fokT)nf~^8  
      7 | 29:13.55 |  4:05.42 | 131530 | 149946 w0SzK-&  
      8 | 33:19.22 |  3:58.55 | 149947 | 167851 zx-+u7qKH  
      9 | 37:18.02 |  4:58.60 | 167852 | 190261 5?;'26iC  
     10 | 42:16.62 |  0:24.34 | 190262 | 192095 { r&M  
     11 | 42:41.21 |  3:11.51 | 192096 | 206471 X 3L9j(  
     12 | 45:52.72 |  4:21.10 | 206472 | 226056 ? z=>n  
     13 | 50:14.07 |  4:14.09 | 226057 | 245115 Q77qrx3  
     14 | 54:28.16 |  4:12.36 | 245116 | 264051 @hzQk~Gdi  
     15 | 58:40.52 |  4:37.53 | 264052 | 284879 *`}_e)(k  
     16 | 63:18.30 |  4:05.51 | 284880 | 303305 #C+Gk4"w  
     17 | 67:24.06 |  4:27.54 | 303306 | 323384 8.pz?{**T  
20?i4h_  
}#'KME4  
范围状态及错误 o95O!5 hl  
Qmn5umd=?\  
已选择范围 =AD/5E,3  
a|nlmH"l  
     文件名 J:\12 Music*音乐\[WAV] Michael Jackson Audios\=【未发布】\T25\CDImage.wav J$e.$ah;  
s=%HTfw  
     峰值电平 99.8 % ='VIbE@qC  
     抓取速度 7.0 X JA(nDD/;  
     范围质量 100.0 % (VOKa  
     复制 CRC 1BE3341E 4|2$b:t  
     复制成功 {?!hUi+  
%I.{umU  
没有错误发生 VuPET  
D46| )-  
v PGuEfz  
AccurateRip 摘要 ks r5P~  
kyjH~mK4  
音轨  1  精确地校准抓取  23)  [FF04AEE5]  (AR v2) k9n  
音轨  2  精确地校准抓取  22)  [2E2748FB]  (AR v2) > Qtyw.n  
音轨  3  精确地校准抓取  23)  [7925F243]  (AR v2) 19rUvgC{M  
音轨  4  精确地校准抓取  22)  [95D0B77B]  (AR v2) nB]Q^~jX  
音轨  5  精确地校准抓取  22)  [BE078B93]  (AR v2) BE+Y qT  
音轨  6  精确地校准抓取  23)  [4E5BD4D8]  (AR v2) 6wd]X-G++  
音轨  7  精确地校准抓取  22)  [AF52E0FE]  (AR v2) h0eo:Ahi  
音轨  8  精确地校准抓取  22)  [AEFCE961]  (AR v2) ;MMFF{  
音轨  9  精确地校准抓取  22)  [E399BA53]  (AR v2) bGJUu#  
音轨 10  精确地校准抓取  23)  [8BCF451E]  (AR v2) nGbrWu]w  
音轨 11  精确地校准抓取  22)  [217EF228]  (AR v2) VM,ZEt3Vy  
音轨 12  精确地校准抓取  22)  [D69E3080]  (AR v2) 8<kme"% s  
音轨 13  精确地校准抓取  22)  [72071AB8]  (AR v2) U %ESuq#  
音轨 14  精确地校准抓取  21)  [FF6A29BE]  (AR v2) wuk7mIJ  
音轨 15  精确地校准抓取  22)  [B28B4010]  (AR v2) yd72y'zi  
音轨 16  精确地校准抓取  23)  [D21B938C]  (AR v2) <J)A_Kx[57  
音轨 17  精确地校准抓取  23)  [7630E6AF]  (AR v2) =5ih,>>g  
j;v%4G  
所有音轨精确校准抓取 h)rf6*hw  
 J31M:<  
状态报告结尾
/[? F1Q  
j7 =3\SO  
链接:http://pan.baidu.com/s/1jIoR1f4 密码: \+3Wd$I  
此帖售价 10 金钱,已有 20 人购买 [记录] [购买]
购买后,将显示帖子中所有出售内容。
若发现会员采用欺骗的方法获取财富,请立刻举报,我们会对会员处以2-N倍的罚金,严重者封掉ID!
此段为出售的内容,购买后显示
离线Mr灬W

发帖
1130
金钱
12952
威望
161
贡献值
56
交易币
1283
只看该作者 1楼 发表于: 2017-06-11
感谢分享!
Heal The World
离线mjghosts

发帖
8261
金钱
219535
威望
9187
贡献值
2734
交易币
4796
只看该作者 2楼 发表于: 2017-06-11
回 Mr灬W 的帖子
Mr灬W:感谢分享! (2017-06-11 17:34)  lH2wG2  
38IMxd9v  
客气。 QDTNx!WL  
PS:不小心在压缩包里留了个彩蛋
离线lifan_npl

发帖
2217
金钱
31760
威望
853
贡献值
430
交易币
2598
只看该作者 3楼 发表于: 2017-06-11
谢谢分享  我有一个红色的侧标版本
我的淘宝店:
http://shop63152617.taobao.com  
离线mjghosts

发帖
8261
金钱
219535
威望
9187
贡献值
2734
交易币
4796
只看该作者 4楼 发表于: 2017-06-11
回 lifan_npl 的帖子
lifan_npl:谢谢分享  我有一个红色的侧标版本[表情]  (2017-06-11 22:39)  q.Nweu!jQ  
BF{w)=@/'  
不错哈!
离线michaelpf

发帖
26
金钱
1044
威望
76
贡献值
10
交易币
21
只看该作者 5楼 发表于: 2017-06-12
我最爱的一张专辑,不得不收藏啊!谢谢幽灵
Michael,I love you!六道轮回  
离线Mr灬W

发帖
1130
金钱
12952
威望
161
贡献值
56
交易币
1283
只看该作者 6楼 发表于: 2017-06-12
哈哈,看到了,一个种子 O8RzUg&  
ofCVbn  
内容来自[短消息]
离线wannam

发帖
2703
金钱
87079
威望
382
贡献值
189
交易币
3346
只看该作者 7楼 发表于: 2017-06-12
非常有feel的封面

发帖
2763
金钱
30921
威望
621
贡献值
38
交易币
420
只看该作者 8楼 发表于: 2017-06-12
感谢分享。

离线mich008

发帖
855
金钱
6561
威望
24
贡献值
15
交易币
917
只看该作者 9楼 发表于: 2017-06-13
就差这个版本了
快速回复
限100 字节
 
上一个 下一个