论坛风格切换切换到宽版
  • 1636阅读
  • 22回复

[亲传][Album] Thriller25周年 (2008) (JP - EICP 961~2) - WAV整轨 ♬by幽灵 [复制链接]

上一主题 下一主题
离线mjghosts
 

发帖
8262
金钱
219666
威望
9187
贡献值
2734
交易币
4797
只看楼主 倒序阅读 楼主  发表于: 2017-06-11
— 本帖被 mjghosts 执行加亮操作(2017-06-11) —
*大家应该比较熟悉的版本了,08年重新制作的颤栗25周年纪念版,添加了一些之前未发行过的曲目和新混音。日本黑带首版,完美精确校准抓轨! fVv#|   
?^P#P0  
注:独家整理,转载请注明出处!EAC无损整轨(压缩包内含CD图片) Z y@35;r  
`Yp\.K z  
解压密码:www.mjsunny.com
W+PAlsOC  
vgOmcf%;  
Tracklist pcNVtp 'V  
1 Wanna Be Startin' Somethin'     gVCkj!{  
2 Baby Be Mine     =wK3\rG  
3 The Girl Is Mine     gwQL9 UYx  
4 Thriller     ,0[8/)$M  
5 Beat It     x*5' 6  
6 Billie Jean     l W'6rat  
7 Human Nature     lE08UEk1i  
8 P.Y.T. (Pretty Young Thing)     <;#d*&]  
9 The Lady In My Life     8gJ"7,}-'  
10 Vincent Price Excerpt From "Thriller" Voice-Over Session     :<gmgI  
11 The Girl Is Mine 2008     8U\;N  
12 P.Y.T. (Pretty Young Thing) 2008     \%&QIe;:k  
13 Wanna Be Startin' Somethin' 2008     )8ctNpQt  
14 Beat It 2008     ?F*gFW_k  
15 Billie Jean 2008     %&Z!-k(  
16 For All Time (Unreleased Track From The Original Thriller Sessions)     6aCAz2 /  
17 Got The Hots (Unreleased Track From The Original Thriller Sessions)
/QHvwaW[  
Niou=PI@  
Cf<i"   
b,D+1'  
0mH>fs 4  
Exact Audio Copy V1.0 beta 6 from 9. April 2015 B2 Tp;)  
"%<Oadz ap  
EAC 抓取日志文件从3. 六月 2017, 17:38 zYYc#N/  
i~ n>dc YW  
Michael Jackson / Thriller 25 )<1M'2  
[FAoC3 k-h  
使用驱动器  :MATSHITADVD-RAM UJ890AS   Adapter: 1  ID: 1 + 3aAL&  
w~;1R\?|  
读取模式      : 可靠Secure S)n ~^q  
使用精确流     : 是 v5;c} n  
清空音频缓存    : 否 /V2Ih  
使用 C2 指示器 : 是 V'mQ {[{R  
|/Ggsfmby  
读取偏移校正:               : 102 GghZ".O  
读取 Lead-In 和 Lead-Out : 否 GASDkVoij  
用静音填充抓取中丢失偏移的采样       : 是 uv%T0JA/  
去除首尾静音块               : 否 K pDKIi  
在CRC 计算中使用了空样本       : 是 Kyq/'9`  
已用接口                  : Win NT 及 2000 本地 Win32 接口 az*c0Z<pl  
tda#9i[pkH  
所用输出模式: : 内部 WAV 函数 I q]+O Q  
样本格式    : 44.100 Hz; 16 Bit; 立体声 "oz : & #+  
/H/@7>  
` $*I%oT;  
已抓取 CD 的 TOC BCMQ^hP}t  
|(u6xPs;P  
     音轨 |    起始    |    长度    |  起始扇区  |  结束扇区   \e+h">`WgX  
    -------------------------------------------- L|ZxB7xk  
      1 |  0:00.00 |  6:02.28 |      0 |  27177 Vl'Gi44)3"  
      2 |  6:02.28 |  4:20.13 |  27178 |  46690 AK$&'t+$}7  
      3 | 10:22.41 |  3:42.04 |  46691 |  63344 nl<TM96  
      4 | 14:04.45 |  5:57.19 |  63345 |  90138 Fi)(~ji:  
      5 | 20:01.64 |  4:18.04 |  90139 | 109492 wtM1gYl^  
      6 | 24:19.68 |  4:53.62 | 109493 | 131529 "`Q &s  
      7 | 29:13.55 |  4:05.42 | 131530 | 149946 qofD@\-  
      8 | 33:19.22 |  3:58.55 | 149947 | 167851 H46N!{<;@  
      9 | 37:18.02 |  4:58.60 | 167852 | 190261 )DB\du   
     10 | 42:16.62 |  0:24.34 | 190262 | 192095 =xw+cs1,x  
     11 | 42:41.21 |  3:11.51 | 192096 | 206471 36e  
     12 | 45:52.72 |  4:21.10 | 206472 | 226056 R_W6}  
     13 | 50:14.07 |  4:14.09 | 226057 | 245115 HmiG%1+{A  
     14 | 54:28.16 |  4:12.36 | 245116 | 264051 Um^4[rl:#g  
     15 | 58:40.52 |  4:37.53 | 264052 | 284879 KFg q3snH  
     16 | 63:18.30 |  4:05.51 | 284880 | 303305 ]"/SU6#4:  
     17 | 67:24.06 |  4:27.54 | 303306 | 323384 /!?b&N/d)  
IaZmN.k*  
5tyA{&Ao  
范围状态及错误 _@i-?Q  
-AD@wn!wCJ  
已选择范围 7]} I  
2Z(t/Zp>  
     文件名 J:\12 Music*音乐\[WAV] Michael Jackson Audios\=【未发布】\T25\CDImage.wav vh.-9eD  
118lb]  
     峰值电平 99.8 % LofpBO6^  
     抓取速度 7.0 X /Yb8= eM  
     范围质量 100.0 % 9i U/[d  
     复制 CRC 1BE3341E 4evNZ Q  
     复制成功 h<)ceD<,  
EcX7wrl9x  
没有错误发生 ]hy@5Jyh  
[qV/&t|O*h  
X jxa 2D  
AccurateRip 摘要 >);M\,1\I  
)Ghw!m  
音轨  1  精确地校准抓取  23)  [FF04AEE5]  (AR v2) Ake l.&  
音轨  2  精确地校准抓取  22)  [2E2748FB]  (AR v2) 3TeRZ=2:*x  
音轨  3  精确地校准抓取  23)  [7925F243]  (AR v2) -qvMMit%7  
音轨  4  精确地校准抓取  22)  [95D0B77B]  (AR v2) +_vf=d  
音轨  5  精确地校准抓取  22)  [BE078B93]  (AR v2) 9An \uH)mL  
音轨  6  精确地校准抓取  23)  [4E5BD4D8]  (AR v2) 9mn~57`y  
音轨  7  精确地校准抓取  22)  [AF52E0FE]  (AR v2) "|Yy "iB[  
音轨  8  精确地校准抓取  22)  [AEFCE961]  (AR v2) Z 5P4 H  
音轨  9  精确地校准抓取  22)  [E399BA53]  (AR v2) (|<+yQ,@>  
音轨 10  精确地校准抓取  23)  [8BCF451E]  (AR v2) & @_PY  
音轨 11  精确地校准抓取  22)  [217EF228]  (AR v2) %z-so?gF  
音轨 12  精确地校准抓取  22)  [D69E3080]  (AR v2) BXxJra/V  
音轨 13  精确地校准抓取  22)  [72071AB8]  (AR v2) eOXu^M>:F  
音轨 14  精确地校准抓取  21)  [FF6A29BE]  (AR v2) 'IVC!uL,%  
音轨 15  精确地校准抓取  22)  [B28B4010]  (AR v2) r9b(d]  
音轨 16  精确地校准抓取  23)  [D21B938C]  (AR v2) i*&b@.7N  
音轨 17  精确地校准抓取  23)  [7630E6AF]  (AR v2) +~,q"6  
]z=dRq  
所有音轨精确校准抓取 ! z5c+JqN  
UQ)^`Zj  
状态报告结尾
Y10  
U` )d `4"  
链接:http://pan.baidu.com/s/1jIoR1f4 密码: <0Gk:NB,  
此帖售价 10 金钱,已有 20 人购买 [记录] [购买]
购买后,将显示帖子中所有出售内容。
若发现会员采用欺骗的方法获取财富,请立刻举报,我们会对会员处以2-N倍的罚金,严重者封掉ID!
此段为出售的内容,购买后显示
离线Mr灬W

发帖
1130
金钱
12952
威望
161
贡献值
56
交易币
1283
只看该作者 1楼 发表于: 2017-06-11
感谢分享!
Heal The World
离线mjghosts

发帖
8262
金钱
219666
威望
9187
贡献值
2734
交易币
4797
只看该作者 2楼 发表于: 2017-06-11
回 Mr灬W 的帖子
Mr灬W:感谢分享! (2017-06-11 17:34)  9ZjSM,+  
]2kgG*^n"  
客气。 "G\OKt'Z  
PS:不小心在压缩包里留了个彩蛋
离线lifan_npl

发帖
2225
金钱
31745
威望
853
贡献值
430
交易币
2606
只看该作者 3楼 发表于: 2017-06-11
谢谢分享  我有一个红色的侧标版本
我的淘宝店:
http://shop63152617.taobao.com  
离线mjghosts

发帖
8262
金钱
219666
威望
9187
贡献值
2734
交易币
4797
只看该作者 4楼 发表于: 2017-06-11
回 lifan_npl 的帖子
lifan_npl:谢谢分享  我有一个红色的侧标版本[表情]  (2017-06-11 22:39)  [WOLUb  
qlT'gUt=H  
不错哈!
离线michaelpf

发帖
26
金钱
1044
威望
76
贡献值
10
交易币
21
只看该作者 5楼 发表于: 2017-06-12
我最爱的一张专辑,不得不收藏啊!谢谢幽灵
Michael,I love you!六道轮回  
离线Mr灬W

发帖
1130
金钱
12952
威望
161
贡献值
56
交易币
1283
只看该作者 6楼 发表于: 2017-06-12
哈哈,看到了,一个种子 zEJ|;oL  
.EGZv (rz&  
内容来自[短消息]
离线wannam

发帖
2703
金钱
87101
威望
382
贡献值
189
交易币
3346
只看该作者 7楼 发表于: 2017-06-12
非常有feel的封面

发帖
2769
金钱
30908
威望
622
贡献值
39
交易币
430
只看该作者 8楼 发表于: 2017-06-12
感谢分享。

离线mich008

发帖
859
金钱
7017
威望
24
贡献值
15
交易币
921
只看该作者 9楼 发表于: 2017-06-13
就差这个版本了
快速回复
限100 字节
 
上一个 下一个