论坛风格切换切换到宽版
  • 871阅读
  • 15回复

[亲传][Comp] 1988 History Of Michael Jackson (JP Promo - QX 8P 95004) - WAV整轨 ♬by幽灵&恶魔心 [复制链接]

上一主题 下一主题
离线mjghosts
 

发帖
8244
金钱
217720
威望
9174
贡献值
2723
交易币
4755
只看楼主 倒序阅读 楼主  发表于: 2017-06-11
— 本帖被 mjghosts 设置为精华(2017-06-11) —
感谢论坛会员“恶魔心”抓轨&提供! ZbH6$2r  
yPbOiA*lHz  
@TKQ_7BcB  
神碟!! ~R|fdD/%  
17Q* <iCs  
*唯一一张88年的5寸独立企划宣传CD,产量甚少!共十三曲。其他两个版本为91年发行的十六曲。该版本名称为《History Of Michael Jackson》,音频均为原版单曲版,未经过编辑。后期版为《The History Of Michael Jackson》,音频均经过暖化处理,非原单曲版。 !oV'  
n;b 9f|&z  
注:独家整理,转载请注明出处!EAC无损整轨(压缩包内含CD图片) :Z ]E:f0P  
e ]>{?Z  
解压密码:www.mjsunny.com
Q[O U`   
G`!;RX  
Tracklist ;`bJgSCfo  
1 Enjoy Yourself 3:25 L3Q1az!Ct  
2 Blame It On The Boogie 3:36 \b88=^  
3 Don't Stop 'Til You Get Enough 6:05 !as<UH"\  
4 Rock With You 3:23 X'bp?m  
5 Off The Wall 3:48 : [vp.vw}/  
6 This Place Hotel 5:43 $j}sxxTT  
7 Medley : I Want You Back / Abc / The Love You Save 2:55 eEe8T=mD  
8 Billie Jean 4:53 $t </{]iX  
9 Beat It 4:17 TAJ9Y<  
10 Thriller 4:08 j'0*|f^z  
11 I Just Can't Stop Lovin' You 4:24 k0D&F;a%  
12 Bad 4:07 &akMj@4;R  
13 Smooth Criminal 4:12
A8eli=W  
%J%gXk}]  
CX'E+  
o_*|`E  
mg,f>(  
>qUO_>  
Exact Audio Copy V1.0 beta 6 from 9. April 2015 ujWHO$uz!  
|95/'a*  
EAC 抓取日志文件从11. 六月 2017, 13:46 ];2eIe  
/eMZTh*1P  
Michael Jackson / History Of Michael Jackson -MEz`7c~  
B# H  
使用驱动器  :HL-DT-STDVDRAM GT32N   Adapter: 1  ID: 0 CijS=-  
v!U#C[a^  
读取模式      : 可靠Secure d=KOV;~);  
使用精确流     : 是 d,+n,;6Cf  
清空音频缓存    : 否 ipp_?5TL  
使用 C2 指示器 : 否 v(7A=/W_  
Y#Vy:x[  
读取偏移校正:               : 103 +e:ZN tr9  
读取 Lead-In 和 Lead-Out : 否 hw'2q9J|  
用静音填充抓取中丢失偏移的采样       : 是 B;~agr  
去除首尾静音块               : 否 .nH /=  
在CRC 计算中使用了空样本       : 是 Bw=[g&+o1@  
已用接口                  : Win NT 及 2000 本地 Win32 接口 ?^vZ{B)&0E  
F`Y<(]+   
所用输出模式: : 内部 WAV 函数 &P3vcB  
样本格式    : 44.100 Hz; 16 Bit; 立体声 Xh/av[Q  
U.F65KaKF  
VT7NWT J,  
已抓取 CD 的 TOC pzr-}>xrZ  
E}=,"i  
     音轨 |    起始    |    长度    |  起始扇区  |  结束扇区   ~QcKW<bz  
    -------------------------------------------- i?/?{p$#a-  
      1 |  0:00.00 |  3:25.37 |      0 |  15411 ~\G3 l,4  
      2 |  3:25.37 |  3:36.00 |  15412 |  31611 j2Y(Q/i  
      3 |  7:01.37 |  6:05.00 |  31612 |  58986 i|^6s87"N2  
      4 | 13:06.37 |  3:23.38 |  58987 |  74249 TMCA?r%Y\  
      5 | 16:30.00 |  3:48.50 |  74250 |  91399 []0~9,u  
      6 | 20:18.50 |  5:43.25 |  91400 | 117149 #Vigu,zY  
      7 | 26:02.00 |  2:55.37 | 117150 | 130311 6S[D"Q94  
      8 | 28:57.37 |  4:53.63 | 130312 | 152349 V^+:U>$w  
      9 | 33:51.25 |  4:17.25 | 152350 | 171649 odf^W  
     10 | 38:08.50 |  4:08.12 | 171650 | 190261 3rg^R"&  
     11 | 42:16.62 |  4:24.63 | 190262 | 210124 ]!aa#?Fc  
     12 | 46:41.50 |  4:07.25 | 210125 | 228674 z44~5J]  
     13 | 50:49.00 |  4:12.62 | 228675 | 247636 <,4(3 >js  
~J{[]wi  
u/'sdt  
范围状态及错误 +|YZEC  
jsd]7C  
已选择范围 /t)c fFM  
TeCpT2!5j  
     文件名 E:\CDImage.wav WcO,4:  
'A!/pUML  
     峰值电平 100.0 % =e8L7_;  
     抓取速度 3.3 X /8t+d.r;/  
     范围质量 100.0 % u7P+^A97L_  
     复制 CRC 54E170B1 \Fg6b6  
     复制成功 !LOors za  
[RPAkp  
没有错误发生 D *I;|.=u  
;GFB@I@  
uoY`qF.`  
AccurateRip 摘要 a<wQzgxG  
h` h>H X  
音轨  1  在数据库中不存在 q6JW@GT  
音轨  2  在数据库中不存在 A :bPIXb  
音轨  3  在数据库中不存在 ~J>gVg%66  
音轨  4  在数据库中不存在 tG2OVRx8u  
音轨  5  在数据库中不存在 hdr}!w V  
音轨  6  在数据库中不存在 "R2t&X[9  
音轨  7  在数据库中不存在 n~)HfY  
音轨  8  在数据库中不存在 (21 W6  
音轨  9  在数据库中不存在 l P$r   
音轨 10  在数据库中不存在 ]r6BLZ[%  
音轨 11  在数据库中不存在 k'ZUBTRq!  
音轨 12  在数据库中不存在 H/Ec^Lc+_  
音轨 13  在数据库中不存在 xa{<R+LR  
^\[LrPq e  
没有任何音轨在 AccurateRip 数据库中有记录 S@}B:}2  
/}nrF4S  
状态报告结尾 833 %H`jQc  
LGo2^Xx  
---- CUETools DB Plugin V2.1.6 pdi=6<?bd  
(lN;xT`=  
[CTDB TOCID: sr_V1v_9t4xn4DNw5CKOSPufyAY-] disk not present in database ," C[Qg(  
Submit result: sr_V1v_9t4xn4DNw5CKOSPufyAY- has been uploaded
X%a;i6pq  
WjY{rM,K  
链接:http://pan.baidu.com/s/1pLugVV1 密码: QOT)x4!)  
此帖售价 20 金钱,已有 13 人购买 [记录] [购买]
购买后,将显示帖子中所有出售内容。
若发现会员采用欺骗的方法获取财富,请立刻举报,我们会对会员处以2-N倍的罚金,严重者封掉ID!
此段为出售的内容,购买后显示
离线耶稣

发帖
7147
金钱
272109
威望
2491
贡献值
1655
交易币
11218
只看该作者 1楼 发表于: 2017-06-11
基情满满,谢谢分享




离线恶魔心

发帖
3377
金钱
31025
威望
1735
贡献值
1130
交易币
3959
只看该作者 2楼 发表于: 2017-06-11
这辈子也就碰到这么一次这个碟了~~~
天降枭雄万恶身 地塌山摇起风云 盟结群魔掠八方 主宰苍生令沉浮
MJFOREVERLAND--淘宝小店
威恶扬名万骨悲 震碎乾坤祸劫临 江山万代同色变 湖海任我笑中行
离线Mr灬W

发帖
1129
金钱
12950
威望
161
贡献值
56
交易币
1282
只看该作者 3楼 发表于: 2017-06-11
感谢分享
Heal The World
离线Moses

发帖
5060
金钱
37310
威望
2951
贡献值
1521
交易币
2746
只看该作者 4楼 发表于: 2017-06-11
神盘
http://blog.sina.com.cn/mjjcfc
离线mj1997

发帖
1479
金钱
6187
威望
216
贡献值
92
交易币
982
只看该作者 5楼 发表于: 2017-06-11
很罕见呀感谢分享
我的资源博客http://blog.sina.com.cn/u/2993163994慢慢建设
在线lifan_npl

发帖
2189
金钱
19354
威望
816
贡献值
395
交易币
2550
只看该作者 6楼 发表于: 2017-06-11
好碟  谢谢分享
我的淘宝:
http://shop63152617.taobao.com  
离线wannam

发帖
2702
金钱
87012
威望
382
贡献值
189
交易币
3345
只看该作者 7楼 发表于: 2017-06-12
谢谢分享,满满感动

发帖
2735
金钱
31355
威望
620
贡献值
37
交易币
388
只看该作者 8楼 发表于: 2017-06-12
感谢分享

离线mich008

发帖
832
金钱
5936
威望
24
贡献值
15
交易币
894
只看该作者 9楼 发表于: 2017-06-13
就喜欢不同的版本
快速回复
限100 字节
 
上一个 下一个