论坛风格切换切换到宽版
  • 959阅读
  • 16回复

[亲传][Comp] 1988 History Of Michael Jackson (JP Promo - QX 8P 95004) - WAV整轨 ♬by幽灵&恶魔心 [复制链接]

上一主题 下一主题
离线mjghosts
 

发帖
8252
金钱
218775
威望
9176
贡献值
2723
交易币
4763
只看楼主 倒序阅读 楼主  发表于: 2017-06-11
— 本帖被 mjghosts 设置为精华(2017-06-11) —
感谢论坛会员“恶魔心”抓轨&提供! BHDd^bd  
NQ,2pM<*-  
RT"JAJTi/  
神碟!! r_3=+  
v.Xmrry  
*唯一一张88年的5寸独立企划宣传CD,产量甚少!共十三曲。其他两个版本为91年发行的十六曲。该版本名称为《History Of Michael Jackson》,音频均为原版单曲版,未经过编辑。后期版为《The History Of Michael Jackson》,音频均经过暖化处理,非原单曲版。 /y- 8dgv0a  
d2*uY.,  
注:独家整理,转载请注明出处!EAC无损整轨(压缩包内含CD图片) $i$Z+-W4'  
77;|PKE /  
解压密码:www.mjsunny.com
idNg&'   
U Kf0cU  
Tracklist `yrJ}f  
1 Enjoy Yourself 3:25 YI),yj  
2 Blame It On The Boogie 3:36 !k8j8v&  
3 Don't Stop 'Til You Get Enough 6:05 Cm#[$T@C  
4 Rock With You 3:23 Ypw:Vp  
5 Off The Wall 3:48 P30|TU+B  
6 This Place Hotel 5:43 =X=m_\=~@  
7 Medley : I Want You Back / Abc / The Love You Save 2:55 <6!/B[!O=  
8 Billie Jean 4:53 SJ8|~,vL  
9 Beat It 4:17 RV_+-m{]  
10 Thriller 4:08 ]xN)>A2  
11 I Just Can't Stop Lovin' You 4:24 rjL4t^rT  
12 Bad 4:07 ?TY/'-M5  
13 Smooth Criminal 4:12
)jed@?  
4>t=r\"4  
287)\FU;3  
z;6,,  
!r`/vQ #  
\Ea(f**2B  
Exact Audio Copy V1.0 beta 6 from 9. April 2015 yf2$HF  
Y@Ti2bI`v  
EAC 抓取日志文件从11. 六月 2017, 13:46 %S]g8O[}nl  
2*}qQ0J  
Michael Jackson / History Of Michael Jackson w}r~Wk^dLI  
Z$:iq  
使用驱动器  :HL-DT-STDVDRAM GT32N   Adapter: 1  ID: 0 ]]8^j='P'  
!7jVKI80  
读取模式      : 可靠Secure J~k'b2(p3  
使用精确流     : 是 52#Ac;Y  
清空音频缓存    : 否 ^{l$>e]  
使用 C2 指示器 : 否 0. mS^g,M-  
D%!GY1wdn  
读取偏移校正:               : 103 :FX|9h  
读取 Lead-In 和 Lead-Out : 否 B`wrr8"Rz  
用静音填充抓取中丢失偏移的采样       : 是 =U,mzY (  
去除首尾静音块               : 否 67T=ku  
在CRC 计算中使用了空样本       : 是 ,f^ ICM  
已用接口                  : Win NT 及 2000 本地 Win32 接口 ?z0N- A2C2  
OU'm0Jlk  
所用输出模式: : 内部 WAV 函数 5&TH\2u  
样本格式    : 44.100 Hz; 16 Bit; 立体声 JasA w7  
l;i /$Yu7  
Cf>(,rt};  
已抓取 CD 的 TOC bW^C30m  
K/M2L&C  
     音轨 |    起始    |    长度    |  起始扇区  |  结束扇区   v n4z C  
    -------------------------------------------- `#"xgOSP>  
      1 |  0:00.00 |  3:25.37 |      0 |  15411 '^M.;Giz  
      2 |  3:25.37 |  3:36.00 |  15412 |  31611 Q2[; H!"  
      3 |  7:01.37 |  6:05.00 |  31612 |  58986 @MO/LvD  
      4 | 13:06.37 |  3:23.38 |  58987 |  74249 )3k?{1:  
      5 | 16:30.00 |  3:48.50 |  74250 |  91399 bvS6xU- J  
      6 | 20:18.50 |  5:43.25 |  91400 | 117149 -5JN`  
      7 | 26:02.00 |  2:55.37 | 117150 | 130311 .wB'"z8L  
      8 | 28:57.37 |  4:53.63 | 130312 | 152349 SEVB.;  
      9 | 33:51.25 |  4:17.25 | 152350 | 171649 OX%#8Lx  
     10 | 38:08.50 |  4:08.12 | 171650 | 190261 %SuELm  
     11 | 42:16.62 |  4:24.63 | 190262 | 210124 t&Q(8Hz  
     12 | 46:41.50 |  4:07.25 | 210125 | 228674 5?Pf#kq  
     13 | 50:49.00 |  4:12.62 | 228675 | 247636 '$),i>6gJ  
hQ'W7EF  
YxrMr9>l1  
范围状态及错误 Tdm|=xI  
lX.-qCV"B  
已选择范围 ,H%[R+)  
qoOwR[NDcq  
     文件名 E:\CDImage.wav ?dbSm3  
g?Tev^D  
     峰值电平 100.0 % rZ|p{ym  
     抓取速度 3.3 X ' )0@J`  
     范围质量 100.0 % xT]t3'y|-  
     复制 CRC 54E170B1 3}!u8,P  
     复制成功 |9=A"092{  
9 :Oz-b  
没有错误发生 PPH;'!>s"  
Ak,JPz T  
Zp3-Yo w2  
AccurateRip 摘要 |T$?vIG[  
RrvC}9ar  
音轨  1  在数据库中不存在 E& i (T2c  
音轨  2  在数据库中不存在 4NW!{Vw ,  
音轨  3  在数据库中不存在 aqN{@|  
音轨  4  在数据库中不存在 ,AweHUEn  
音轨  5  在数据库中不存在 5RN!"YLI3  
音轨  6  在数据库中不存在 %]&$VVVh  
音轨  7  在数据库中不存在 sWte&  
音轨  8  在数据库中不存在 !(F?`([A  
音轨  9  在数据库中不存在 sdZ$3oE.  
音轨 10  在数据库中不存在 BYXc 'K  
音轨 11  在数据库中不存在 iW(LD1~7  
音轨 12  在数据库中不存在 wpM2{NTP  
音轨 13  在数据库中不存在 &|{1Ws  
MGm*({%  
没有任何音轨在 AccurateRip 数据库中有记录 5<dg@,\  
 Fb(@i  
状态报告结尾 H_ $?b  
sh_;98^  
---- CUETools DB Plugin V2.1.6 EcB !bf  
CVa>5 vt  
[CTDB TOCID: sr_V1v_9t4xn4DNw5CKOSPufyAY-] disk not present in database m}wn+R  
Submit result: sr_V1v_9t4xn4DNw5CKOSPufyAY- has been uploaded
C12UZE;  
T"z<D+ pN  
链接:http://pan.baidu.com/s/1pLugVV1 密码: ?z9!=A%<V~  
此帖售价 20 金钱,已有 14 人购买 [记录] [购买]
购买后,将显示帖子中所有出售内容。
若发现会员采用欺骗的方法获取财富,请立刻举报,我们会对会员处以2-N倍的罚金,严重者封掉ID!
此段为出售的内容,购买后显示
离线耶稣

发帖
7171
金钱
274007
威望
2497
贡献值
1661
交易币
11266
只看该作者 1楼 发表于: 2017-06-11
基情满满,谢谢分享




离线恶魔心

发帖
3378
金钱
31030
威望
1735
贡献值
1130
交易币
3960
只看该作者 2楼 发表于: 2017-06-11
这辈子也就碰到这么一次这个碟了~~~
天降枭雄万恶身 地塌山摇起风云 盟结群魔掠八方 主宰苍生令沉浮
MJFOREVERLAND--淘宝小店
威恶扬名万骨悲 震碎乾坤祸劫临 江山万代同色变 湖海任我笑中行
离线Mr灬W

发帖
1130
金钱
12952
威望
161
贡献值
56
交易币
1283
只看该作者 3楼 发表于: 2017-06-11
感谢分享
Heal The World
离线Moses

发帖
5062
金钱
37320
威望
2951
贡献值
1521
交易币
2748
只看该作者 4楼 发表于: 2017-06-11
神盘
http://blog.sina.com.cn/mjjcfc
离线mj1997

发帖
1479
金钱
6187
威望
216
贡献值
92
交易币
982
只看该作者 5楼 发表于: 2017-06-11
很罕见呀感谢分享
我的资源博客http://blog.sina.com.cn/u/2993163994慢慢建设
离线lifan_npl

发帖
2196
金钱
31917
威望
851
贡献值
428
交易币
2569
只看该作者 6楼 发表于: 2017-06-11
好碟  谢谢分享
我的淘宝:
http://shop63152617.taobao.com  
离线wannam

发帖
2702
金钱
87018
威望
382
贡献值
189
交易币
3345
只看该作者 7楼 发表于: 2017-06-12
谢谢分享,满满感动

发帖
2740
金钱
30927
威望
620
贡献值
37
交易币
393
只看该作者 8楼 发表于: 2017-06-12
感谢分享

在线mich008

发帖
840
金钱
5911
威望
24
贡献值
15
交易币
902
只看该作者 9楼 发表于: 2017-06-13
就喜欢不同的版本
快速回复
限100 字节
 
上一个 下一个