论坛风格切换切换到宽版
  • 1399阅读
  • 16回复

[亲传][Comp] 1988 History Of Michael Jackson (JP Promo - QX 8P 95004) - WAV整轨 ♬by幽灵&恶魔心 [复制链接]

上一主题 下一主题
离线mjghosts
 

发帖
8262
金钱
219556
威望
9187
贡献值
2734
交易币
4797
只看楼主 倒序阅读 楼主  发表于: 2017-06-11
— 本帖被 mjghosts 设置为精华(2017-06-11) —
感谢论坛会员“恶魔心”抓轨&提供! `0]kRA8=  
)$h<9e  
sz5&P )X  
神碟!! \~3g*V  
(x.O]8GKP  
*唯一一张88年的5寸独立企划宣传CD,产量甚少!共十三曲。其他两个版本为91年发行的十六曲。该版本名称为《History Of Michael Jackson》,音频均为原版单曲版,未经过编辑。后期版为《The History Of Michael Jackson》,音频均经过暖化处理,非原单曲版。 yAge2m]<B  
$m.e}`7SF!  
注:独家整理,转载请注明出处!EAC无损整轨(压缩包内含CD图片) -Qt>yzD3  
q#8$@*I  
解压密码:www.mjsunny.com
Rf &~7h'+  
/uTU*Oe  
Tracklist 0a#2 Lo  
1 Enjoy Yourself 3:25 $;9zD11  
2 Blame It On The Boogie 3:36 :/Zy=F9:  
3 Don't Stop 'Til You Get Enough 6:05 -Qs4 s  
4 Rock With You 3:23 1:.0^?Gz  
5 Off The Wall 3:48 7?@s.Sz|fV  
6 This Place Hotel 5:43 sqAZjfy@  
7 Medley : I Want You Back / Abc / The Love You Save 2:55 {8NnRnzU  
8 Billie Jean 4:53 D[.;-4"_  
9 Beat It 4:17 HG(J+ocn   
10 Thriller 4:08 F_m[EB  
11 I Just Can't Stop Lovin' You 4:24 J|DID+M  
12 Bad 4:07 oW:p6d  
13 Smooth Criminal 4:12
=.@{ uu;  
<NV[8B#k]  
_z:7Dj#  
lyBae?%&  
W'Wr8~{h  
DKd:tL24&  
Exact Audio Copy V1.0 beta 6 from 9. April 2015 7*bUy)UZ  
%P!6cyQS  
EAC 抓取日志文件从11. 六月 2017, 13:46 $wL zaZL|  
VdrqbZ   
Michael Jackson / History Of Michael Jackson [P5+}@t  
n H)6mOYp  
使用驱动器  :HL-DT-STDVDRAM GT32N   Adapter: 1  ID: 0 ` XAlzI  
=!rdn#KH  
读取模式      : 可靠Secure i%jti6z$Hr  
使用精确流     : 是 RAw/Q$I  
清空音频缓存    : 否 {+CW_ce  
使用 C2 指示器 : 否 OhC%5=a7  
cG)i:  
读取偏移校正:               : 103 B d#D*"gx  
读取 Lead-In 和 Lead-Out : 否 `Sh#> Jp  
用静音填充抓取中丢失偏移的采样       : 是 MeD}S@H  
去除首尾静音块               : 否 ,BGaJ|k  
在CRC 计算中使用了空样本       : 是 -6wjc rTD  
已用接口                  : Win NT 及 2000 本地 Win32 接口 oD_n+95B  
\k?Fu=@  
所用输出模式: : 内部 WAV 函数 nE$8-*BZ_  
样本格式    : 44.100 Hz; 16 Bit; 立体声 YNEPu:5J  
s&T"/4  
r_m*$r~f  
已抓取 CD 的 TOC @FC|1=+  
(XF"ckma  
     音轨 |    起始    |    长度    |  起始扇区  |  结束扇区   : ,0F_["3  
    -------------------------------------------- )U6-&-07  
      1 |  0:00.00 |  3:25.37 |      0 |  15411 M1{ru~Z9  
      2 |  3:25.37 |  3:36.00 |  15412 |  31611 5u\#@% \6  
      3 |  7:01.37 |  6:05.00 |  31612 |  58986 r&$r=f<  
      4 | 13:06.37 |  3:23.38 |  58987 |  74249 "x;|li3;  
      5 | 16:30.00 |  3:48.50 |  74250 |  91399 $K_G|Wyi  
      6 | 20:18.50 |  5:43.25 |  91400 | 117149 dRl*rP/  
      7 | 26:02.00 |  2:55.37 | 117150 | 130311 |f9fq~'1e  
      8 | 28:57.37 |  4:53.63 | 130312 | 152349 7iI6._"!w  
      9 | 33:51.25 |  4:17.25 | 152350 | 171649 dA[MjOd3  
     10 | 38:08.50 |  4:08.12 | 171650 | 190261 bl/tl_.p00  
     11 | 42:16.62 |  4:24.63 | 190262 | 210124 FLWQY,  
     12 | 46:41.50 |  4:07.25 | 210125 | 228674 0a1Vj56{)  
     13 | 50:49.00 |  4:12.62 | 228675 | 247636 =g]Ln)jc  
aPR0DZ@  
)GbVgYkk  
范围状态及错误 orT%lHwjL  
z}772hMB  
已选择范围 \{g;|Z 1  
,WvCslZ  
     文件名 E:\CDImage.wav G7|CwzMg  
^@"H(1Hxu/  
     峰值电平 100.0 % HB/q v IzB  
     抓取速度 3.3 X -W6r.E$mC  
     范围质量 100.0 % 58vq5j<V  
     复制 CRC 54E170B1 +{eZ@  
     复制成功 f@G3,u!]i  
:)djHPP*  
没有错误发生 >Rnj6A|Q  
~|FKl%  
>TnV Lx<  
AccurateRip 摘要 h 2Kx  
g^`; B"  
音轨  1  在数据库中不存在 $@VQ{S  
音轨  2  在数据库中不存在 S4'\=w #  
音轨  3  在数据库中不存在 o<pb!]1  
音轨  4  在数据库中不存在 /d1 B-I  
音轨  5  在数据库中不存在 )/B' ODa  
音轨  6  在数据库中不存在 2O*(F>>dT  
音轨  7  在数据库中不存在 Gtyy^tz[  
音轨  8  在数据库中不存在 ME9jN{ le  
音轨  9  在数据库中不存在 G"xa"hGF  
音轨 10  在数据库中不存在 O<:"Irq\qr  
音轨 11  在数据库中不存在 ya*KA.EGg  
音轨 12  在数据库中不存在 ne~=^IRB  
音轨 13  在数据库中不存在 gGtl*9a=  
2#^@awJ ?  
没有任何音轨在 AccurateRip 数据库中有记录 Z^fkv  
EWr8=@iU  
状态报告结尾 NI1jJfH|l  
|k3^ eeLk  
---- CUETools DB Plugin V2.1.6 "IvFkS=*Q  
*yDsK+[_  
[CTDB TOCID: sr_V1v_9t4xn4DNw5CKOSPufyAY-] disk not present in database ~zcHpxO^W  
Submit result: sr_V1v_9t4xn4DNw5CKOSPufyAY- has been uploaded
=/|2f; Q  
3=)!9;uY  
链接:http://pan.baidu.com/s/1pLugVV1 密码: z-Ndv;:  
此帖售价 20 金钱,已有 14 人购买 [记录] [购买]
购买后,将显示帖子中所有出售内容。
若发现会员采用欺骗的方法获取财富,请立刻举报,我们会对会员处以2-N倍的罚金,严重者封掉ID!
此段为出售的内容,购买后显示
离线耶稣

发帖
7215
金钱
278518
威望
2545
贡献值
1686
交易币
11378
只看该作者 1楼 发表于: 2017-06-11
基情满满,谢谢分享



离线恶魔心

发帖
3381
金钱
31057
威望
1735
贡献值
1130
交易币
3963
只看该作者 2楼 发表于: 2017-06-11
这辈子也就碰到这么一次这个碟了~~~
天降枭雄万恶身 地塌山摇起风云 盟结群魔掠八方 主宰苍生令沉浮
MJFOREVERLAND--淘宝小店
威恶扬名万骨悲 震碎乾坤祸劫临 江山万代同色变 湖海任我笑中行
离线Mr灬W

发帖
1130
金钱
12952
威望
161
贡献值
56
交易币
1283
只看该作者 3楼 发表于: 2017-06-11
感谢分享
Heal The World
离线Moses

发帖
5062
金钱
37320
威望
2951
贡献值
1521
交易币
2748
只看该作者 4楼 发表于: 2017-06-11
神盘
http://blog.sina.com.cn/mjjcfc
离线mj1997

发帖
1482
金钱
6184
威望
216
贡献值
92
交易币
985
只看该作者 5楼 发表于: 2017-06-11
很罕见呀感谢分享
我的资源博客http://blog.sina.com.cn/u/2993163994慢慢建设
离线lifan_npl

发帖
2224
金钱
31752
威望
853
贡献值
430
交易币
2605
只看该作者 6楼 发表于: 2017-06-11
好碟  谢谢分享
我的淘宝店:
http://shop63152617.taobao.com  
离线wannam

发帖
2703
金钱
87101
威望
382
贡献值
189
交易币
3346
只看该作者 7楼 发表于: 2017-06-12
谢谢分享,满满感动

发帖
2767
金钱
30998
威望
622
贡献值
39
交易币
428
只看该作者 8楼 发表于: 2017-06-12
感谢分享

离线mich008

发帖
857
金钱
6834
威望
24
贡献值
15
交易币
919
只看该作者 9楼 发表于: 2017-06-13
就喜欢不同的版本
快速回复
限100 字节
 
上一个 下一个