论坛风格切换切换到宽版
  • 1225阅读
  • 16回复

[亲传][Comp] 1988 History Of Michael Jackson (JP Promo - QX 8P 95004) - WAV整轨 ♬by幽灵&恶魔心 [复制链接]

上一主题 下一主题
离线mjghosts
 

发帖
8257
金钱
219515
威望
9187
贡献值
2734
交易币
4792
只看楼主 倒序阅读 楼主  发表于: 2017-06-11
— 本帖被 mjghosts 设置为精华(2017-06-11) —
感谢论坛会员“恶魔心”抓轨&提供! ZZw`8 E  
w?Te%/s.  
diq}\'f  
神碟!! { i5?R,a)  
n ~t{]if"  
*唯一一张88年的5寸独立企划宣传CD,产量甚少!共十三曲。其他两个版本为91年发行的十六曲。该版本名称为《History Of Michael Jackson》,音频均为原版单曲版,未经过编辑。后期版为《The History Of Michael Jackson》,音频均经过暖化处理,非原单曲版。 1 ^~&"s U  
p8 rh`7  
注:独家整理,转载请注明出处!EAC无损整轨(压缩包内含CD图片) /sE,2X*BT  
7FB?t<x  
解压密码:www.mjsunny.com
XHr*Rs.[=  
gD,&TW  
Tracklist )`u17 {  
1 Enjoy Yourself 3:25 6#=jF[  
2 Blame It On The Boogie 3:36 uZqL'l+/y  
3 Don't Stop 'Til You Get Enough 6:05 ;Rrh$Ag  
4 Rock With You 3:23 Y-VDi.]W  
5 Off The Wall 3:48 {15j'Qwm  
6 This Place Hotel 5:43 >p_W(u@ z$  
7 Medley : I Want You Back / Abc / The Love You Save 2:55 O[@!1SKT0  
8 Billie Jean 4:53 YagfCi ?  
9 Beat It 4:17 rTPgHK]?l  
10 Thriller 4:08 /x VHd  
11 I Just Can't Stop Lovin' You 4:24 > I2rj2M#  
12 Bad 4:07 wi(Y=?=  
13 Smooth Criminal 4:12
j\2Qe %d  
d?,'$$aB  
Y.^L^ "%dF  
p{f R$-d  
>O'\ jp}$l  
CM6% g f3  
Exact Audio Copy V1.0 beta 6 from 9. April 2015 Z 3BwbH  
r- 8Awa  
EAC 抓取日志文件从11. 六月 2017, 13:46 Fmk:[h Mw  
0PzSp ]  
Michael Jackson / History Of Michael Jackson ?N#I2jxaD  
TxrW69FV7  
使用驱动器  :HL-DT-STDVDRAM GT32N   Adapter: 1  ID: 0 ah>c)1DA*H  
(i "TF2U,<  
读取模式      : 可靠Secure #s)f3HU>  
使用精确流     : 是 hkK>h  
清空音频缓存    : 否 iZGbNN  
使用 C2 指示器 : 否 <)qa{,GX\  
LdUz;sb  
读取偏移校正:               : 103 #S>N}<>  
读取 Lead-In 和 Lead-Out : 否 m&)/>'W   
用静音填充抓取中丢失偏移的采样       : 是 ;jP sS^X  
去除首尾静音块               : 否 >A Ep\ *  
在CRC 计算中使用了空样本       : 是 lrrTeE*  
已用接口                  : Win NT 及 2000 本地 Win32 接口 7nt(Rtbsu  
K,4Ig!  
所用输出模式: : 内部 WAV 函数 pa-*&p  
样本格式    : 44.100 Hz; 16 Bit; 立体声 SKG U)Rn;  
Yy~x`P'g!  
-J v,#Z3  
已抓取 CD 的 TOC |nMjv]#  
<bcf"0A  
     音轨 |    起始    |    长度    |  起始扇区  |  结束扇区   FSuC)Xg  
    -------------------------------------------- %1&X+s3  
      1 |  0:00.00 |  3:25.37 |      0 |  15411 MN: {,#d0  
      2 |  3:25.37 |  3:36.00 |  15412 |  31611 #JUh"8N'  
      3 |  7:01.37 |  6:05.00 |  31612 |  58986 \8(Je"S  
      4 | 13:06.37 |  3:23.38 |  58987 |  74249 C(>!?-.  
      5 | 16:30.00 |  3:48.50 |  74250 |  91399 LWrYK i  
      6 | 20:18.50 |  5:43.25 |  91400 | 117149 b+Q{Z*  
      7 | 26:02.00 |  2:55.37 | 117150 | 130311 QL0q/S1*  
      8 | 28:57.37 |  4:53.63 | 130312 | 152349 =CzGI|pb  
      9 | 33:51.25 |  4:17.25 | 152350 | 171649 VEV?$R7;  
     10 | 38:08.50 |  4:08.12 | 171650 | 190261 4KH'S'eR  
     11 | 42:16.62 |  4:24.63 | 190262 | 210124 BOpZ8p'eH1  
     12 | 46:41.50 |  4:07.25 | 210125 | 228674 fb Bu^]^S  
     13 | 50:49.00 |  4:12.62 | 228675 | 247636 6{I7=.V  
nw+t!C  
HOi~eX1d  
范围状态及错误 h<L_ =)lH  
rL<N:@HL  
已选择范围 [l=@b4Og  
%C%3c4+Oh  
     文件名 E:\CDImage.wav 0}GO$%l  
N_G&nw  
     峰值电平 100.0 % Vc0j)3  
     抓取速度 3.3 X (YJ2- X~  
     范围质量 100.0 % L1_O!EQ  
     复制 CRC 54E170B1 R(t%/Hvs$  
     复制成功 +:Xg7H*  
!bzWgD7j  
没有错误发生 ?121 as}z  
dkC_Sh{  
vJr,lBHEk  
AccurateRip 摘要 N[9o6Nl|a  
`D3q!e  
音轨  1  在数据库中不存在 J+CGhk  
音轨  2  在数据库中不存在 q'fOlq  
音轨  3  在数据库中不存在 <|'ETqP<+  
音轨  4  在数据库中不存在 S#CaJ}M  
音轨  5  在数据库中不存在 #++:`Z  
音轨  6  在数据库中不存在 A99;bf}"  
音轨  7  在数据库中不存在 AW;xlY= g  
音轨  8  在数据库中不存在 H.hKh  
音轨  9  在数据库中不存在 Cm5L99Y  
音轨 10  在数据库中不存在 +dCR$<e9r  
音轨 11  在数据库中不存在 [6\O <-?  
音轨 12  在数据库中不存在 V6>{k_0{V  
音轨 13  在数据库中不存在 ZHwl9n#m  
XiV*d06{  
没有任何音轨在 AccurateRip 数据库中有记录 8bw, dBN  
/_JR7BB^X,  
状态报告结尾 )-XD= ]  
6ImW |%  
---- CUETools DB Plugin V2.1.6 LvGo$f/9  
Hl}m*9<9us  
[CTDB TOCID: sr_V1v_9t4xn4DNw5CKOSPufyAY-] disk not present in database dtQ3iuV %  
Submit result: sr_V1v_9t4xn4DNw5CKOSPufyAY- has been uploaded
8u*Q^-fpo0  
'mv|6Y  
链接:http://pan.baidu.com/s/1pLugVV1 密码: R4D$)D  
此帖售价 20 金钱,已有 14 人购买 [记录] [购买]
购买后,将显示帖子中所有出售内容。
若发现会员采用欺骗的方法获取财富,请立刻举报,我们会对会员处以2-N倍的罚金,严重者封掉ID!
此段为出售的内容,购买后显示
离线耶稣

发帖
7203
金钱
277335
威望
2521
贡献值
1672
交易币
11342
只看该作者 1楼 发表于: 2017-06-11
基情满满,谢谢分享



离线恶魔心

发帖
3379
金钱
31047
威望
1735
贡献值
1130
交易币
3961
只看该作者 2楼 发表于: 2017-06-11
这辈子也就碰到这么一次这个碟了~~~
天降枭雄万恶身 地塌山摇起风云 盟结群魔掠八方 主宰苍生令沉浮
MJFOREVERLAND--淘宝小店
威恶扬名万骨悲 震碎乾坤祸劫临 江山万代同色变 湖海任我笑中行
离线Mr灬W

发帖
1130
金钱
12952
威望
161
贡献值
56
交易币
1283
只看该作者 3楼 发表于: 2017-06-11
感谢分享
Heal The World
离线Moses

发帖
5062
金钱
37320
威望
2951
贡献值
1521
交易币
2748
只看该作者 4楼 发表于: 2017-06-11
神盘
http://blog.sina.com.cn/mjjcfc
离线mj1997

发帖
1482
金钱
6190
威望
216
贡献值
92
交易币
985
只看该作者 5楼 发表于: 2017-06-11
很罕见呀感谢分享
我的资源博客http://blog.sina.com.cn/u/2993163994慢慢建设
离线lifan_npl

发帖
2213
金钱
31997
威望
853
贡献值
430
交易币
2594
只看该作者 6楼 发表于: 2017-06-11
好碟  谢谢分享
我的淘宝店:
http://shop63152617.taobao.com  
离线wannam

发帖
2703
金钱
87077
威望
382
贡献值
189
交易币
3346
只看该作者 7楼 发表于: 2017-06-12
谢谢分享,满满感动

发帖
2753
金钱
30915
威望
621
贡献值
38
交易币
410
只看该作者 8楼 发表于: 2017-06-12
感谢分享

离线mich008

发帖
853
金钱
6406
威望
24
贡献值
15
交易币
915
只看该作者 9楼 发表于: 2017-06-13
就喜欢不同的版本
快速回复
限100 字节
 
上一个 下一个