论坛风格切换切换到宽版
  • 1053阅读
  • 16回复

[亲传][Comp] 1988 History Of Michael Jackson (JP Promo - QX 8P 95004) - WAV整轨 ♬by幽灵&恶魔心 [复制链接]

上一主题 下一主题
离线mjghosts
 

发帖
8256
金钱
219309
威望
9187
贡献值
2734
交易币
4791
只看楼主 倒序阅读 楼主  发表于: 2017-06-11
— 本帖被 mjghosts 设置为精华(2017-06-11) —
感谢论坛会员“恶魔心”抓轨&提供! p>#q* eU5  
d3S Me  
\=]`X2Ld  
神碟!! Yyr9Kj:  
)rt%.`  
*唯一一张88年的5寸独立企划宣传CD,产量甚少!共十三曲。其他两个版本为91年发行的十六曲。该版本名称为《History Of Michael Jackson》,音频均为原版单曲版,未经过编辑。后期版为《The History Of Michael Jackson》,音频均经过暖化处理,非原单曲版。 aM(#J7;  
4*Gv0#dga  
注:独家整理,转载请注明出处!EAC无损整轨(压缩包内含CD图片) \nPf\6;M  
CV_M |  
解压密码:www.mjsunny.com
&q9=0So4\  
0NKgtH~+  
Tracklist a]xGzv5  
1 Enjoy Yourself 3:25 &R?to>xr \  
2 Blame It On The Boogie 3:36 i/H;4#Bz  
3 Don't Stop 'Til You Get Enough 6:05 Xt$P!~Lu  
4 Rock With You 3:23 o 9/,@Ri\5  
5 Off The Wall 3:48 0t}v@-abU  
6 This Place Hotel 5:43 bt_c$TN  
7 Medley : I Want You Back / Abc / The Love You Save 2:55 )KVr2y;RF  
8 Billie Jean 4:53 -!\%##r7~  
9 Beat It 4:17 X0-PJ-\aD@  
10 Thriller 4:08 HKI\i)c  
11 I Just Can't Stop Lovin' You 4:24 #+V4<o  
12 Bad 4:07 v}a {nU'  
13 Smooth Criminal 4:12
D}lqd Ja  
/4 OmnE;  
)lJAMZ 5xp  
law$LL  
yiI oqvP  
}2"W0ZdWD  
Exact Audio Copy V1.0 beta 6 from 9. April 2015 .5o~^  
3nc\6v%  
EAC 抓取日志文件从11. 六月 2017, 13:46 oy5K* }  
=E%@8ZbK  
Michael Jackson / History Of Michael Jackson T 4p}5ew'  
IF5-@hag,  
使用驱动器  :HL-DT-STDVDRAM GT32N   Adapter: 1  ID: 0 :i& 9}\|,  
a^@.C5  
读取模式      : 可靠Secure 5[jS(1a`c  
使用精确流     : 是 {d;z3AB  
清空音频缓存    : 否 aF+Lam(  
使用 C2 指示器 : 否 0E!-G= v  
[~ 2m*Q  
读取偏移校正:               : 103 ksOsJ~3)  
读取 Lead-In 和 Lead-Out : 否 .24z+|j  
用静音填充抓取中丢失偏移的采样       : 是 D:bmq93PC  
去除首尾静音块               : 否 =RD>#'sUK  
在CRC 计算中使用了空样本       : 是 zQ{bMj<S  
已用接口                  : Win NT 及 2000 本地 Win32 接口 4s9@4  
rZ3ji(4HS  
所用输出模式: : 内部 WAV 函数 p<L{e~{!7f  
样本格式    : 44.100 Hz; 16 Bit; 立体声 z{\tn.67  
I8)D   
R@jMFh;  
已抓取 CD 的 TOC 5G\OINxy  
YCltS!k  
     音轨 |    起始    |    长度    |  起始扇区  |  结束扇区   =dA] nM  
    -------------------------------------------- L +Uq4S^  
      1 |  0:00.00 |  3:25.37 |      0 |  15411 2{~`q  
      2 |  3:25.37 |  3:36.00 |  15412 |  31611 cYg J}(>}  
      3 |  7:01.37 |  6:05.00 |  31612 |  58986 )M+po-6$1  
      4 | 13:06.37 |  3:23.38 |  58987 |  74249 D|)_c1g  
      5 | 16:30.00 |  3:48.50 |  74250 |  91399 *6AV^^  
      6 | 20:18.50 |  5:43.25 |  91400 | 117149 Qe _{<E  
      7 | 26:02.00 |  2:55.37 | 117150 | 130311 sU&v B:]~  
      8 | 28:57.37 |  4:53.63 | 130312 | 152349 bH/4f93Nb  
      9 | 33:51.25 |  4:17.25 | 152350 | 171649 7afG4 (<k  
     10 | 38:08.50 |  4:08.12 | 171650 | 190261 EniV-Uj\D  
     11 | 42:16.62 |  4:24.63 | 190262 | 210124 B//*hH >F  
     12 | 46:41.50 |  4:07.25 | 210125 | 228674 6}N`YOJ.  
     13 | 50:49.00 |  4:12.62 | 228675 | 247636 >JE+g[$@  
0*5Jq#5  
ZwsQ}5  
范围状态及错误 B <r0y  
=l/Dc=[  
已选择范围 r D <T  
&nr{-][  
     文件名 E:\CDImage.wav T~/>U&k}J  
Ds"%=  
     峰值电平 100.0 % <lIm==U<-  
     抓取速度 3.3 X JRz) A4P  
     范围质量 100.0 % $%bd`d*S  
     复制 CRC 54E170B1 t adeG  
     复制成功 %<DdX*Qp  
n4dNGp7\`  
没有错误发生 80lhhqRC  
8Snv, Lb`^  
AA^K /y  
AccurateRip 摘要 <bhGpLh-E  
AYY(<b  
音轨  1  在数据库中不存在 9FSa=<0wE  
音轨  2  在数据库中不存在 s(fkb7W,gO  
音轨  3  在数据库中不存在 &PV%=/ -J  
音轨  4  在数据库中不存在 ;yN Y/  
音轨  5  在数据库中不存在 azIhp{rH w  
音轨  6  在数据库中不存在 -j<E_!t  
音轨  7  在数据库中不存在 } G{"Mp4  
音轨  8  在数据库中不存在 DjK7_'7(L  
音轨  9  在数据库中不存在 &AxtSIpucP  
音轨 10  在数据库中不存在 HN`qMGW^  
音轨 11  在数据库中不存在 zdPJ>PNU  
音轨 12  在数据库中不存在 jRiMWolLv  
音轨 13  在数据库中不存在 9a=:e=q3#  
p+?`ru  
没有任何音轨在 AccurateRip 数据库中有记录 pJe!~eyHm  
U 5j4iz'  
状态报告结尾 `~d7l@6F  
2 ^"j]g>mj  
---- CUETools DB Plugin V2.1.6 L;*7p9  
M .6BFC  
[CTDB TOCID: sr_V1v_9t4xn4DNw5CKOSPufyAY-] disk not present in database c0e[vrP:  
Submit result: sr_V1v_9t4xn4DNw5CKOSPufyAY- has been uploaded
 #9}1Lo>  
B2$cY;LH  
链接:http://pan.baidu.com/s/1pLugVV1 密码: )P9]/y  
此帖售价 20 金钱,已有 14 人购买 [记录] [购买]
购买后,将显示帖子中所有出售内容。
若发现会员采用欺骗的方法获取财富,请立刻举报,我们会对会员处以2-N倍的罚金,严重者封掉ID!
此段为出售的内容,购买后显示
离线耶稣

发帖
7193
金钱
276356
威望
2517
贡献值
1670
交易币
11324
只看该作者 1楼 发表于: 2017-06-11
基情满满,谢谢分享



离线恶魔心

发帖
3379
金钱
31045
威望
1735
贡献值
1130
交易币
3961
只看该作者 2楼 发表于: 2017-06-11
这辈子也就碰到这么一次这个碟了~~~
天降枭雄万恶身 地塌山摇起风云 盟结群魔掠八方 主宰苍生令沉浮
MJFOREVERLAND--淘宝小店
威恶扬名万骨悲 震碎乾坤祸劫临 江山万代同色变 湖海任我笑中行
离线Mr灬W

发帖
1130
金钱
12952
威望
161
贡献值
56
交易币
1283
只看该作者 3楼 发表于: 2017-06-11
感谢分享
Heal The World
离线Moses

发帖
5062
金钱
37320
威望
2951
贡献值
1521
交易币
2748
只看该作者 4楼 发表于: 2017-06-11
神盘
http://blog.sina.com.cn/mjjcfc
离线mj1997

发帖
1480
金钱
6182
威望
216
贡献值
92
交易币
983
只看该作者 5楼 发表于: 2017-06-11
很罕见呀感谢分享
我的资源博客http://blog.sina.com.cn/u/2993163994慢慢建设
离线lifan_npl

发帖
2212
金钱
31692
威望
853
贡献值
430
交易币
2593
只看该作者 6楼 发表于: 2017-06-11
好碟  谢谢分享
我的淘宝店:
http://shop63152617.taobao.com  
离线wannam

发帖
2703
金钱
87033
威望
382
贡献值
189
交易币
3346
只看该作者 7楼 发表于: 2017-06-12
谢谢分享,满满感动

发帖
2751
金钱
30829
威望
621
贡献值
38
交易币
408
只看该作者 8楼 发表于: 2017-06-12
感谢分享

离线mich008

发帖
849
金钱
5986
威望
24
贡献值
15
交易币
911
只看该作者 9楼 发表于: 2017-06-13
就喜欢不同的版本
快速回复
限100 字节
 
上一个 下一个