论坛风格切换切换到宽版
  • 912阅读
  • 14回复

[亲传][Single] 1988 Another Part Of Me (US Promo - ESK 1200) - WAV整轨 ♬by幽灵&恶魔心 [复制链接]

上一主题 下一主题
离线mjghosts
 

发帖
8256
金钱
219309
威望
9187
贡献值
2734
交易币
4791
只看楼主 倒序阅读 楼主  发表于: 2017-06-25
— 本帖被 mjghosts 执行加亮操作(2017-06-25) —
感谢论坛会员“恶魔心”抓轨&提供! l1c&a[M)  
h_]3L/  
*88年美版精品宣传单曲,5曲。 ?OKm~ Ek  
 -/  
注:独家整理,转载请注明出处!EAC无损整轨(压缩包内含CD图片) /_,~dt  
^&&dO*0{  
解压密码:www.mjsunny.com
N/{A ' Wd  
+7 F7Kh  
Tracklist bwVv#Z\r  
1 Another Part Of Me (Single Mix) 3:47 1AE/ILGo  
2 Another Part Of Me (Extended Dance Mix) 6:18 h!K B%4V  
3 Another Part Of Me (Radio Edit) 4:24 \)M 5o  
4 Another Part Of Me (Dub Mix) 3:51 G)# ,39P  
5 Another Part Of Me (A Cappella) 4:01
Czv lZDo  
{t=Nnc15K  
d:pp,N~2o  
5ef&Ih.3  
a N"T8 Pt  
8^R>y  
Exact Audio Copy V1.0 beta 6 from 9. April 2015 T^nX+;:|  
)I>rC%2P  
EAC 抓取日志文件从24. 六月 2017, 23:01 #KK(Z \;  
F4&N;Zm2  
Michael Jackson / Another Part Of Me (US Promo) uc<@ Fh(  
Kulg84<AwM  
使用驱动器  :HL-DT-STDVDRAM GT32N   Adapter: 1  ID: 0 Tk!b`9  
Y{yr-E #~M  
读取模式      : 可靠Secure kb:C>Y8!sC  
使用精确流     : 是 =z/F=1^<  
清空音频缓存    : 否 Vj]kJ,j\y  
使用 C2 指示器 : 否 ]]Z,Qu#<-  
Pc7: hu  
读取偏移校正:               : 103 SRTpE,  
读取 Lead-In 和 Lead-Out : 否 W.|6$hRl)  
用静音填充抓取中丢失偏移的采样       : 是 x/7G0K2\}  
去除首尾静音块               : 否 _PM<25Y,@  
在CRC 计算中使用了空样本       : 是 qX(%Wn;n  
已用接口                  : Win NT 及 2000 本地 Win32 接口 h)rf6*hw  
.m?~TOR  
所用输出模式: : 内部 WAV 函数 D-GU"^-9  
样本格式    : 44.100 Hz; 16 Bit; 立体声 #mhD; .Wg  
4Aew )   
D:E~yh)$-  
已抓取 CD 的 TOC C 94@YWs  
K$cIVsfr  
     音轨 |    起始    |    长度    |  起始扇区  |  结束扇区   NNw d;AC  
    -------------------------------------------- 6KCmswvE  
      1 |  0:00.00 |  3:48.68 |      0 |  17167 SMO%sZ]  
      2 |  3:48.68 |  6:23.02 |  17168 |  45894 p=+*g.,O  
      3 | 10:11.70 |  4:27.40 |  45895 |  65959 rm=~^eB  
      4 | 14:39.35 |  4:00.55 |  65960 |  84014 46Q; F  
      5 | 18:40.15 |  4:02.25 |  84015 | 102189 H='9zqYZ<W  
tOM3Gs~o6z  
B~;LBgpp  
范围状态及错误 v^],loi<V  
,AbKxT f2  
已选择范围 a^XTW7]r  
+:"6`um|  
     文件名 E:\CDImage.wav *2Vp4  
"_1-IE  
     峰值电平 100.0 % <Sprp]n 7  
     抓取速度 2.7 X @r/Id{pCI  
     范围质量 99.9 % A)RI:?+  
     复制 CRC 8A59B6A8 V|3yZ8lE  
     复制成功 tIxhSI^  
*X=@yB*aK  
没有错误发生 u+mjguIv  
3 ^02fy  
-YzQ2#K  
AccurateRip 摘要 GhG%>U#&a  
N+\oFbE  
音轨  1  精确地校准抓取  1)  [7BF451F0]  (AR v2) :LZ-da"QR  
音轨  2  精确地校准抓取  1)  [505327D5]  (AR v2) n9]IBIthe  
音轨  3  精确地校准抓取  1)  [21691CE0]  (AR v2) W<\kf4Y  
音轨  4  精确地校准抓取  1)  [46755995]  (AR v2) 7))y}N:p  
音轨  5  精确地校准抓取  1)  [5A12C762]  (AR v2) mSU@UD|'  
Yuwc$Qp)  
所有音轨精确校准抓取 F(d:t!  
Vd,'  s  
状态报告结尾 N5m'To]  
nt=x]wEC  
---- CUETools DB Plugin V2.1.6 0x\2 #i  
BBxc*alG0  
[CTDB TOCID: iOjrD6K5_7MB.1qqGMMDHQCes_g-] found B52yaG8C  
Submit result: iOjrD6K5_7MB.1qqGMMDHQCes_g- has been confirmed xdZ<| vMR  
Track | CTDB Status m; o4Fu  
  1   | (1/1) Accurately ripped DtI$9`~  
  2   | (1/1) Accurately ripped V&*D~Jq  
  3   | (1/1) Accurately ripped T@P!L  
  4   | (1/1) Accurately ripped @?Zf-.  
  5   | (1/1) Accurately ripped
u,o1{% O  
VEs5;]#<2D  
链接:http://pan.baidu.com/s/1i5oUhZB 密码: CU$#0f>  
此帖售价 5 金钱,已有 11 人购买 [记录] [购买]
购买后,将显示帖子中所有出售内容。
若发现会员采用欺骗的方法获取财富,请立刻举报,我们会对会员处以2-N倍的罚金,严重者封掉ID!
此段为出售的内容,购买后显示
离线mjnet

发帖
381
金钱
30548
威望
104
贡献值
54
交易币
558
只看该作者 1楼 发表于: 2017-06-25
我等這張等好久了!! AE`We$!  
收到這張!!Remix版都齊了!!
离线恶魔心

发帖
3379
金钱
31045
威望
1735
贡献值
1130
交易币
3961
只看该作者 2楼 发表于: 2017-06-25
Re:[Single] 1988 Another Part Of Me (US Promo - ESK 1200) - WAV整轨
最罕见的真棒时期美宣 没有之一
天降枭雄万恶身 地塌山摇起风云 盟结群魔掠八方 主宰苍生令沉浮
MJFOREVERLAND--淘宝小店
威恶扬名万骨悲 震碎乾坤祸劫临 江山万代同色变 湖海任我笑中行
离线小李

发帖
240
金钱
1125
威望
9
贡献值
8
交易币
212
只看该作者 3楼 发表于: 2017-06-25
听听看,着里面的版本与我收藏的一样不
离线小李

发帖
240
金钱
1125
威望
9
贡献值
8
交易币
212
只看该作者 4楼 发表于: 2017-06-26
这个版本怎么听起来速度快了,声调提高了一点音分.

发帖
2751
金钱
30829
威望
621
贡献值
38
交易币
408
只看该作者 5楼 发表于: 2017-06-26
非常喜欢。

离线mich008

发帖
849
金钱
5986
威望
24
贡献值
15
交易币
911
只看该作者 6楼 发表于: 2017-06-26
楼主的发布必收藏
离线lifan_npl

发帖
2212
金钱
31692
威望
853
贡献值
430
交易币
2593
只看该作者 7楼 发表于: 2017-07-10
好多好碟啊       
我的淘宝店:
http://shop63152617.taobao.com  
离线mjlove98

发帖
2584
金钱
4090
威望
197
贡献值
123
交易币
2662
只看该作者 8楼 发表于: 2017-09-09
Re:[Single] 1988 Another Part Of Me (US Promo - ESK 1200) - WAV整轨 ?by幽灵&恶魔心
好资源啊,楼主辛苦
离线肯尼

发帖
959
金钱
6465
威望
442
贡献值
239
交易币
1468
只看该作者 9楼 发表于: 2017-09-10
感谢分享~
Remixed & Designed by Kenny Saxton ©
快速回复
限100 字节
 
上一个 下一个