论坛风格切换切换到宽版
  • 675阅读
  • 13回复

[亲传][Single] 1988 Another Part Of Me (US Promo - ESK 1200) - WAV整轨 ♬by幽灵&恶魔心 [复制链接]

上一主题 下一主题
离线mjghosts
 

发帖
8242
金钱
217441
威望
9173
贡献值
2722
交易币
4749
只看楼主 倒序阅读 楼主  发表于: 2017-06-25
— 本帖被 mjghosts 执行加亮操作(2017-06-25) —
感谢论坛会员“恶魔心”抓轨&提供! KO&oT#S  
|emZZj  
*88年美版精品宣传单曲,5曲。 zH1:kko  
U=>4=gsG  
注:独家整理,转载请注明出处!EAC无损整轨(压缩包内含CD图片) \ 0aa0=  
$+Zj)V(  
解压密码:www.mjsunny.com
.qG*$W2f  
XbL\l  
Tracklist d@0&  
1 Another Part Of Me (Single Mix) 3:47 z 8\;XR  
2 Another Part Of Me (Extended Dance Mix) 6:18 "8YXFg  
3 Another Part Of Me (Radio Edit) 4:24 X'KkIo :  
4 Another Part Of Me (Dub Mix) 3:51 {'R\C5 :D7  
5 Another Part Of Me (A Cappella) 4:01
qD?-&>dBWi  
soi.`xE  
"G,$Sqi@  
=fZMute  
a 5$C]$o}  
;[>g(W+  
Exact Audio Copy V1.0 beta 6 from 9. April 2015 :- Al}7  
!04zWYHo  
EAC 抓取日志文件从24. 六月 2017, 23:01 39+6ZTqx  
78[5@U  
Michael Jackson / Another Part Of Me (US Promo) 2/]74d8  
e<;^P(g`E  
使用驱动器  :HL-DT-STDVDRAM GT32N   Adapter: 1  ID: 0 !y{t}|U/d  
WLe9m02r  
读取模式      : 可靠Secure *Ou)P9~-L  
使用精确流     : 是 =(^-s Jk  
清空音频缓存    : 否 { eU_  
使用 C2 指示器 : 否 PU6Sa-fQ2,  
EM.7,;|N  
读取偏移校正:               : 103 RKY~[IQ,  
读取 Lead-In 和 Lead-Out : 否 45u\v2,C3  
用静音填充抓取中丢失偏移的采样       : 是 Pa{)@xT  
去除首尾静音块               : 否 ,1s,G]%M  
在CRC 计算中使用了空样本       : 是 \GR M,c  
已用接口                  : Win NT 及 2000 本地 Win32 接口 ~is$Onf99#  
QEavbh^S  
所用输出模式: : 内部 WAV 函数 I-fjqo3  
样本格式    : 44.100 Hz; 16 Bit; 立体声 }|k_sx:  
yC]xYn)  
",b3C.  
已抓取 CD 的 TOC #SHmAB  
]kN<N0;\d  
     音轨 |    起始    |    长度    |  起始扇区  |  结束扇区   C)7T'[  
    -------------------------------------------- uN:|4/;{&  
      1 |  0:00.00 |  3:48.68 |      0 |  17167 ad\?@>[ I  
      2 |  3:48.68 |  6:23.02 |  17168 |  45894 $=x1_  
      3 | 10:11.70 |  4:27.40 |  45895 |  65959 `A]CdgA  
      4 | 14:39.35 |  4:00.55 |  65960 |  84014 lZY0A#   
      5 | 18:40.15 |  4:02.25 |  84015 | 102189 qk;vn}auD]  
0XrB+nt  
|H:JwxH  
范围状态及错误 b`NXe7A  
^i"C%8  
已选择范围 a@|/D\C  
}Pm>mQZ},  
     文件名 E:\CDImage.wav +N161vo7  
b-/ztZ@u  
     峰值电平 100.0 % s m42  
     抓取速度 2.7 X zeqP:goy  
     范围质量 99.9 % 4$~]t:n  
     复制 CRC 8A59B6A8 U Ox$Xwp5&  
     复制成功 cJEO wAN  
3xhv~be  
没有错误发生 d^"dL" Q6m  
UWdPB2x[  
$9 GRAM.  
AccurateRip 摘要 -+1it  
]w _,0q  
音轨  1  精确地校准抓取  1)  [7BF451F0]  (AR v2) q&IO9/[dk  
音轨  2  精确地校准抓取  1)  [505327D5]  (AR v2) q% Eze  
音轨  3  精确地校准抓取  1)  [21691CE0]  (AR v2) Rn O%8Hk  
音轨  4  精确地校准抓取  1)  [46755995]  (AR v2) +"Pt?k  
音轨  5  精确地校准抓取  1)  [5A12C762]  (AR v2) cH>rS\|Y  
i2{xW`AcUh  
所有音轨精确校准抓取 ^/ K\a ,  
z\Y+5<a  
状态报告结尾 cq'opjLf5  
>;',U<Wd  
---- CUETools DB Plugin V2.1.6 nu,#y"WQ  
hR3lo;'  
[CTDB TOCID: iOjrD6K5_7MB.1qqGMMDHQCes_g-] found ~LPxVYhK  
Submit result: iOjrD6K5_7MB.1qqGMMDHQCes_g- has been confirmed $ WAFr  
Track | CTDB Status <@FOqi{o{  
  1   | (1/1) Accurately ripped &eV& +j  
  2   | (1/1) Accurately ripped 9l2,:EQ*  
  3   | (1/1) Accurately ripped 7QP%Pny%  
  4   | (1/1) Accurately ripped h)BRSs?v_D  
  5   | (1/1) Accurately ripped
kf+]bV  
9;s:Bo  
链接:http://pan.baidu.com/s/1i5oUhZB 密码: $$~x: iN  
此帖售价 5 金钱,已有 10 人购买 [记录] [购买]
购买后,将显示帖子中所有出售内容。
若发现会员采用欺骗的方法获取财富,请立刻举报,我们会对会员处以2-N倍的罚金,严重者封掉ID!
此段为出售的内容,购买后显示
离线mjnet

发帖
380
金钱
30479
威望
104
贡献值
54
交易币
557
只看该作者 1楼 发表于: 2017-06-25
我等這張等好久了!! k=;>*:D%  
收到這張!!Remix版都齊了!!
离线恶魔心

发帖
3376
金钱
31020
威望
1735
贡献值
1130
交易币
3958
只看该作者 2楼 发表于: 2017-06-25
Re:[Single] 1988 Another Part Of Me (US Promo - ESK 1200) - WAV整轨
最罕见的真棒时期美宣 没有之一
天降枭雄万恶身 地塌山摇起风云 盟结群魔掠八方 主宰苍生令沉浮
MJFOREVERLAND--淘宝小店
威恶扬名万骨悲 震碎乾坤祸劫临 江山万代同色变 湖海任我笑中行
离线小李

发帖
233
金钱
190
威望
99
贡献值
8
交易币
205
只看该作者 3楼 发表于: 2017-06-25
听听看,着里面的版本与我收藏的一样不
离线小李

发帖
233
金钱
190
威望
99
贡献值
8
交易币
205
只看该作者 4楼 发表于: 2017-06-26
这个版本怎么听起来速度快了,声调提高了一点音分.

发帖
2735
金钱
31355
威望
620
贡献值
37
交易币
388
只看该作者 5楼 发表于: 2017-06-26
非常喜欢。

离线mich008

发帖
831
金钱
5831
威望
24
贡献值
15
交易币
893
只看该作者 6楼 发表于: 2017-06-26
楼主的发布必收藏
离线lifan_npl

发帖
2185
金钱
16546
威望
783
贡献值
348
交易币
2542
只看该作者 7楼 发表于: 2017-07-10
好多好碟啊       
我的淘宝:
http://shop63152617.taobao.com  
离线mjlove98

发帖
2549
金钱
5647
威望
197
贡献值
123
交易币
2627
只看该作者 8楼 发表于: 2017-09-09
Re:[Single] 1988 Another Part Of Me (US Promo - ESK 1200) - WAV整轨 ?by幽灵&恶魔心
好资源啊,楼主辛苦
离线肯尼

发帖
955
金钱
7410
威望
431
贡献值
228
交易币
1440
只看该作者 9楼 发表于: 2017-09-10
感谢分享~
顺势待发张元穹 Kenny Saxton @肯尼 & 齐奕同Michael Qi @迈颤我栗
2014年6月25日 合辑 火热制作中
2014 MJFantastics Music International Ltd.
快速回复
限100 字节
 
上一个 下一个