论坛风格切换切换到宽版
  • 1270阅读
  • 14回复

[亲传][Single] 1988 Another Part Of Me (US Promo - ESK 1200) - WAV整轨 ♬by幽灵&恶魔心 [复制链接]

上一主题 下一主题
离线mjghosts
 

发帖
8262
金钱
219556
威望
9187
贡献值
2734
交易币
4797
只看楼主 倒序阅读 楼主  发表于: 2017-06-25
— 本帖被 mjghosts 执行加亮操作(2017-06-25) —
感谢论坛会员“恶魔心”抓轨&提供! rJZR8bo  
LZ34x: ,C  
*88年美版精品宣传单曲,5曲。 t4iD<{4  
SJB^dI**/d  
注:独家整理,转载请注明出处!EAC无损整轨(压缩包内含CD图片) jme`Tyd  
Rk,'ujc  
解压密码:www.mjsunny.com
W#)X@TlE  
oXjoQ  
Tracklist Ptz## o'{5  
1 Another Part Of Me (Single Mix) 3:47 Fw\g\  
2 Another Part Of Me (Extended Dance Mix) 6:18 @9eN\b%I^H  
3 Another Part Of Me (Radio Edit) 4:24 :YQI1 q[6  
4 Another Part Of Me (Dub Mix) 3:51 | C^.[)  
5 Another Part Of Me (A Cappella) 4:01
`Of D^Q=  
'W,*mfB  
;4U"y8PVTh  
tLi91)oG  
a (dZ]j){  
)X;051Q  
Exact Audio Copy V1.0 beta 6 from 9. April 2015 W]oa7VAq  
dB6['z)2  
EAC 抓取日志文件从24. 六月 2017, 23:01 3dSb!q0&N  
DuNindo 8  
Michael Jackson / Another Part Of Me (US Promo) %ufh  
PtYG%/s  
使用驱动器  :HL-DT-STDVDRAM GT32N   Adapter: 1  ID: 0 }zks@7kf  
_P=+\ [|y  
读取模式      : 可靠Secure Q-<Qm?  
使用精确流     : 是 4(s HUWT  
清空音频缓存    : 否 ;p2b^q'  
使用 C2 指示器 : 否 >s 6ye  
(8aj`> y  
读取偏移校正:               : 103 &&m3E=K!^  
读取 Lead-In 和 Lead-Out : 否 -$?t+ "/E  
用静音填充抓取中丢失偏移的采样       : 是 5VP0Xa ~  
去除首尾静音块               : 否 "!D y[J  
在CRC 计算中使用了空样本       : 是 8 eK8-R$  
已用接口                  : Win NT 及 2000 本地 Win32 接口 jQzl!f1c3  
a/\{NHs6"5  
所用输出模式: : 内部 WAV 函数 |4g0@}nr+W  
样本格式    : 44.100 Hz; 16 Bit; 立体声 ;xe.0j0h  
R2n 2mQ<  
bq9w@O  
已抓取 CD 的 TOC Jn^b}bk t  
*Q^ z4UY  
     音轨 |    起始    |    长度    |  起始扇区  |  结束扇区   GE(~d '  
    -------------------------------------------- ^l|b>z"0ao  
      1 |  0:00.00 |  3:48.68 |      0 |  17167 g&c ~grD  
      2 |  3:48.68 |  6:23.02 |  17168 |  45894 !}z'"l4i  
      3 | 10:11.70 |  4:27.40 |  45895 |  65959 ] re=8s6  
      4 | 14:39.35 |  4:00.55 |  65960 |  84014 xsB0LUt  
      5 | 18:40.15 |  4:02.25 |  84015 | 102189 }VZExqm)  
gr SF}y!3  
xy[#LX)RW  
范围状态及错误 [K.1 X=O}  
W\k8f+Ke  
已选择范围 ];LFv5"  
/T)E&=Ds  
     文件名 E:\CDImage.wav YND}P9 h  
\~ChbPnc  
     峰值电平 100.0 % nf/?7~3?[  
     抓取速度 2.7 X dHUbaf:e)T  
     范围质量 99.9 % [|OII!"  
     复制 CRC 8A59B6A8 cdt9hH`Cd  
     复制成功 Bzrnmz5S  
w'2FYe{wj  
没有错误发生 ,r~+ 9i0N  
_-TplGSO=c  
Reikf}9Q  
AccurateRip 摘要 ;>v.(0FE6  
ZwS:Te9-  
音轨  1  精确地校准抓取  1)  [7BF451F0]  (AR v2) X ."z+-eh  
音轨  2  精确地校准抓取  1)  [505327D5]  (AR v2) =\oH= f  
音轨  3  精确地校准抓取  1)  [21691CE0]  (AR v2) L/"};VI  
音轨  4  精确地校准抓取  1)  [46755995]  (AR v2) eWcqf/4?"  
音轨  5  精确地校准抓取  1)  [5A12C762]  (AR v2) J:m/s9r  
y&zFS4"x  
所有音轨精确校准抓取 by@KdQow  
N-M.O:p  
状态报告结尾 0>sa{Z  
7Jf~Bn  
---- CUETools DB Plugin V2.1.6 +.V+@!  
1Z# $X`  
[CTDB TOCID: iOjrD6K5_7MB.1qqGMMDHQCes_g-] found pLB2! +  
Submit result: iOjrD6K5_7MB.1qqGMMDHQCes_g- has been confirmed {]HiTpn  
Track | CTDB Status |Kd#pYt%O  
  1   | (1/1) Accurately ripped P8d  
  2   | (1/1) Accurately ripped :,l7e  
  3   | (1/1) Accurately ripped }iUK`e  
  4   | (1/1) Accurately ripped {@InOo!4w]  
  5   | (1/1) Accurately ripped
DKIH{:L7  
4[gmA  
链接:http://pan.baidu.com/s/1i5oUhZB 密码: :; +!ID_  
此帖售价 5 金钱,已有 11 人购买 [记录] [购买]
购买后,将显示帖子中所有出售内容。
若发现会员采用欺骗的方法获取财富,请立刻举报,我们会对会员处以2-N倍的罚金,严重者封掉ID!
此段为出售的内容,购买后显示
离线mjnet

发帖
381
金钱
30546
威望
104
贡献值
54
交易币
558
只看该作者 1楼 发表于: 2017-06-25
我等這張等好久了!! kepuh%KY[  
收到這張!!Remix版都齊了!!
离线恶魔心

发帖
3381
金钱
31057
威望
1735
贡献值
1130
交易币
3963
只看该作者 2楼 发表于: 2017-06-25
Re:[Single] 1988 Another Part Of Me (US Promo - ESK 1200) - WAV整轨
最罕见的真棒时期美宣 没有之一
天降枭雄万恶身 地塌山摇起风云 盟结群魔掠八方 主宰苍生令沉浮
MJFOREVERLAND--淘宝小店
威恶扬名万骨悲 震碎乾坤祸劫临 江山万代同色变 湖海任我笑中行
离线小李

发帖
240
金钱
1125
威望
9
贡献值
8
交易币
212
只看该作者 3楼 发表于: 2017-06-25
听听看,着里面的版本与我收藏的一样不
离线小李

发帖
240
金钱
1125
威望
9
贡献值
8
交易币
212
只看该作者 4楼 发表于: 2017-06-26
这个版本怎么听起来速度快了,声调提高了一点音分.

发帖
2767
金钱
30998
威望
622
贡献值
39
交易币
428
只看该作者 5楼 发表于: 2017-06-26
非常喜欢。

离线mich008

发帖
857
金钱
6834
威望
24
贡献值
15
交易币
919
只看该作者 6楼 发表于: 2017-06-26
楼主的发布必收藏
离线lifan_npl

发帖
2224
金钱
31752
威望
853
贡献值
430
交易币
2605
只看该作者 7楼 发表于: 2017-07-10
好多好碟啊       
我的淘宝店:
http://shop63152617.taobao.com  
离线mjlove98

发帖
2593
金钱
4041
威望
197
贡献值
123
交易币
2671
只看该作者 8楼 发表于: 2017-09-09
Re:[Single] 1988 Another Part Of Me (US Promo - ESK 1200) - WAV整轨 ?by幽灵&恶魔心
好资源啊,楼主辛苦
离线肯尼

发帖
959
金钱
6535
威望
442
贡献值
239
交易币
1468
只看该作者 9楼 发表于: 2017-09-10
感谢分享~
Remixed & Designed by Kenny Saxton ©
快速回复
限100 字节
 
上一个 下一个