论坛风格切换切换到宽版
  • 513阅读
  • 13回复

[亲传][Single] 1988 Another Part Of Me (US Promo - ESK 1200) - WAV整轨 ♬by幽灵&恶魔心 [复制链接]

上一主题 下一主题
离线mjghosts
 

发帖
8240
金钱
216437
威望
9172
贡献值
2721
交易币
4743
只看楼主 倒序阅读 楼主  发表于: 2017-06-25
— 本帖被 mjghosts 执行加亮操作(2017-06-25) —
感谢论坛会员“恶魔心”抓轨&提供! '9]%#^[Q  
}mk9-7  
*88年美版精品宣传单曲,5曲。 &}wKC:LSP  
e*:[#LJ]C  
注:独家整理,转载请注明出处!EAC无损整轨(压缩包内含CD图片) `N;u#z  
m>jX4D7KZ  
解压密码:www.mjsunny.com
3@\vU~=P:  
(;+ JM*c2N  
Tracklist l3)(aay!  
1 Another Part Of Me (Single Mix) 3:47 b8feo'4Z   
2 Another Part Of Me (Extended Dance Mix) 6:18 KSMe#Qnw  
3 Another Part Of Me (Radio Edit) 4:24 m{I_E G  
4 Another Part Of Me (Dub Mix) 3:51 &B/cy<;y,  
5 Another Part Of Me (A Cappella) 4:01
#<MLW4P  
gXE'3  
WB"$NYB  
4ehajK  
a BAx)R6kS;  
Bz }Kdyur  
Exact Audio Copy V1.0 beta 6 from 9. April 2015 J wRdr8q  
69`9!heu  
EAC 抓取日志文件从24. 六月 2017, 23:01 U3&*,xeU@H  
k'xnl"q  
Michael Jackson / Another Part Of Me (US Promo) :R"k=l1  
<YUc?NF  
使用驱动器  :HL-DT-STDVDRAM GT32N   Adapter: 1  ID: 0 6jO*rseC  
.KIAeCvl\  
读取模式      : 可靠Secure LrsP4G  
使用精确流     : 是 #z6RzZu  
清空音频缓存    : 否 R5H UgI  
使用 C2 指示器 : 否 M+ ^]j  
3|[:8  
读取偏移校正:               : 103 fFqK.^Tn  
读取 Lead-In 和 Lead-Out : 否 MV e5j+8  
用静音填充抓取中丢失偏移的采样       : 是 ST'L \yebc  
去除首尾静音块               : 否 'i%Azzv  
在CRC 计算中使用了空样本       : 是 6aX m9 J  
已用接口                  : Win NT 及 2000 本地 Win32 接口 Fu^^Jex  
t8U)za  
所用输出模式: : 内部 WAV 函数 0d9rJv}~  
样本格式    : 44.100 Hz; 16 Bit; 立体声 "Y7RvL!U  
X. UN=lu  
]W5s!T_  
已抓取 CD 的 TOC +7sdQCO(Co  
IgLP=mqcWK  
     音轨 |    起始    |    长度    |  起始扇区  |  结束扇区   _0oZgt)  
    -------------------------------------------- q~;P^i<Y  
      1 |  0:00.00 |  3:48.68 |      0 |  17167 8:huWjh]M  
      2 |  3:48.68 |  6:23.02 |  17168 |  45894 tqmM7$}}P  
      3 | 10:11.70 |  4:27.40 |  45895 |  65959 kFw3'OZ,  
      4 | 14:39.35 |  4:00.55 |  65960 |  84014 WN?!(r<qA_  
      5 | 18:40.15 |  4:02.25 |  84015 | 102189 {S~2m2up0L  
}]=b%CPJh+  
 vF]?i  
范围状态及错误 gG*O&gQY  
R)nhgp(~  
已选择范围 zOg#=ql  
4w*F!E2H\}  
     文件名 E:\CDImage.wav ",#rI+ el  
0 m";=:(w  
     峰值电平 100.0 % a_x$I? ,  
     抓取速度 2.7 X FT[wa-b  
     范围质量 99.9 % '+f!(teLz  
     复制 CRC 8A59B6A8 rZKv:x}{6  
     复制成功 #U"\v7C{n  
feQ_dA q  
没有错误发生 !+U#^2Gz  
0=t_ a]+  
y{!`4CxF  
AccurateRip 摘要 KD-0NO=oL  
" &p\pR~  
音轨  1  精确地校准抓取  1)  [7BF451F0]  (AR v2) k8Qv>z  
音轨  2  精确地校准抓取  1)  [505327D5]  (AR v2) ,(OA5%A9zK  
音轨  3  精确地校准抓取  1)  [21691CE0]  (AR v2) WuSRA<{P  
音轨  4  精确地校准抓取  1)  [46755995]  (AR v2) Z TjlGU `  
音轨  5  精确地校准抓取  1)  [5A12C762]  (AR v2) 4y>G6TD^  
~ Z%>N  
所有音轨精确校准抓取 YjvqU /[3  
IW6;ZDP  
状态报告结尾 Nf<([8v;t  
Qy0bp;V/  
---- CUETools DB Plugin V2.1.6 5C#&vYnq  
9#O"^.Z !  
[CTDB TOCID: iOjrD6K5_7MB.1qqGMMDHQCes_g-] found dkG-Yz~  
Submit result: iOjrD6K5_7MB.1qqGMMDHQCes_g- has been confirmed 8QFY:.h&  
Track | CTDB Status JOenVepQ,  
  1   | (1/1) Accurately ripped "W\ #d  
  2   | (1/1) Accurately ripped dRWp/3 }  
  3   | (1/1) Accurately ripped *AZC{jP  
  4   | (1/1) Accurately ripped @@SG0YxZ  
  5   | (1/1) Accurately ripped
@>X."QbE  
(VC{#^2l  
链接:http://pan.baidu.com/s/1i5oUhZB 密码: +es.V /  
此帖售价 5 金钱,已有 10 人购买 [记录] [购买]
购买后,将显示帖子中所有出售内容。
若发现会员采用欺骗的方法获取财富,请立刻举报,我们会对会员处以2-N倍的罚金,严重者封掉ID!
此段为出售的内容,购买后显示
离线mjnet

发帖
380
金钱
30469
威望
104
贡献值
54
交易币
557
只看该作者 1楼 发表于: 2017-06-25
我等這張等好久了!! i aP+Vab  
收到這張!!Remix版都齊了!!
离线恶魔心

发帖
3375
金钱
31005
威望
1735
贡献值
1130
交易币
3957
只看该作者 2楼 发表于: 2017-06-25
Re:[Single] 1988 Another Part Of Me (US Promo - ESK 1200) - WAV整轨
最罕见的真棒时期美宣 没有之一
天降枭雄万恶身 地塌山摇起风云 盟结群魔掠八方 主宰苍生令沉浮
MJFOREVERLAND--淘宝小店
威恶扬名万骨悲 震碎乾坤祸劫临 江山万代同色变 湖海任我笑中行
离线小李

发帖
232
金钱
230
威望
99
贡献值
8
交易币
204
只看该作者 3楼 发表于: 2017-06-25
听听看,着里面的版本与我收藏的一样不
离线小李

发帖
232
金钱
230
威望
99
贡献值
8
交易币
204
只看该作者 4楼 发表于: 2017-06-26
这个版本怎么听起来速度快了,声调提高了一点音分.

发帖
2729
金钱
31485
威望
620
贡献值
37
交易币
382
只看该作者 5楼 发表于: 2017-06-26
非常喜欢。

离线mich008

发帖
824
金钱
5504
威望
24
贡献值
15
交易币
886
只看该作者 6楼 发表于: 2017-06-26
楼主的发布必收藏
离线lifan_npl

发帖
2173
金钱
16819
威望
782
贡献值
347
交易币
2526
只看该作者 7楼 发表于: 2017-07-10
好多好碟啊       
我的淘宝:
http://shop63152617.taobao.com  
离线mjlove98

发帖
2520
金钱
5968
威望
196
贡献值
122
交易币
2594
只看该作者 8楼 发表于: 2017-09-09
Re:[Single] 1988 Another Part Of Me (US Promo - ESK 1200) - WAV整轨 ?by幽灵&恶魔心
好资源啊,楼主辛苦
离线肯尼

发帖
953
金钱
7180
威望
431
贡献值
228
交易币
1438
只看该作者 9楼 发表于: 2017-09-10
感谢分享~
顺势待发张元穹 Kenny Saxton @肯尼 & 齐奕同Michael Qi @迈颤我栗
2014年6月25日 合辑 火热制作中
2014 MJFantastics Music International Ltd.
快速回复
限100 字节
 
上一个 下一个