论坛风格切换切换到宽版
  • 790阅读
  • 14回复

[亲传][Single] 1988 Another Part Of Me (US Promo - ESK 1200) - WAV整轨 ♬by幽灵&恶魔心 [复制链接]

上一主题 下一主题
离线mjghosts
 

发帖
8251
金钱
218537
威望
9176
贡献值
2723
交易币
4762
只看楼主 倒序阅读 楼主  发表于: 2017-06-25
— 本帖被 mjghosts 执行加亮操作(2017-06-25) —
感谢论坛会员“恶魔心”抓轨&提供! \N\Jny  
sXm/+I^  
*88年美版精品宣传单曲,5曲。 !3{> F"  
m4{F-++dk  
注:独家整理,转载请注明出处!EAC无损整轨(压缩包内含CD图片) ( w(GJ/g  
W'2|hP  
解压密码:www.mjsunny.com
LL+ROX^M  
GZ# 6}/;b  
Tracklist j4L ) D  
1 Another Part Of Me (Single Mix) 3:47 MR/jM@8  
2 Another Part Of Me (Extended Dance Mix) 6:18 I"4j152P|  
3 Another Part Of Me (Radio Edit) 4:24 &Avd  
4 Another Part Of Me (Dub Mix) 3:51 V-U,3=C  
5 Another Part Of Me (A Cappella) 4:01
. KJ EA #  
TTaSg\K  
5n,?>> p$  
"ZDc$v:Qa  
a & IVwm"  
rK W<kQT  
Exact Audio Copy V1.0 beta 6 from 9. April 2015 +2!J3{[J  
FN5*pVD;<  
EAC 抓取日志文件从24. 六月 2017, 23:01 @O#4duM4Qz  
_4iTP$7[  
Michael Jackson / Another Part Of Me (US Promo) R9Wh/@J]  
euO!+9p  
使用驱动器  :HL-DT-STDVDRAM GT32N   Adapter: 1  ID: 0 5inmFT?9Z  
w}VS mt$F  
读取模式      : 可靠Secure :9N~wd  
使用精确流     : 是 K*Y.mM)  
清空音频缓存    : 否 2'_xg~  
使用 C2 指示器 : 否 E\Hhi.-  
z"8%W?o>  
读取偏移校正:               : 103 dxbP'2~  
读取 Lead-In 和 Lead-Out : 否 ;u!qu$O  
用静音填充抓取中丢失偏移的采样       : 是 |i'V\" hW  
去除首尾静音块               : 否 !_rAAY  
在CRC 计算中使用了空样本       : 是 l-4T Tg  
已用接口                  : Win NT 及 2000 本地 Win32 接口 8qL*Nf  
So?SBh1C  
所用输出模式: : 内部 WAV 函数 .C(Ir  
样本格式    : 44.100 Hz; 16 Bit; 立体声 7UvfXzDNC  
Ijq1ns_tx8  
<wUDcF  
已抓取 CD 的 TOC mY?^]3-_  
6}"P m  
     音轨 |    起始    |    长度    |  起始扇区  |  结束扇区   wjW>#DE  
    -------------------------------------------- 7?<.L  
      1 |  0:00.00 |  3:48.68 |      0 |  17167 Xwy0dXko  
      2 |  3:48.68 |  6:23.02 |  17168 |  45894 ?{l}35Q.@  
      3 | 10:11.70 |  4:27.40 |  45895 |  65959 {pMbkA Q@  
      4 | 14:39.35 |  4:00.55 |  65960 |  84014 PPO*&=!]  
      5 | 18:40.15 |  4:02.25 |  84015 | 102189 ]TQ2PVN2  
B}_*0D  
>2tQ')%DJ  
范围状态及错误 ]s-;*o\H  
lPyGL-Q  
已选择范围 k4jZu?\C]  
V(Ll]g/T_;  
     文件名 E:\CDImage.wav JVbR5"+.  
Qa@b-v'by  
     峰值电平 100.0 % rZ`ob x\S  
     抓取速度 2.7 X }&A!h  
     范围质量 99.9 % y}5V3)P  
     复制 CRC 8A59B6A8 xtW Q.  
     复制成功 1y@d`k`t:  
1!_$HA  
没有错误发生 d-Vttxa6  
) =-$>75Z  
 >d-By  
AccurateRip 摘要 o1C1F}gxU  
.l?sYe64S  
音轨  1  精确地校准抓取  1)  [7BF451F0]  (AR v2) kt?G\H!}  
音轨  2  精确地校准抓取  1)  [505327D5]  (AR v2) <QbD ;(%  
音轨  3  精确地校准抓取  1)  [21691CE0]  (AR v2) ~I[Z 2&I  
音轨  4  精确地校准抓取  1)  [46755995]  (AR v2) IzVb  
音轨  5  精确地校准抓取  1)  [5A12C762]  (AR v2) buV {O[  
{Q9?Q?  
所有音轨精确校准抓取 {8+FxmH  
N$>.V7H&  
状态报告结尾 }e$^v*16  
=rSJ6'2("  
---- CUETools DB Plugin V2.1.6 cV]c/*z A  
yOR]r+8  
[CTDB TOCID: iOjrD6K5_7MB.1qqGMMDHQCes_g-] found 7A:k  
Submit result: iOjrD6K5_7MB.1qqGMMDHQCes_g- has been confirmed MLD1%* &0  
Track | CTDB Status t~vOm   
  1   | (1/1) Accurately ripped h r@c7/L  
  2   | (1/1) Accurately ripped : :;YS9e  
  3   | (1/1) Accurately ripped +xoh=m  
  4   | (1/1) Accurately ripped TCShS}q;%  
  5   | (1/1) Accurately ripped
Cj{+DXT  
9*fA:*T  
链接:http://pan.baidu.com/s/1i5oUhZB 密码: R1't W=  
此帖售价 5 金钱,已有 11 人购买 [记录] [购买]
购买后,将显示帖子中所有出售内容。
若发现会员采用欺骗的方法获取财富,请立刻举报,我们会对会员处以2-N倍的罚金,严重者封掉ID!
此段为出售的内容,购买后显示
离线mjnet

发帖
380
金钱
30579
威望
104
贡献值
54
交易币
557
只看该作者 1楼 发表于: 2017-06-25
我等這張等好久了!! HpXQ D;  
收到這張!!Remix版都齊了!!
离线恶魔心

发帖
3378
金钱
31030
威望
1735
贡献值
1130
交易币
3960
只看该作者 2楼 发表于: 2017-06-25
Re:[Single] 1988 Another Part Of Me (US Promo - ESK 1200) - WAV整轨
最罕见的真棒时期美宣 没有之一
天降枭雄万恶身 地塌山摇起风云 盟结群魔掠八方 主宰苍生令沉浮
MJFOREVERLAND--淘宝小店
威恶扬名万骨悲 震碎乾坤祸劫临 江山万代同色变 湖海任我笑中行
离线小李

发帖
238
金钱
1115
威望
9
贡献值
8
交易币
210
只看该作者 3楼 发表于: 2017-06-25
听听看,着里面的版本与我收藏的一样不
离线小李

发帖
238
金钱
1115
威望
9
贡献值
8
交易币
210
只看该作者 4楼 发表于: 2017-06-26
这个版本怎么听起来速度快了,声调提高了一点音分.

发帖
2740
金钱
30927
威望
620
贡献值
37
交易币
393
只看该作者 5楼 发表于: 2017-06-26
非常喜欢。

离线mich008

发帖
839
金钱
5907
威望
24
贡献值
15
交易币
901
只看该作者 6楼 发表于: 2017-06-26
楼主的发布必收藏
离线lifan_npl

发帖
2196
金钱
31917
威望
851
贡献值
428
交易币
2569
只看该作者 7楼 发表于: 2017-07-10
好多好碟啊       
我的淘宝:
http://shop63152617.taobao.com  
离线mjlove98

发帖
2566
金钱
4339
威望
197
贡献值
123
交易币
2644
只看该作者 8楼 发表于: 2017-09-09
Re:[Single] 1988 Another Part Of Me (US Promo - ESK 1200) - WAV整轨 ?by幽灵&恶魔心
好资源啊,楼主辛苦
离线肯尼

发帖
955
金钱
6312
威望
431
贡献值
228
交易币
1440
只看该作者 9楼 发表于: 2017-09-10
感谢分享~
顺势待发张元穹 Kenny Saxton @肯尼 & 齐奕同Michael Qi @迈颤我栗
2014年6月25日 合辑 火热制作中
2014 MJFantastics Music International Ltd.
快速回复
限100 字节
 
上一个 下一个