论坛风格切换切换到宽版
  • 1097阅读
  • 14回复

[亲传][Single] 1988 Another Part Of Me (US Promo - ESK 1200) - WAV整轨 ♬by幽灵&恶魔心 [复制链接]

上一主题 下一主题
离线mjghosts
 

发帖
8257
金钱
219515
威望
9187
贡献值
2734
交易币
4792
只看楼主 倒序阅读 楼主  发表于: 2017-06-25
— 本帖被 mjghosts 执行加亮操作(2017-06-25) —
感谢论坛会员“恶魔心”抓轨&提供! M-L2w"  
N[]Hc  
*88年美版精品宣传单曲,5曲。 v,-{Z1N%m  
g6@Fp7T  
注:独家整理,转载请注明出处!EAC无损整轨(压缩包内含CD图片) {^mNJ  
fqX"Lus `=  
解压密码:www.mjsunny.com
<U5wB]]  
^'CPM6J  
Tracklist 4(e59ZgY  
1 Another Part Of Me (Single Mix) 3:47 AqK z$  
2 Another Part Of Me (Extended Dance Mix) 6:18 ;AR{@Fu.  
3 Another Part Of Me (Radio Edit) 4:24 @2pu^k^  
4 Another Part Of Me (Dub Mix) 3:51 hT$~ygQ  
5 Another Part Of Me (A Cappella) 4:01
E J$36  
M;cO0UIwO  
[U}+sTQ  
'1,,)U#6E  
a \k;`}3 uO  
F:*W5xX  
Exact Audio Copy V1.0 beta 6 from 9. April 2015 D3|oOOoG  
Z3>N<u8)  
EAC 抓取日志文件从24. 六月 2017, 23:01 o,U9}_|A  
SH*C"  
Michael Jackson / Another Part Of Me (US Promo) -.g|l\  
`_b`kzJ  
使用驱动器  :HL-DT-STDVDRAM GT32N   Adapter: 1  ID: 0 fLV"T_rk  
f;/QJ  
读取模式      : 可靠Secure k >t )g-,2  
使用精确流     : 是 N`)$[&NG]  
清空音频缓存    : 否 GUF"<k  
使用 C2 指示器 : 否 R!l:O=[<  
>^Se'SE]  
读取偏移校正:               : 103 !"e5~7  
读取 Lead-In 和 Lead-Out : 否 RI68%ZoL  
用静音填充抓取中丢失偏移的采样       : 是 :4^\3~i1X  
去除首尾静音块               : 否 :>p8zG  
在CRC 计算中使用了空样本       : 是 )'*5R<#  
已用接口                  : Win NT 及 2000 本地 Win32 接口 %0? M?Jf  
/y^7p9Z`  
所用输出模式: : 内部 WAV 函数 0* /{4)r  
样本格式    : 44.100 Hz; 16 Bit; 立体声 )K'N(w  
TYI7<-Mp:[  
_|"Y]:j_  
已抓取 CD 的 TOC 1SrJ6W @j[  
y^]tahbo  
     音轨 |    起始    |    长度    |  起始扇区  |  结束扇区   "B_K XL  
    -------------------------------------------- 0%) i<a!_Z  
      1 |  0:00.00 |  3:48.68 |      0 |  17167 !"+'A)Nve  
      2 |  3:48.68 |  6:23.02 |  17168 |  45894 _-5,zP R  
      3 | 10:11.70 |  4:27.40 |  45895 |  65959 ~tOAT;g}q  
      4 | 14:39.35 |  4:00.55 |  65960 |  84014 ?BhMjsy.  
      5 | 18:40.15 |  4:02.25 |  84015 | 102189 ;Jd3u -  
E9V 5$  
s}pIk.4ot!  
范围状态及错误 U35AX9/  
.Vq)zi1<  
已选择范围 Qv-@Zt!8  
f@co<iA  
     文件名 E:\CDImage.wav C ;(t/zh  
@AYRiOodi  
     峰值电平 100.0 % 7)%+=@  
     抓取速度 2.7 X ;l$ \6T  
     范围质量 99.9 % gl&5l1&  
     复制 CRC 8A59B6A8 R>`}e+-D  
     复制成功 aTBR|U S  
lD{Aa!\  
没有错误发生 E\;ikX&1  
Bvt@X   
ttXjn  
AccurateRip 摘要 7OW bAu;  
XhsTT2B   
音轨  1  精确地校准抓取  1)  [7BF451F0]  (AR v2) eiJ2NwR\w  
音轨  2  精确地校准抓取  1)  [505327D5]  (AR v2) 34!dYr%  
音轨  3  精确地校准抓取  1)  [21691CE0]  (AR v2) g/CxXSv@0  
音轨  4  精确地校准抓取  1)  [46755995]  (AR v2) mZIoaF>t  
音轨  5  精确地校准抓取  1)  [5A12C762]  (AR v2) )etmE  
LI)!4(WH  
所有音轨精确校准抓取 dz>;<&2Z  
NA,C Z  
状态报告结尾 1009ES7*  
?X?&~3iD%  
---- CUETools DB Plugin V2.1.6 g]UBZ33y  
PM":Vd/  
[CTDB TOCID: iOjrD6K5_7MB.1qqGMMDHQCes_g-] found K\XyZ  
Submit result: iOjrD6K5_7MB.1qqGMMDHQCes_g- has been confirmed -G,^1AL>  
Track | CTDB Status ``ekR6[8c  
  1   | (1/1) Accurately ripped 1+`l7'F  
  2   | (1/1) Accurately ripped vILy>QS)  
  3   | (1/1) Accurately ripped `bKA+c,f  
  4   | (1/1) Accurately ripped ZtVAEIZ)  
  5   | (1/1) Accurately ripped
Da$r`  
9{j66  
链接:http://pan.baidu.com/s/1i5oUhZB 密码: |_u8mV  
此帖售价 5 金钱,已有 11 人购买 [记录] [购买]
购买后,将显示帖子中所有出售内容。
若发现会员采用欺骗的方法获取财富,请立刻举报,我们会对会员处以2-N倍的罚金,严重者封掉ID!
此段为出售的内容,购买后显示
离线mjnet

发帖
381
金钱
30546
威望
104
贡献值
54
交易币
558
只看该作者 1楼 发表于: 2017-06-25
我等這張等好久了!! rlok%Rt4Z  
收到這張!!Remix版都齊了!!
离线恶魔心

发帖
3379
金钱
31047
威望
1735
贡献值
1130
交易币
3961
只看该作者 2楼 发表于: 2017-06-25
Re:[Single] 1988 Another Part Of Me (US Promo - ESK 1200) - WAV整轨
最罕见的真棒时期美宣 没有之一
天降枭雄万恶身 地塌山摇起风云 盟结群魔掠八方 主宰苍生令沉浮
MJFOREVERLAND--淘宝小店
威恶扬名万骨悲 震碎乾坤祸劫临 江山万代同色变 湖海任我笑中行
离线小李

发帖
240
金钱
1125
威望
9
贡献值
8
交易币
212
只看该作者 3楼 发表于: 2017-06-25
听听看,着里面的版本与我收藏的一样不
离线小李

发帖
240
金钱
1125
威望
9
贡献值
8
交易币
212
只看该作者 4楼 发表于: 2017-06-26
这个版本怎么听起来速度快了,声调提高了一点音分.

发帖
2753
金钱
30915
威望
621
贡献值
38
交易币
410
只看该作者 5楼 发表于: 2017-06-26
非常喜欢。

离线mich008

发帖
853
金钱
6406
威望
24
贡献值
15
交易币
915
只看该作者 6楼 发表于: 2017-06-26
楼主的发布必收藏
离线lifan_npl

发帖
2213
金钱
31997
威望
853
贡献值
430
交易币
2594
只看该作者 7楼 发表于: 2017-07-10
好多好碟啊       
我的淘宝店:
http://shop63152617.taobao.com  
离线mjlove98

发帖
2585
金钱
4080
威望
197
贡献值
123
交易币
2663
只看该作者 8楼 发表于: 2017-09-09
Re:[Single] 1988 Another Part Of Me (US Promo - ESK 1200) - WAV整轨 ?by幽灵&恶魔心
好资源啊,楼主辛苦
离线肯尼

发帖
959
金钱
6465
威望
442
贡献值
239
交易币
1468
只看该作者 9楼 发表于: 2017-09-10
感谢分享~
Remixed & Designed by Kenny Saxton ©
快速回复
限100 字节
 
上一个 下一个