论坛风格切换切换到宽版
  • 754阅读
  • 12回复

[亲传][Single] 1992 Jam (US - 49K 74334) - WAV整轨 ♬by幽灵 [复制链接]

上一主题 下一主题
离线mjghosts
 

发帖
8256
金钱
219309
威望
9187
贡献值
2734
交易币
4791
只看楼主 倒序阅读 楼主  发表于: 2017-06-25
— 本帖被 mjghosts 执行加亮操作(2017-06-25) —
美国本土发行市售单曲,收录5首曲目。* Y dgaZJs  
crJyk#_  
注:独家整理,转载请注明出处!EAC无损整轨(压缩包内含CD图片) ,R j{^-k  
[Ng#/QXk{  
解压密码:www.mjsunny.com
,H3~mq]  
p;dH[NW  
Tracklist /?%zNkcxu  
1 Jam (Roger's Jeep Radio Mix) 3:57 eI@LVi6<b  
2 Jam (Silky 7") 4:17 ,C88%k  
3 Jam (Roger's Club Mix) 6:20 -X~VXeg  
4 Jam (Atlanta Techno Mix) 6:06 TOo0rcl  
5 Rock With You (Masters At Work Remix) 5:29
8[SiIuIV  
#`5{?2gS9  
Gn+D%5)$I  
C2;qSKG3{m  
pOlo_na}[  
P g.PD,&U  
Exact Audio Copy V1.0 beta 6 from 9. April 2015 F i?2sa  
(i^3Lw :  
EAC 抓取日志文件从25. 六月 2017, 13:49 w?6"`Mo  
kVk^?F  
Michael Jackson / Jam :SilQm*Pl  
Qhb].V{utV  
使用驱动器  :MATSHITADVD-RAM UJ890AS   Adapter: 1  ID: 1 _ETG.SYq  
_V6jn~N  
读取模式      : 可靠Secure ;o]'7qGb  
使用精确流     : 是 -M}#-qwf  
清空音频缓存    : 否 ''S*B|:  
使用 C2 指示器 : 是 _hyboQi  
yS0YWqv]6@  
读取偏移校正:               : 102 :U!knb"/>  
读取 Lead-In 和 Lead-Out : 否 v 0mc1g+9  
用静音填充抓取中丢失偏移的采样       : 是 d{2+> >d  
去除首尾静音块               : 否 :5hKE(3Q  
在CRC 计算中使用了空样本       : 是 s7=CH   
已用接口                  : Win NT 及 2000 本地 Win32 接口 {pMbkA Q@  
d:*,HzG  
所用输出模式: : 内部 WAV 函数 S 4uX utd  
样本格式    : 44.100 Hz; 16 Bit; 立体声 X@KF}x's  
!'uL  
_<pSCR0  
已抓取 CD 的 TOC 8A/"ia  
9x@( K|  
     音轨 |    起始    |    长度    |  起始扇区  |  结束扇区   sy`@q<h(  
    -------------------------------------------- +{U0PI82  
      1 |  0:00.00 |  3:55.72 |      0 |  17696 R:c$f(aKv%  
      2 |  3:55.72 |  4:14.20 |  17697 |  36766 QND{3Q  
      3 |  8:10.17 |  6:16.55 |  36767 |  65021 "D#+:ix8G|  
      4 | 14:26.72 |  6:06.63 |  65022 |  92534 o %GVg  
      5 | 20:33.60 |  5:31.07 |  92535 | 117366 buV {O[  
jb;!"HC  
|R$V[  
范围状态及错误 \Ps}1)wT  
>YG1sMV-J  
已选择范围 MU_8bK9m  
W`^euBr7R>  
     文件名 J:\12 Music*音乐\[WAV] Michael Jackson Audios\【Single】1992 Jam (US - 49K 74334) 5''\CDImage.wav {T;A50  
jVW .=FK  
     峰值电平 100.0 % }G{'Rb  
     抓取速度 5.5 X BH`%3Mw  
     范围质量 100.0 % Z}X oWT2f  
     复制 CRC C8CA42F2 dSdP]50M  
     复制成功 QaVxP1V#U  
<R;t>~8x  
没有错误发生 Q4H(JD1f)  
kzkrvC+u  
,ORwMZtw{H  
AccurateRip 摘要 ce&Q}_  
og?>Q i Tr  
音轨  1  精确地校准抓取  5)  [C4264BB7]  (AR v2) /W|=Or2oR  
音轨  2  精确地校准抓取  5)  [764260F7]  (AR v2) 7A,lQh  
音轨  3  精确地校准抓取  5)  [DE5E07C4]  (AR v2) JmP[9"  
音轨  4  精确地校准抓取  5)  [50C7B8F4]  (AR v2) =xs"<Q*w>  
音轨  5  精确地校准抓取  5)  [38149E83]  (AR v2) xHpB/P~  
):L ; P)  
所有音轨精确校准抓取 L|`(u  
C f(g  
状态报告结尾
V4CL% i  
DGJt$o=&@  
链接:http://pan.baidu.com/s/1eRNVUeQ 密码: Uaz$<K6  
此帖售价 10 金钱,已有 9 人购买 [记录] [购买]
购买后,将显示帖子中所有出售内容。
若发现会员采用欺骗的方法获取财富,请立刻举报,我们会对会员处以2-N倍的罚金,严重者封掉ID!
此段为出售的内容,购买后显示
YVW`|'7)|  

发帖
2751
金钱
30829
威望
621
贡献值
38
交易币
408
只看该作者 1楼 发表于: 2017-06-26
非常喜欢

离线mich008

发帖
849
金钱
5981
威望
24
贡献值
15
交易币
911
只看该作者 2楼 发表于: 2017-06-26
美国版的也收了
离线刘123伟

发帖
711
金钱
14449
威望
55
贡献值
14
交易币
768
只看该作者 3楼 发表于: 2017-06-27
nice!
离线xiaobian4

发帖
56
金钱
16
威望
20
贡献值
1
交易币
61
只看该作者 4楼 发表于: 2017-06-27
试试听听 E*5aLT5!,  
看看,咋样
在线michael0829

发帖
955
金钱
10069
威望
90
贡献值
70
交易币
1204
只看该作者 5楼 发表于: 2017-06-28
跟乔丹合作的mv,两个MJ,挚爱我迈!
I Love You Michael Jackson Forever!
I Just Can't Stop Loving You Michel!

发帖
605
金钱
909
威望
16
贡献值
16
交易币
685
只看该作者 6楼 发表于: 2017-07-01
不知效果如何
离线lifan_npl

发帖
2212
金钱
31692
威望
853
贡献值
430
交易币
2593
只看该作者 7楼 发表于: 2017-07-10
这个有cd,还是下一个 就不用自己抓轨了
我的淘宝店:
http://shop63152617.taobao.com  
离线mjlove98

发帖
2584
金钱
4090
威望
197
贡献值
123
交易币
2662
只看该作者 8楼 发表于: 2017-09-09
Re:[Single] 1992 Jam (US - 49K 74334) - WAV整轨 ?by幽灵
谢谢楼主了,收藏了
离线肯尼

发帖
959
金钱
6465
威望
442
贡献值
239
交易币
1468
只看该作者 9楼 发表于: 2017-09-10
谢谢分享。
Remixed & Designed by Kenny Saxton ©
快速回复
限100 字节
 
上一个 下一个