论坛风格切换切换到宽版
  • 606阅读
  • 11回复

[亲传][Single] 1992 Jam (US - 49K 74334) - WAV整轨 ♬by幽灵 [复制链接]

上一主题 下一主题
离线mjghosts
 

发帖
8242
金钱
217441
威望
9173
贡献值
2722
交易币
4749
只看楼主 倒序阅读 楼主  发表于: 2017-06-25
— 本帖被 mjghosts 执行加亮操作(2017-06-25) —
美国本土发行市售单曲,收录5首曲目。* C3"5XR_Ov  
c&GVIrJ  
注:独家整理,转载请注明出处!EAC无损整轨(压缩包内含CD图片) 8h%oJ4da   
nUy.gAb  
解压密码:www.mjsunny.com
"-T[D9(A  
a7@':Rb n  
Tracklist 9>6DA^  
1 Jam (Roger's Jeep Radio Mix) 3:57 a-bj! Rs  
2 Jam (Silky 7") 4:17 @/,:". SM  
3 Jam (Roger's Club Mix) 6:20 U5RLM_a@M  
4 Jam (Atlanta Techno Mix) 6:06 2if7|o$=  
5 Rock With You (Masters At Work Remix) 5:29
8 v}B-cS  
$-MVsa9>I  
.sCj3sX*  
TT@ U_^o  
hGy[L3 {  
r@a]fTf  
Exact Audio Copy V1.0 beta 6 from 9. April 2015 g7" 2}|qxo  
s(Bcw`'#  
EAC 抓取日志文件从25. 六月 2017, 13:49 l+a1`O  
^6On^k[|fw  
Michael Jackson / Jam J%u,qF}h  
@ry/zG#  
使用驱动器  :MATSHITADVD-RAM UJ890AS   Adapter: 1  ID: 1 M#_|WL~  
e\em;GTy  
读取模式      : 可靠Secure : eCeJ~&E  
使用精确流     : 是 f"*k>=ETI  
清空音频缓存    : 否 uzI=.j  
使用 C2 指示器 : 是 Ptc+ypTu  
WfD fj  
读取偏移校正:               : 102 \BuyJskE  
读取 Lead-In 和 Lead-Out : 否 rlaeqG  
用静音填充抓取中丢失偏移的采样       : 是 l n\qvD_  
去除首尾静音块               : 否 lxm/*^  
在CRC 计算中使用了空样本       : 是 5f{P% x(  
已用接口                  : Win NT 及 2000 本地 Win32 接口 FpiTQC7d  
z)S6f79`Q  
所用输出模式: : 内部 WAV 函数 NJ)Dw`|%|)  
样本格式    : 44.100 Hz; 16 Bit; 立体声 +Q[uq!<VJk  
puJB&u"4L  
-?-XO<I  
已抓取 CD 的 TOC ICb!AsL  
y-db CYMc  
     音轨 |    起始    |    长度    |  起始扇区  |  结束扇区   N(Ru/9!y"  
    -------------------------------------------- F?|Efpzow?  
      1 |  0:00.00 |  3:55.72 |      0 |  17696 |ZL?Pqki  
      2 |  3:55.72 |  4:14.20 |  17697 |  36766 `^Vd*  
      3 |  8:10.17 |  6:16.55 |  36767 |  65021 cv aG[NF  
      4 | 14:26.72 |  6:06.63 |  65022 |  92534 ]*#i_dho7  
      5 | 20:33.60 |  5:31.07 |  92535 | 117366 $Lr& V~  
b3^:Bh9  
l S)^8  
范围状态及错误 LUbj^iQ9  
rO7_K>g?  
已选择范围 z2iMpZ  
?4bYb]8Z  
     文件名 J:\12 Music*音乐\[WAV] Michael Jackson Audios\【Single】1992 Jam (US - 49K 74334) 5''\CDImage.wav 9wYm(7M6  
'#7k9\  
     峰值电平 100.0 % -D~K9u]U_  
     抓取速度 5.5 X :1A:g^n  
     范围质量 100.0 % V vrsf6l]  
     复制 CRC C8CA42F2 p(n0(}eVC'  
     复制成功  Zi~.  
TRi'l#m4  
没有错误发生 nK;d\DO  
6\.g,>   
JTKS5 r7?  
AccurateRip 摘要 *:CTIV5N0  
xw8k<`  
音轨  1  精确地校准抓取  5)  [C4264BB7]  (AR v2) g$uiwqNA%  
音轨  2  精确地校准抓取  5)  [764260F7]  (AR v2) SSI> +A  
音轨  3  精确地校准抓取  5)  [DE5E07C4]  (AR v2) @ym:@<D  
音轨  4  精确地校准抓取  5)  [50C7B8F4]  (AR v2) <9]"p2  
音轨  5  精确地校准抓取  5)  [38149E83]  (AR v2) lf( +]k30  
`:iMGq ZN  
所有音轨精确校准抓取 %g7j7$c  
GG#-x$jK  
状态报告结尾
9BakxmAc  
f4S}Nga(  
链接:http://pan.baidu.com/s/1eRNVUeQ 密码: Tcy9oYh!Pn  
此帖售价 10 金钱,已有 8 人购买 [记录] [购买]
购买后,将显示帖子中所有出售内容。
若发现会员采用欺骗的方法获取财富,请立刻举报,我们会对会员处以2-N倍的罚金,严重者封掉ID!
此段为出售的内容,购买后显示
bD v& ;Z  

发帖
2735
金钱
31355
威望
620
贡献值
37
交易币
388
只看该作者 1楼 发表于: 2017-06-26
非常喜欢

离线mich008

发帖
831
金钱
5831
威望
24
贡献值
15
交易币
893
只看该作者 2楼 发表于: 2017-06-26
美国版的也收了
离线刘123伟

发帖
684
金钱
411
威望
54
贡献值
14
交易币
741
只看该作者 3楼 发表于: 2017-06-27
nice!
离线xiaobian4

发帖
56
金钱
16
威望
20
贡献值
1
交易币
61
只看该作者 4楼 发表于: 2017-06-27
试试听听 S\A/*!%~y  
看看,咋样
离线michael0829

发帖
954
金钱
9759
威望
90
贡献值
70
交易币
1203
只看该作者 5楼 发表于: 2017-06-28
跟乔丹合作的mv,两个MJ,挚爱我迈!
I Love You Michael Jackson Forever!
I Just Can't Stop Loving You Michel!

发帖
605
金钱
909
威望
16
贡献值
16
交易币
685
只看该作者 6楼 发表于: 2017-07-01
不知效果如何
离线lifan_npl

发帖
2185
金钱
16546
威望
783
贡献值
348
交易币
2542
只看该作者 7楼 发表于: 2017-07-10
这个有cd,还是下一个 就不用自己抓轨了
我的淘宝:
http://shop63152617.taobao.com  
离线mjlove98

发帖
2549
金钱
5647
威望
197
贡献值
123
交易币
2627
只看该作者 8楼 发表于: 2017-09-09
Re:[Single] 1992 Jam (US - 49K 74334) - WAV整轨 ?by幽灵
谢谢楼主了,收藏了
离线肯尼

发帖
955
金钱
7410
威望
431
贡献值
228
交易币
1440
只看该作者 9楼 发表于: 2017-09-10
谢谢分享。
顺势待发张元穹 Kenny Saxton @肯尼 & 齐奕同Michael Qi @迈颤我栗
2014年6月25日 合辑 火热制作中
2014 MJFantastics Music International Ltd.
快速回复
限100 字节
 
上一个 下一个