论坛风格切换切换到宽版
  • 657阅读
  • 12回复

[亲传][Single] 1992 Jam (US - 49K 74334) - WAV整轨 ♬by幽灵 [复制链接]

上一主题 下一主题
离线mjghosts
 

发帖
8251
金钱
218667
威望
9176
贡献值
2723
交易币
4762
只看楼主 倒序阅读 楼主  发表于: 2017-06-25
— 本帖被 mjghosts 执行加亮操作(2017-06-25) —
美国本土发行市售单曲,收录5首曲目。* Ep mJWbU  
I}+;ME|<2  
注:独家整理,转载请注明出处!EAC无损整轨(压缩包内含CD图片) " 9@,l!  
^agj4$  
解压密码:www.mjsunny.com
ExCM<$,  
h4(JUio  
Tracklist ?*H9-2W@  
1 Jam (Roger's Jeep Radio Mix) 3:57 dQ9 ah  
2 Jam (Silky 7") 4:17 BwxnDeG)  
3 Jam (Roger's Club Mix) 6:20 p0M=t-  
4 Jam (Atlanta Techno Mix) 6:06 0|XKd24BN  
5 Rock With You (Masters At Work Remix) 5:29
#~k[6YR 0  
s<vs:jna  
ZenPw1-  
5ZK&fKeCF  
?x3Jv<G0*  
aMTFW_w  
Exact Audio Copy V1.0 beta 6 from 9. April 2015 ]^ K;goQv  
!][F  
EAC 抓取日志文件从25. 六月 2017, 13:49 m`6VKp{YD  
mS%4gx~~_n  
Michael Jackson / Jam 6|!NLwa  
y=aV=qD  
使用驱动器  :MATSHITADVD-RAM UJ890AS   Adapter: 1  ID: 1 #BY`h~&T  
pSfYu=#f  
读取模式      : 可靠Secure a1c1k}  
使用精确流     : 是 OBOwz4<  
清空音频缓存    : 否 a#0;==#  
使用 C2 指示器 : 是 rmd;\)#*`  
g "hJ{{<  
读取偏移校正:               : 102 WE6\dhJ<  
读取 Lead-In 和 Lead-Out : 否 ^Q.,\TL01  
用静音填充抓取中丢失偏移的采样       : 是 9V 0}d2d  
去除首尾静音块               : 否 >#(n"RCHf  
在CRC 计算中使用了空样本       : 是 md bp8,O  
已用接口                  : Win NT 及 2000 本地 Win32 接口 1n=_y o  
60}! LmL  
所用输出模式: : 内部 WAV 函数 \9{F5S z  
样本格式    : 44.100 Hz; 16 Bit; 立体声 ^G1%6\We  
?j O 5 9n  
r"{<%e  
已抓取 CD 的 TOC =!b6FjsiG  
Ykqyk')wm  
     音轨 |    起始    |    长度    |  起始扇区  |  结束扇区   \3XqHf3|o  
    -------------------------------------------- ,0N94pKy  
      1 |  0:00.00 |  3:55.72 |      0 |  17696 )2e#HBnH  
      2 |  3:55.72 |  4:14.20 |  17697 |  36766 DcD{*t?x  
      3 |  8:10.17 |  6:16.55 |  36767 |  65021 0CExY9@Wq  
      4 | 14:26.72 |  6:06.63 |  65022 |  92534 FnFb[I@eu  
      5 | 20:33.60 |  5:31.07 |  92535 | 117366 w#y0atsg'  
wBSQ:f]g  
<|B1wa:|  
范围状态及错误 NH A5e<  
XMIbUbU k-  
已选择范围 #Pk$L+C  
L1{GL #qV  
     文件名 J:\12 Music*音乐\[WAV] Michael Jackson Audios\【Single】1992 Jam (US - 49K 74334) 5''\CDImage.wav / |r'  
O[^%{'  
     峰值电平 100.0 % Z8O n%Mx{"  
     抓取速度 5.5 X <UP m=Hb  
     范围质量 100.0 % o{qr!*_3  
     复制 CRC C8CA42F2 kRJ4-n^@><  
     复制成功 V9yl4q-bL  
7cDU2l  
没有错误发生 y9H% Xl  
e}Vw!w  
"ww|&-W9  
AccurateRip 摘要 %]gTm7 =t  
5 |0,X<&  
音轨  1  精确地校准抓取  5)  [C4264BB7]  (AR v2) ?t&kb7  
音轨  2  精确地校准抓取  5)  [764260F7]  (AR v2) Kb#4ILA  
音轨  3  精确地校准抓取  5)  [DE5E07C4]  (AR v2) Dr&('RZ4  
音轨  4  精确地校准抓取  5)  [50C7B8F4]  (AR v2) z /KK)u(q  
音轨  5  精确地校准抓取  5)  [38149E83]  (AR v2) SvM6iZ]  
e~%  ;K4  
所有音轨精确校准抓取 GG064zPq7  
{'sY|lou  
状态报告结尾
f ),TO  
Mv 544>:  
链接:http://pan.baidu.com/s/1eRNVUeQ 密码: )UgX3+@  
此帖售价 10 金钱,已有 9 人购买 [记录] [购买]
购买后,将显示帖子中所有出售内容。
若发现会员采用欺骗的方法获取财富,请立刻举报,我们会对会员处以2-N倍的罚金,严重者封掉ID!
此段为出售的内容,购买后显示
$n^ MD_1!  

发帖
2740
金钱
30927
威望
620
贡献值
37
交易币
393
只看该作者 1楼 发表于: 2017-06-26
非常喜欢

离线mich008

发帖
839
金钱
5917
威望
24
贡献值
15
交易币
901
只看该作者 2楼 发表于: 2017-06-26
美国版的也收了
离线刘123伟

发帖
697
金钱
1160
威望
54
贡献值
14
交易币
754
只看该作者 3楼 发表于: 2017-06-27
nice!
离线xiaobian4

发帖
56
金钱
16
威望
20
贡献值
1
交易币
61
只看该作者 4楼 发表于: 2017-06-27
试试听听 o 6j"OZcv  
看看,咋样
离线michael0829

发帖
955
金钱
9809
威望
90
贡献值
70
交易币
1204
只看该作者 5楼 发表于: 2017-06-28
跟乔丹合作的mv,两个MJ,挚爱我迈!
I Love You Michael Jackson Forever!
I Just Can't Stop Loving You Michel!

发帖
605
金钱
909
威望
16
贡献值
16
交易币
685
只看该作者 6楼 发表于: 2017-07-01
不知效果如何
离线lifan_npl

发帖
2196
金钱
31917
威望
851
贡献值
428
交易币
2569
只看该作者 7楼 发表于: 2017-07-10
这个有cd,还是下一个 就不用自己抓轨了
我的淘宝:
http://shop63152617.taobao.com  
离线mjlove98

发帖
2566
金钱
4339
威望
197
贡献值
123
交易币
2644
只看该作者 8楼 发表于: 2017-09-09
Re:[Single] 1992 Jam (US - 49K 74334) - WAV整轨 ?by幽灵
谢谢楼主了,收藏了
离线肯尼

发帖
955
金钱
6312
威望
431
贡献值
228
交易币
1440
只看该作者 9楼 发表于: 2017-09-10
谢谢分享。
顺势待发张元穹 Kenny Saxton @肯尼 & 齐奕同Michael Qi @迈颤我栗
2014年6月25日 合辑 火热制作中
2014 MJFantastics Music International Ltd.
快速回复
限100 字节
 
上一个 下一个