论坛风格切换切换到宽版
  • 476阅读
  • 11回复

[亲传][Single] 1992 Jam (US - 49K 74334) - WAV整轨 ♬by幽灵 [复制链接]

上一主题 下一主题
离线mjghosts
 

发帖
8240
金钱
216437
威望
9172
贡献值
2721
交易币
4743
只看楼主 倒序阅读 楼主  发表于: 2017-06-25
— 本帖被 mjghosts 执行加亮操作(2017-06-25) —
美国本土发行市售单曲,收录5首曲目。* aMuVqZw  
G=/k>@Di  
注:独家整理,转载请注明出处!EAC无损整轨(压缩包内含CD图片) fb]S-z(  
Ty4S~ClO#'  
解压密码:www.mjsunny.com
9q[;u[A8^  
~qVz)<  
Tracklist } (FPV*mS  
1 Jam (Roger's Jeep Radio Mix) 3:57 i?@M  
2 Jam (Silky 7") 4:17 Q\Kx"Y3i  
3 Jam (Roger's Club Mix) 6:20 dR^"X3$  
4 Jam (Atlanta Techno Mix) 6:06 JC?N_kP%W  
5 Rock With You (Masters At Work Remix) 5:29
(7FW9X;  
P$GjF-!:  
#K\?E.9h  
IeX^4 rc(  
Flxvhl)L  
G$zL)R8GE|  
Exact Audio Copy V1.0 beta 6 from 9. April 2015 j9+I0>#X  
T=a=B(  
EAC 抓取日志文件从25. 六月 2017, 13:49 sd#|3  
dBV7Te4L  
Michael Jackson / Jam hd V1nS$  
IPSF]"}~  
使用驱动器  :MATSHITADVD-RAM UJ890AS   Adapter: 1  ID: 1 <!$:8ls  
{y]mk?j  
读取模式      : 可靠Secure m]_FQWfet  
使用精确流     : 是 `s '#  
清空音频缓存    : 否 6qe*@o  
使用 C2 指示器 : 是 +9O5KI?P  
04J}UE]Ww  
读取偏移校正:               : 102 :[@ k<8<]  
读取 Lead-In 和 Lead-Out : 否 Cp^@zw*/  
用静音填充抓取中丢失偏移的采样       : 是 \ JG8KE=j  
去除首尾静音块               : 否 ` b !5^W  
在CRC 计算中使用了空样本       : 是 M)?dEgU}M  
已用接口                  : Win NT 及 2000 本地 Win32 接口 M-NV_W&M  
@RD+xYm  
所用输出模式: : 内部 WAV 函数 ,~ ?'Ef80  
样本格式    : 44.100 Hz; 16 Bit; 立体声 mtic>  
hlvt$Jwq  
q^8EOAvnZ  
已抓取 CD 的 TOC fbrp#G71y  
5G}6;UY  
     音轨 |    起始    |    长度    |  起始扇区  |  结束扇区   :@ uIxa$[  
    -------------------------------------------- hi{%pi&!T  
      1 |  0:00.00 |  3:55.72 |      0 |  17696 ";3*?/uM  
      2 |  3:55.72 |  4:14.20 |  17697 |  36766 f*((;*n ;  
      3 |  8:10.17 |  6:16.55 |  36767 |  65021 0Vv9BL{  
      4 | 14:26.72 |  6:06.63 |  65022 |  92534 Y)HbxFF`/  
      5 | 20:33.60 |  5:31.07 |  92535 | 117366 Eek9|i"p  
ziL^M"~2  
SE`l(-tL  
范围状态及错误 F,}s$v  
<MZi<Z`  
已选择范围 ^ }#f()  
-CU,z|g+  
     文件名 J:\12 Music*音乐\[WAV] Michael Jackson Audios\【Single】1992 Jam (US - 49K 74334) 5''\CDImage.wav N(R,8GF5G  
`u=<c  
     峰值电平 100.0 % /nM*ljfB\  
     抓取速度 5.5 X [N R1d-Wg  
     范围质量 100.0 % +}]wLM}\UF  
     复制 CRC C8CA42F2 Ko}7$2^  
     复制成功 $pJ3xp&  
GYTbeY  
没有错误发生 T)*l' g'  
@)8NI[=6O  
agGgJ@  
AccurateRip 摘要 (p}9^Y  
|8b$x| B  
音轨  1  精确地校准抓取  5)  [C4264BB7]  (AR v2) q>wa#1X)  
音轨  2  精确地校准抓取  5)  [764260F7]  (AR v2) Lcm~QF7cd  
音轨  3  精确地校准抓取  5)  [DE5E07C4]  (AR v2) IDL^0:eg<.  
音轨  4  精确地校准抓取  5)  [50C7B8F4]  (AR v2) QZz{74]n  
音轨  5  精确地校准抓取  5)  [38149E83]  (AR v2) 3e!a>Gl*  
Ra15d^  
所有音轨精确校准抓取 }tS6Z:fOY  
~_^o?NE,  
状态报告结尾
(w@MlMk  
{dr&46$p  
链接:http://pan.baidu.com/s/1eRNVUeQ 密码: j[=_1~u}  
此帖售价 10 金钱,已有 8 人购买 [记录] [购买]
购买后,将显示帖子中所有出售内容。
若发现会员采用欺骗的方法获取财富,请立刻举报,我们会对会员处以2-N倍的罚金,严重者封掉ID!
此段为出售的内容,购买后显示
EwBN+v;)  

发帖
2729
金钱
31485
威望
620
贡献值
37
交易币
382
只看该作者 1楼 发表于: 2017-06-26
非常喜欢

离线mich008

发帖
824
金钱
5504
威望
24
贡献值
15
交易币
886
只看该作者 2楼 发表于: 2017-06-26
美国版的也收了
离线刘123伟

发帖
682
金钱
971
威望
54
贡献值
14
交易币
739
只看该作者 3楼 发表于: 2017-06-27
nice!
离线xiaobian4

发帖
56
金钱
16
威望
20
贡献值
1
交易币
61
只看该作者 4楼 发表于: 2017-06-27
试试听听 G: @gO2(D  
看看,咋样
离线michael0829

发帖
954
金钱
9369
威望
90
贡献值
70
交易币
1203
只看该作者 5楼 发表于: 2017-06-28
跟乔丹合作的mv,两个MJ,挚爱我迈!
I Love You Michael Jackson Forever!
I Just Can't Stop Loving You Michel!

发帖
605
金钱
909
威望
16
贡献值
16
交易币
685
只看该作者 6楼 发表于: 2017-07-01
不知效果如何
离线lifan_npl

发帖
2173
金钱
16819
威望
782
贡献值
347
交易币
2526
只看该作者 7楼 发表于: 2017-07-10
这个有cd,还是下一个 就不用自己抓轨了
我的淘宝:
http://shop63152617.taobao.com  
离线mjlove98

发帖
2520
金钱
5968
威望
196
贡献值
122
交易币
2594
只看该作者 8楼 发表于: 2017-09-09
Re:[Single] 1992 Jam (US - 49K 74334) - WAV整轨 ?by幽灵
谢谢楼主了,收藏了
离线肯尼

发帖
953
金钱
7180
威望
431
贡献值
228
交易币
1438
只看该作者 9楼 发表于: 2017-09-10
谢谢分享。
顺势待发张元穹 Kenny Saxton @肯尼 & 齐奕同Michael Qi @迈颤我栗
2014年6月25日 合辑 火热制作中
2014 MJFantastics Music International Ltd.
快速回复
限100 字节
 
上一个 下一个