论坛风格切换切换到宽版
  • 891阅读
  • 12回复

[亲传][Single] 1992 Jam (US - 49K 74334) - WAV整轨 ♬by幽灵 [复制链接]

上一主题 下一主题
离线mjghosts
 

发帖
8257
金钱
219515
威望
9187
贡献值
2734
交易币
4792
只看楼主 倒序阅读 楼主  发表于: 2017-06-25
— 本帖被 mjghosts 执行加亮操作(2017-06-25) —
美国本土发行市售单曲,收录5首曲目。* kVkV~  
wMt?yc:X  
注:独家整理,转载请注明出处!EAC无损整轨(压缩包内含CD图片) lCWk)m8  
fU>"d>6!S  
解压密码:www.mjsunny.com
#4%,09+  
P~ffgzP  
Tracklist f]T#q@|lE  
1 Jam (Roger's Jeep Radio Mix) 3:57 +s1+;VUs3  
2 Jam (Silky 7") 4:17 wd..{j0&  
3 Jam (Roger's Club Mix) 6:20 !x;T2l  
4 Jam (Atlanta Techno Mix) 6:06 h!yF   
5 Rock With You (Masters At Work Remix) 5:29
#^!oP$>1  
Xw9,O8}C7  
Mgcq'{[~Y=  
'e;*V$+  
|I)xK@7  
&rcr])jg[  
Exact Audio Copy V1.0 beta 6 from 9. April 2015 )ckx&e  
2[j|:Ng7  
EAC 抓取日志文件从25. 六月 2017, 13:49 :T%,.sH  
]y-r I  
Michael Jackson / Jam /~g M,*  
,1^)JshZ~  
使用驱动器  :MATSHITADVD-RAM UJ890AS   Adapter: 1  ID: 1 -?LSw  
}Z0)FU +  
读取模式      : 可靠Secure Y$oBsg\v  
使用精确流     : 是 2z )h,<D  
清空音频缓存    : 否 ->8n.!F}  
使用 C2 指示器 : 是 TN/I(pkt1B  
V :d/;~  
读取偏移校正:               : 102 <@;eN&  
读取 Lead-In 和 Lead-Out : 否 >OiC].1   
用静音填充抓取中丢失偏移的采样       : 是 f"k/j?e*  
去除首尾静音块               : 否 _|*3uGo:  
在CRC 计算中使用了空样本       : 是 <C CEqY 4  
已用接口                  : Win NT 及 2000 本地 Win32 接口 &y Vii^  
3=;iC6 `  
所用输出模式: : 内部 WAV 函数 w9.r`_-  
样本格式    : 44.100 Hz; 16 Bit; 立体声 ,$}v_-:[l  
1j0yON  
)G*H l^Z;4  
已抓取 CD 的 TOC  299; N  
~>#=$#V   
     音轨 |    起始    |    长度    |  起始扇区  |  结束扇区   7%)4cHZ^$?  
    -------------------------------------------- ]u2! )vZh'  
      1 |  0:00.00 |  3:55.72 |      0 |  17696 :LcR<>LZ  
      2 |  3:55.72 |  4:14.20 |  17697 |  36766 ^5"s3Qn  
      3 |  8:10.17 |  6:16.55 |  36767 |  65021 jOEb1  
      4 | 14:26.72 |  6:06.63 |  65022 |  92534 Fwho.R-.  
      5 | 20:33.60 |  5:31.07 |  92535 | 117366 n*bbmG1  
6,s@>8n  
gD&%$&q  
范围状态及错误 <7)Vj*VxC  
~Bj-n6QDE  
已选择范围 {WFYNEQ[  
Ig5J_Z^]b  
     文件名 J:\12 Music*音乐\[WAV] Michael Jackson Audios\【Single】1992 Jam (US - 49K 74334) 5''\CDImage.wav G 7zfyw}W  
zif()i   
     峰值电平 100.0 % 0]i#1Si~@  
     抓取速度 5.5 X HM ^rk  
     范围质量 100.0 % ` LU&]NS3  
     复制 CRC C8CA42F2 GAz;4pUZ  
     复制成功 |%b'L.$4  
! =|{  
没有错误发生 ydoCoD w  
$Fr$9 jq&  
/z5j.TMs  
AccurateRip 摘要 W}JJaZR*X  
"64pVaT4  
音轨  1  精确地校准抓取  5)  [C4264BB7]  (AR v2) 2Ni2Gkf@  
音轨  2  精确地校准抓取  5)  [764260F7]  (AR v2) Neey myW  
音轨  3  精确地校准抓取  5)  [DE5E07C4]  (AR v2) [=..#y!U  
音轨  4  精确地校准抓取  5)  [50C7B8F4]  (AR v2) sveFxI  
音轨  5  精确地校准抓取  5)  [38149E83]  (AR v2) =:9n+7~$  
 @(Q4  
所有音轨精确校准抓取 aJIj%Y$  
ZhM-F0;`  
状态报告结尾
\h _hd%'G  
*1%=?:$(r6  
链接:http://pan.baidu.com/s/1eRNVUeQ 密码: E/AM<eN  
此帖售价 10 金钱,已有 9 人购买 [记录] [购买]
购买后,将显示帖子中所有出售内容。
若发现会员采用欺骗的方法获取财富,请立刻举报,我们会对会员处以2-N倍的罚金,严重者封掉ID!
此段为出售的内容,购买后显示
G{ F>=z"(l  

发帖
2753
金钱
30915
威望
621
贡献值
38
交易币
410
只看该作者 1楼 发表于: 2017-06-26
非常喜欢

离线mich008

发帖
854
金钱
6406
威望
24
贡献值
15
交易币
916
只看该作者 2楼 发表于: 2017-06-26
美国版的也收了
离线刘123伟

发帖
721
金钱
14727
威望
56
贡献值
15
交易币
782
只看该作者 3楼 发表于: 2017-06-27
nice!
离线xiaobian4

发帖
56
金钱
16
威望
20
贡献值
1
交易币
61
只看该作者 4楼 发表于: 2017-06-27
试试听听 ZHM NG~!  
看看,咋样
离线michael0829

发帖
957
金钱
10414
威望
90
贡献值
70
交易币
1206
只看该作者 5楼 发表于: 2017-06-28
跟乔丹合作的mv,两个MJ,挚爱我迈!
I Love You Michael Jackson Forever!
I Just Can't Stop Loving You Michel!

发帖
619
金钱
959
威望
16
贡献值
16
交易币
699
只看该作者 6楼 发表于: 2017-07-01
不知效果如何
离线lifan_npl

发帖
2213
金钱
31997
威望
853
贡献值
430
交易币
2594
只看该作者 7楼 发表于: 2017-07-10
这个有cd,还是下一个 就不用自己抓轨了
我的淘宝店:
http://shop63152617.taobao.com  
离线mjlove98

发帖
2585
金钱
4080
威望
197
贡献值
123
交易币
2663
只看该作者 8楼 发表于: 2017-09-09
Re:[Single] 1992 Jam (US - 49K 74334) - WAV整轨 ?by幽灵
谢谢楼主了,收藏了
离线肯尼

发帖
959
金钱
6465
威望
442
贡献值
239
交易币
1468
只看该作者 9楼 发表于: 2017-09-10
谢谢分享。
Remixed & Designed by Kenny Saxton ©
快速回复
限100 字节
 
上一个 下一个