论坛风格切换切换到宽版
  • 803阅读
  • 13回复

[亲传][Single] 2001 You Rock My World (UK - 672029 2) - WAV整轨 ♬by幽灵 [复制链接]

上一主题 下一主题
离线mjghosts
 

发帖
8257
金钱
219460
威望
9187
贡献值
2734
交易币
4792
只看楼主 倒序阅读 楼主  发表于: 2017-08-04
— 本帖被 mjghosts 执行加亮操作(2017-08-04) —
英国发行画盘单曲CD,收录该曲的专辑版、电台版、伴奏、清唱!完美精确校准抓轨!* }PDtx:T-  
+8|Xj!!*}  
注:独家整理,转载请注明出处!EAC无损整轨(压缩包内含CD图片) += gU`<\  
= P$7 "  
解压密码:www.mjsunny.com
$B%3#-  
o O1Fw1Y  
Tracklist R}OjSiS\  
1 Intro / You Rock My World 5:39 $*+UX   
2 You Rock My World (Radio Edit) 4:25 QWwEfL  
3 You Rock My World (Instrumental) 5:06 F8*P/<P1cK  
4 You Rock My World (A Cappella) 4:47
g; ZVoD  
d@<~u,Mt&F  
vA@\V)s  
$N17GqoC  
UhF+},gU  
VA@t8H,  
Exact Audio Copy V1.0 beta 6 from 9. April 2015 "ll TVB  
v6_fF5N/  
EAC 抓取日志文件从3. 八月 2017, 1:27 h oL"K  
q+/7v9  
Michael Jackson / You Rock My World } :8{z`4H  
",gWO 8T  
使用驱动器  :MATSHITADVD-RAM UJ890AS   Adapter: 1  ID: 1 ]NrA2i?  
& NO:S  
读取模式      : 可靠Secure nr t3wqJ  
使用精确流     : 是 Vk>m/"  
清空音频缓存    : 否 #@#/M)  
使用 C2 指示器 : 是 =/J{>S>(i  
.D~ZE94@  
读取偏移校正:               : 102 z)Is:LhS  
读取 Lead-In 和 Lead-Out : 否 5V|D%t2N  
用静音填充抓取中丢失偏移的采样       : 是 YL$#6d  
去除首尾静音块               : 否 u;[*Z  
在CRC 计算中使用了空样本       : 是 w}OJ2^  
已用接口                  : Win NT 及 2000 本地 Win32 接口 h;^H*Y&`  
&m>yY{ be  
所用输出模式: : 内部 WAV 函数 % |6t\[gn  
样本格式    : 44.100 Hz; 16 Bit; 立体声 Mn- f  
O3?3XB> <  
1@ e22\  
已抓取 CD 的 TOC jLANv{"  
(BB&ZUdyv  
     音轨 |    起始    |    长度    |  起始扇区  |  结束扇区   PRs[! EB6  
    -------------------------------------------- :'L^zGf  
      1 |  0:00.00 |  5:38.17 |      0 |  25366 ewo1^&#>  
      2 |  5:38.17 |  4:26.20 |  25367 |  45336 H`js1b1n  
      3 | 10:04.37 |  5:05.43 |  45337 |  68254 7e{w)m:A  
      4 | 15:10.05 |  4:45.42 |  68255 |  89671 2D5S%27,  
RXMzwk  
Lo'P;Sb4<}  
范围状态及错误 X[Lwx.Ly8  
nqG9$!k^t  
已选择范围 o80"ZU|=  
6mP s;I  
     文件名 J:\12 Music*音乐\[WAV] Michael Jackson Audios\【Single】2001 You Rock My World (UK - 672029 2)\CDImage.wav ^CIO,I  
(=v :@\r  
     峰值电平 100.0 % 4)L(41h  
     抓取速度 5.0 X ]*I:N  
     范围质量 99.9 % e):jQite   
     复制 CRC 224C24ED a;=)`  
     复制成功 P`/;3u/P  
ET]PF,`  
没有错误发生 |eN#9Bm  
~}uv4;0l]  
xvP=i/SO  
AccurateRip 摘要 1u?h4w C  
t)#8r,9c  
音轨  1  精确地校准抓取  15)  [D2B5CA0E]  (AR v2) 75@!j[QL<  
音轨  2  精确地校准抓取  14)  [2EDBEDDB]  (AR v2) 8Zj=:;  
音轨  3  精确地校准抓取  15)  [9A850A88]  (AR v2) lk.]!K$}  
音轨  4  精确地校准抓取  14)  [142CDF18]  (AR v2) LtIR)EtB]  
;rggO0Y  
所有音轨精确校准抓取 oo+i3af&7  
OD@k9I[  
状态报告结尾
oI\ Lepl*  
0W_olnZ  
链接:http://pan.baidu.com/s/1o8boY3C 密码: }3825  
此帖售价 5 金钱,已有 11 人购买 [记录] [购买]
购买后,将显示帖子中所有出售内容。
若发现会员采用欺骗的方法获取财富,请立刻举报,我们会对会员处以2-N倍的罚金,严重者封掉ID!
此段为出售的内容,购买后显示
`49: !M$i  
o+],L_Ab  
离线小李

发帖
240
金钱
1125
威望
9
贡献值
8
交易币
212
只看该作者 1楼 发表于: 2017-08-04
我 购买 了 P}vk5o'  
you rock my world
离线Moses

发帖
5062
金钱
37320
威望
2951
贡献值
1521
交易币
2748
只看该作者 2楼 发表于: 2017-08-04
感觉这张单曲制作很水了 就是几个轨拼的 混都懒的混 *!,k`=.([#  
http://blog.sina.com.cn/mjjcfc
离线mich008

发帖
852
金钱
6231
威望
24
贡献值
15
交易币
914
只看该作者 3楼 发表于: 2017-08-04
这个还没有 感谢发布
离线xiaoyin258

发帖
260
金钱
4340
威望
22
贡献值
27
交易币
369
只看该作者 4楼 发表于: 2017-08-06
you rock my world
离线肯尼

发帖
959
金钱
6465
威望
442
贡献值
239
交易币
1468
只看该作者 5楼 发表于: 2017-09-10
感谢分享
Remixed & Designed by Kenny Saxton ©
离线mjlove98

发帖
2585
金钱
4080
威望
197
贡献值
123
交易币
2663
只看该作者 6楼 发表于: 2017-10-04
Re:[Single] 2001 You Rock My World (UK - 672029 2) - WAV整轨 ?by幽灵
感谢分享

发帖
2752
金钱
30900
威望
621
贡献值
38
交易币
409
只看该作者 7楼 发表于: 2017-10-19
感谢分享

离线阳光网

发帖
471
金钱
9811
威望
53
贡献值
36
交易币
583
只看该作者 8楼 发表于: 2017-10-21
感谢分享
我最帅
在线michael0829

发帖
955
金钱
10254
威望
90
贡献值
70
交易币
1204
只看该作者 9楼 发表于: 01-01
很久没来,慢慢补,谢谢分享!
I Love You Michael Jackson Forever!
I Just Can't Stop Loving You Michel!
快速回复
限100 字节
 
上一个 下一个