论坛风格切换切换到宽版
  • 926阅读
  • 13回复

[亲传][Single] 2001 You Rock My World (UK - 672029 2) - WAV整轨 ♬by幽灵 [复制链接]

上一主题 下一主题
离线mjghosts
 

发帖
8261
金钱
219535
威望
9187
贡献值
2734
交易币
4796
只看楼主 倒序阅读 楼主  发表于: 2017-08-04
— 本帖被 mjghosts 执行加亮操作(2017-08-04) —
英国发行画盘单曲CD,收录该曲的专辑版、电台版、伴奏、清唱!完美精确校准抓轨!* %[0V>  
|f1 S&b.  
注:独家整理,转载请注明出处!EAC无损整轨(压缩包内含CD图片) LcS\#p#s]  
:xISS  
解压密码:www.mjsunny.com
M72.  
xo2PxUO  
Tracklist {/`iZzPg  
1 Intro / You Rock My World 5:39 U_ n1QU  
2 You Rock My World (Radio Edit) 4:25 _7es_w}R  
3 You Rock My World (Instrumental) 5:06 S]&f+g}&w  
4 You Rock My World (A Cappella) 4:47
ApHs`0=(  
 tKOTQ8i4  
<[mT*  
D^qto{!  
x=>B 6o-f  
3z7SK Gy  
Exact Audio Copy V1.0 beta 6 from 9. April 2015 K|JpkEw  
>g7}JI&  
EAC 抓取日志文件从3. 八月 2017, 1:27 8~*<s5H  
eS(hLXE!7  
Michael Jackson / You Rock My World \j C[|LM&  
Dp1FX"a)  
使用驱动器  :MATSHITADVD-RAM UJ890AS   Adapter: 1  ID: 1 /G[2   
)|52B;yZx  
读取模式      : 可靠Secure qH 1k  
使用精确流     : 是 yT3q~#:  
清空音频缓存    : 否 >JSk/]"  
使用 C2 指示器 : 是 N*^iOm]Y  
Q4H(JD1f)  
读取偏移校正:               : 102 h)NZG6R  
读取 Lead-In 和 Lead-Out : 否 " Y1]6 Zu  
用静音填充抓取中丢失偏移的采样       : 是 1QA{NAnu&  
去除首尾静音块               : 否 },]G +L;R  
在CRC 计算中使用了空样本       : 是 c>$PLO^  
已用接口                  : Win NT 及 2000 本地 Win32 接口 HL`=zB%  
w;OvZo|  
所用输出模式: : 内部 WAV 函数 v1j&oA}$.  
样本格式    : 44.100 Hz; 16 Bit; 立体声 .%"s| D  
1;E^3j$  
\RF{ITV$kD  
已抓取 CD 的 TOC r7zS4;b  
#,5v#| u|7  
     音轨 |    起始    |    长度    |  起始扇区  |  结束扇区   X~VJO|k pz  
    -------------------------------------------- Hs#q 7  
      1 |  0:00.00 |  5:38.17 |      0 |  25366 8h '~*  
      2 |  5:38.17 |  4:26.20 |  25367 |  45336 v*lj>)L  
      3 | 10:04.37 |  5:05.43 |  45337 |  68254 2'-!9!C  
      4 | 15:10.05 |  4:45.42 |  68255 |  89671 q_b,3Tp  
1=Y pNXX  
\2OjIEQQ  
范围状态及错误 }HLV'^"k  
bo_Tp~ j  
已选择范围 ){FXonVP  
g'<ekY+V:  
     文件名 J:\12 Music*音乐\[WAV] Michael Jackson Audios\【Single】2001 You Rock My World (UK - 672029 2)\CDImage.wav @z<IsAE  
*]+5T-R% $  
     峰值电平 100.0 % *jrQ-'<T  
     抓取速度 5.0 X wpV)y Q^  
     范围质量 99.9 % HWOOw&^<  
     复制 CRC 224C24ED  Mcm%G#  
     复制成功 zOsk'ZE&  
D{G~7P\.  
没有错误发生 p?e-`xs  
]mdO3P  
la{Iqm{i  
AccurateRip 摘要 pL pBP+i  
hjx= ?  
音轨  1  精确地校准抓取  15)  [D2B5CA0E]  (AR v2) 1 ILA Utf)  
音轨  2  精确地校准抓取  14)  [2EDBEDDB]  (AR v2) 09sdt;V Q  
音轨  3  精确地校准抓取  15)  [9A850A88]  (AR v2) =5u;\b>*  
音轨  4  精确地校准抓取  14)  [142CDF18]  (AR v2) cC7&]2X +f  
dO|n[/qL0  
所有音轨精确校准抓取 KvkU]s_  
x}X hL  
状态报告结尾
=q?sB]n  
.BrYz:#A  
链接:http://pan.baidu.com/s/1o8boY3C 密码: ;$/]6@bqB  
此帖售价 5 金钱,已有 11 人购买 [记录] [购买]
购买后,将显示帖子中所有出售内容。
若发现会员采用欺骗的方法获取财富,请立刻举报,我们会对会员处以2-N倍的罚金,严重者封掉ID!
此段为出售的内容,购买后显示
TpAso[r  
xa$4P [  
离线小李

发帖
240
金钱
1125
威望
9
贡献值
8
交易币
212
只看该作者 1楼 发表于: 2017-08-04
我 购买 了 ~>XqR/v  
you rock my world
离线Moses

发帖
5062
金钱
37320
威望
2951
贡献值
1521
交易币
2748
只看该作者 2楼 发表于: 2017-08-04
感觉这张单曲制作很水了 就是几个轨拼的 混都懒的混 Hp@Q  
http://blog.sina.com.cn/mjjcfc
离线mich008

发帖
855
金钱
6561
威望
24
贡献值
15
交易币
917
只看该作者 3楼 发表于: 2017-08-04
这个还没有 感谢发布
离线xiaoyin258

发帖
262
金钱
4350
威望
22
贡献值
27
交易币
371
只看该作者 4楼 发表于: 2017-08-06
you rock my world
离线肯尼

发帖
959
金钱
6535
威望
442
贡献值
239
交易币
1468
只看该作者 5楼 发表于: 2017-09-10
感谢分享
Remixed & Designed by Kenny Saxton ©
离线mjlove98

发帖
2589
金钱
4045
威望
197
贡献值
123
交易币
2667
只看该作者 6楼 发表于: 2017-10-04
Re:[Single] 2001 You Rock My World (UK - 672029 2) - WAV整轨 ?by幽灵
感谢分享

发帖
2763
金钱
30921
威望
621
贡献值
38
交易币
420
只看该作者 7楼 发表于: 2017-10-19
感谢分享

离线阳光网

发帖
479
金钱
9903
威望
53
贡献值
36
交易币
591
只看该作者 8楼 发表于: 2017-10-21
感谢分享
我最帅
离线michael0829

发帖
957
金钱
10559
威望
90
贡献值
70
交易币
1206
只看该作者 9楼 发表于: 2018-01-01
很久没来,慢慢补,谢谢分享!
I Love You Michael Jackson Forever!
I Just Can't Stop Loving You Michel!
快速回复
限100 字节
 
上一个 下一个