论坛风格切换切换到宽版
  • 1022阅读
  • 13回复

[亲传][Single] 2001 You Rock My World (UK - 672029 2) - WAV整轨 ♬by幽灵 [复制链接]

上一主题 下一主题
离线mjghosts
 

发帖
8262
金钱
219666
威望
9187
贡献值
2734
交易币
4797
只看楼主 倒序阅读 楼主  发表于: 2017-08-04
— 本帖被 mjghosts 执行加亮操作(2017-08-04) —
英国发行画盘单曲CD,收录该曲的专辑版、电台版、伴奏、清唱!完美精确校准抓轨!* |zKcL3*  
[G*mQ@G9  
注:独家整理,转载请注明出处!EAC无损整轨(压缩包内含CD图片) (n\ cs$  
,fn=%tiUk  
解压密码:www.mjsunny.com
0'uj*Y{L  
65v'/m!ys  
Tracklist szHUHW~;J  
1 Intro / You Rock My World 5:39 x/~M=][tN  
2 You Rock My World (Radio Edit) 4:25 E2MpMR  
3 You Rock My World (Instrumental) 5:06 a$ }^z  
4 You Rock My World (A Cappella) 4:47
c1i7Rc{q  
; OsN^   
JsV#:  
x{m)I <.:  
_R]h]<TQ  
&IcDUr]L  
Exact Audio Copy V1.0 beta 6 from 9. April 2015 k@w&$M{tPF  
-$7Jc=:>  
EAC 抓取日志文件从3. 八月 2017, 1:27 v#~,)-D&  
oR+Fn}mG  
Michael Jackson / You Rock My World O @w=  
 (vY10W{  
使用驱动器  :MATSHITADVD-RAM UJ890AS   Adapter: 1  ID: 1 l!oU9  
n44j]+P  
读取模式      : 可靠Secure >9|Q,/b0  
使用精确流     : 是 $Q?UyEi  
清空音频缓存    : 否 d@C93VYp  
使用 C2 指示器 : 是 -1fT2e  
zg)]:  
读取偏移校正:               : 102 T,k`WR  
读取 Lead-In 和 Lead-Out : 否 :[,n`0lH  
用静音填充抓取中丢失偏移的采样       : 是 !sUo+Y  
去除首尾静音块               : 否 x#'# ~EO-G  
在CRC 计算中使用了空样本       : 是 0&Zm3(}  
已用接口                  : Win NT 及 2000 本地 Win32 接口 kAU[lPt*R  
@99@do |C  
所用输出模式: : 内部 WAV 函数 sAWUtJ  
样本格式    : 44.100 Hz; 16 Bit; 立体声 Kh}#At^C8e  
p Gzzv{H  
cd#@"&r  
已抓取 CD 的 TOC +.:- :  
ZXh6Se4o  
     音轨 |    起始    |    长度    |  起始扇区  |  结束扇区   +"'cSAK  
    -------------------------------------------- sFuB[ JJ}  
      1 |  0:00.00 |  5:38.17 |      0 |  25366 V)mitRaV  
      2 |  5:38.17 |  4:26.20 |  25367 |  45336 }4b 4<Sm_h  
      3 | 10:04.37 |  5:05.43 |  45337 |  68254 slaYr`u  
      4 | 15:10.05 |  4:45.42 |  68255 |  89671 B+:/!_  
4+"2K-]   
K[r<-6TS  
范围状态及错误 ^h\& l{e  
&8$Gy u  
已选择范围 "%]<Co<S  
t$~CLq5ad  
     文件名 J:\12 Music*音乐\[WAV] Michael Jackson Audios\【Single】2001 You Rock My World (UK - 672029 2)\CDImage.wav 0+S ;0  
[QUaC3l)  
     峰值电平 100.0 % Z:eB9R#2y  
     抓取速度 5.0 X @~7y\G  
     范围质量 99.9 % UA4="/  
     复制 CRC 224C24ED E)>.2{]C>  
     复制成功 >:J7u*>$'  
(jmF7XfU  
没有错误发生 o[^nmHrM2  
!P8Y(i  
;IOM3'5 T@  
AccurateRip 摘要 Nn#;Kjul.  
oNhCa>)/  
音轨  1  精确地校准抓取  15)  [D2B5CA0E]  (AR v2) J ?0P{{  
音轨  2  精确地校准抓取  14)  [2EDBEDDB]  (AR v2) 6Vgxfic  
音轨  3  精确地校准抓取  15)  [9A850A88]  (AR v2) !$NQF/Ol  
音轨  4  精确地校准抓取  14)  [142CDF18]  (AR v2) S2jn  pf}  
[]jbzVwS2  
所有音轨精确校准抓取 d@%PTSX  
~ o=kW2Y  
状态报告结尾
"TI>_~  
6 w'))Z  
链接:http://pan.baidu.com/s/1o8boY3C 密码: &hUEOif  
此帖售价 5 金钱,已有 11 人购买 [记录] [购买]
购买后,将显示帖子中所有出售内容。
若发现会员采用欺骗的方法获取财富,请立刻举报,我们会对会员处以2-N倍的罚金,严重者封掉ID!
此段为出售的内容,购买后显示
7p- RPC  
~{ GTL_w  
离线小李

发帖
240
金钱
1125
威望
9
贡献值
8
交易币
212
只看该作者 1楼 发表于: 2017-08-04
我 购买 了 89D`!`Ah]  
you rock my world
离线Moses

发帖
5062
金钱
37320
威望
2951
贡献值
1521
交易币
2748
只看该作者 2楼 发表于: 2017-08-04
感觉这张单曲制作很水了 就是几个轨拼的 混都懒的混 ?5d[BV   
http://blog.sina.com.cn/mjjcfc
离线mich008

发帖
859
金钱
7017
威望
24
贡献值
15
交易币
921
只看该作者 3楼 发表于: 2017-08-04
这个还没有 感谢发布
离线xiaoyin258

发帖
264
金钱
4338
威望
22
贡献值
27
交易币
373
只看该作者 4楼 发表于: 2017-08-06
you rock my world
离线肯尼

发帖
959
金钱
6535
威望
442
贡献值
239
交易币
1468
只看该作者 5楼 发表于: 2017-09-10
感谢分享
Remixed & Designed by Kenny Saxton ©
离线mjlove98

发帖
2594
金钱
4045
威望
197
贡献值
123
交易币
2672
只看该作者 6楼 发表于: 2017-10-04
Re:[Single] 2001 You Rock My World (UK - 672029 2) - WAV整轨 ?by幽灵
感谢分享

发帖
2769
金钱
30908
威望
622
贡献值
39
交易币
430
只看该作者 7楼 发表于: 2017-10-19
感谢分享

离线阳光网

发帖
484
金钱
9910
威望
53
贡献值
36
交易币
596
只看该作者 8楼 发表于: 2017-10-21
感谢分享
我最帅
离线michael0829

发帖
958
金钱
10879
威望
90
贡献值
70
交易币
1207
只看该作者 9楼 发表于: 2018-01-01
很久没来,慢慢补,谢谢分享!
I Love You Michael Jackson Forever!
I Just Can't Stop Loving You Michel!
快速回复
限100 字节
 
上一个 下一个