论坛风格切换切换到宽版
  • 695阅读
  • 13回复

[亲传][Single] 2001 You Rock My World (UK - 672029 2) - WAV整轨 ♬by幽灵 [复制链接]

上一主题 下一主题
离线mjghosts
 

发帖
8256
金钱
219309
威望
9187
贡献值
2734
交易币
4791
只看楼主 倒序阅读 楼主  发表于: 2017-08-04
— 本帖被 mjghosts 执行加亮操作(2017-08-04) —
英国发行画盘单曲CD,收录该曲的专辑版、电台版、伴奏、清唱!完美精确校准抓轨!* Y'U]!c9  
HceZTe@  
注:独家整理,转载请注明出处!EAC无损整轨(压缩包内含CD图片) A$1Gc> C  
o?`^ UG-   
解压密码:www.mjsunny.com
p%#=OtkC  
"?Yf3G:\0  
Tracklist j|w_BO 9  
1 Intro / You Rock My World 5:39 <7*d2  
2 You Rock My World (Radio Edit) 4:25 (Y~gItej  
3 You Rock My World (Instrumental) 5:06 >o4Ih^VB  
4 You Rock My World (A Cappella) 4:47
vC%Hc/&.}  
={B?hjo<-  
T u7}*vsR  
7CSd}@71\  
n}3fItSJ  
G%XjDxo$I  
Exact Audio Copy V1.0 beta 6 from 9. April 2015 _\u?]YTv  
M&5De{LS}  
EAC 抓取日志文件从3. 八月 2017, 1:27 J9q[u[QZ9O  
nrJW.F]S8[  
Michael Jackson / You Rock My World #8i9@w  
bxvpj  
使用驱动器  :MATSHITADVD-RAM UJ890AS   Adapter: 1  ID: 1 g%%j"Cz1  
>m4HCs>  
读取模式      : 可靠Secure gbjql+Mx+  
使用精确流     : 是 6+W`:0je  
清空音频缓存    : 否 v|GDPq  
使用 C2 指示器 : 是 *L=F2wW  
DRmN+2I  
读取偏移校正:               : 102 eWU@ @$9  
读取 Lead-In 和 Lead-Out : 否 %617f=(E?!  
用静音填充抓取中丢失偏移的采样       : 是 cB|Rj}40v  
去除首尾静音块               : 否 ~.&2N Ur  
在CRC 计算中使用了空样本       : 是 SZL('x,"^  
已用接口                  : Win NT 及 2000 本地 Win32 接口 X'.*I])  
=`KV),\  
所用输出模式: : 内部 WAV 函数 oz#;7 ?9  
样本格式    : 44.100 Hz; 16 Bit; 立体声 1^^9'/  
$C`YVv%?0  
/d prs(*K  
已抓取 CD 的 TOC EViQB.3w\  
&#DKB#.2  
     音轨 |    起始    |    长度    |  起始扇区  |  结束扇区   c/ s$*"  
    -------------------------------------------- HqKI|^  
      1 |  0:00.00 |  5:38.17 |      0 |  25366 @-H D9h  
      2 |  5:38.17 |  4:26.20 |  25367 |  45336 ';.n#  
      3 | 10:04.37 |  5:05.43 |  45337 |  68254 ?K/N{GK%{  
      4 | 15:10.05 |  4:45.42 |  68255 |  89671 R#w9%+  
Z%1{B*(e  
l7M![Ur  
范围状态及错误 6nP-IKL  
"O j2B|:s&  
已选择范围 wjnQK  
:L'U>)k  
     文件名 J:\12 Music*音乐\[WAV] Michael Jackson Audios\【Single】2001 You Rock My World (UK - 672029 2)\CDImage.wav lIDGL05f'  
uxsfQ%3`#  
     峰值电平 100.0 % ;\[ el<Y)s  
     抓取速度 5.0 X dX8N7{"[  
     范围质量 99.9 % @+(TM5Ub  
     复制 CRC 224C24ED 5^W},:3R  
     复制成功 ; M%n=+[O  
}&I^1BHZs  
没有错误发生 5`?'}_[Yj  
Hi{1C"%  
,%zU5hh  
AccurateRip 摘要 ? !dy  
Id/-u[-yo  
音轨  1  精确地校准抓取  15)  [D2B5CA0E]  (AR v2) e;kH,fHUI3  
音轨  2  精确地校准抓取  14)  [2EDBEDDB]  (AR v2) W@vt6v  
音轨  3  精确地校准抓取  15)  [9A850A88]  (AR v2) xejQ!MAB  
音轨  4  精确地校准抓取  14)  [142CDF18]  (AR v2) q, 8TOn  
,u:J"epM  
所有音轨精确校准抓取 6cF~8  
9?jD90@ }  
状态报告结尾
/tG0"1{  
z154lY}K  
链接:http://pan.baidu.com/s/1o8boY3C 密码: ;ewqGDe'3  
此帖售价 5 金钱,已有 11 人购买 [记录] [购买]
购买后,将显示帖子中所有出售内容。
若发现会员采用欺骗的方法获取财富,请立刻举报,我们会对会员处以2-N倍的罚金,严重者封掉ID!
此段为出售的内容,购买后显示
HGwSsoS  
~l^Q~W-+  
离线小李

发帖
240
金钱
1125
威望
9
贡献值
8
交易币
212
只看该作者 1楼 发表于: 2017-08-04
我 购买 了 7K+eI!m.s  
you rock my world
离线Moses

发帖
5062
金钱
37320
威望
2951
贡献值
1521
交易币
2748
只看该作者 2楼 发表于: 2017-08-04
感觉这张单曲制作很水了 就是几个轨拼的 混都懒的混 :K!L-*>A9  
http://blog.sina.com.cn/mjjcfc
离线mich008

发帖
849
金钱
5981
威望
24
贡献值
15
交易币
911
只看该作者 3楼 发表于: 2017-08-04
这个还没有 感谢发布
离线xiaoyin258

发帖
260
金钱
4340
威望
22
贡献值
27
交易币
369
只看该作者 4楼 发表于: 2017-08-06
you rock my world
离线肯尼

发帖
959
金钱
6465
威望
442
贡献值
239
交易币
1468
只看该作者 5楼 发表于: 2017-09-10
感谢分享
Remixed & Designed by Kenny Saxton ©
离线mjlove98

发帖
2584
金钱
4090
威望
197
贡献值
123
交易币
2662
只看该作者 6楼 发表于: 2017-10-04
Re:[Single] 2001 You Rock My World (UK - 672029 2) - WAV整轨 ?by幽灵
感谢分享

发帖
2751
金钱
30829
威望
621
贡献值
38
交易币
408
只看该作者 7楼 发表于: 2017-10-19
感谢分享

离线阳光网

发帖
467
金钱
9739
威望
52
贡献值
35
交易币
575
只看该作者 8楼 发表于: 2017-10-21
感谢分享
我最帅
离线michael0829

发帖
955
金钱
10069
威望
90
贡献值
70
交易币
1204
只看该作者 9楼 发表于: 01-01
很久没来,慢慢补,谢谢分享!
I Love You Michael Jackson Forever!
I Just Can't Stop Loving You Michel!
快速回复
限100 字节
 
上一个 下一个