论坛风格切换切换到宽版
  • 437阅读
  • 13回复

[亲传][Single] 1992 Jam (US Promo - ESK 4583) - WAV整轨 ♬by幽灵&恶魔心 [复制链接]

上一主题 下一主题
离线mjghosts
 

发帖
8240
金钱
216437
威望
9172
贡献值
2721
交易币
4743
只看楼主 倒序阅读 楼主  发表于: 2017-09-15
— 本帖被 mjghosts 执行加亮操作(2017-09-16) —
感谢论坛会员“恶魔心”抓轨&提供! jZkcBIK2  
W/bQd)Jvk  
*92年超罕见美版宣传单曲,8曲。 :v&$o'Sak  
;) z:fToh  
注:独家整理,转载请注明出处!EAC无损整轨(压缩包内含CD图片) S3*`jF>q  
i0kak`x0  
解压密码:www.mjsunny.com
oC: {aK6\  
U175{N%3  
Tracklist r|fL&dtr  
1 Jam (Roger's Jeep Radio Mix) 3:57 /h H  
2 Jam (Teddy's Jam) 5:48 0$)>D==  
3 Jam (7" Edit) 4:03 Vl /+;6_  
4 Jam (MJ's Raw Mix) 4:33 gx8ouOh  
5 Jam (Teddy's 12" Mix) 5:42 j_!F*yul  
6 Jam (Roger's Jeep Mix) 5:54 Pg0x/X{t  
7 Jam (Percapella) 5:29 nwB_8mN|  
8 Jam (Radio Edit Without Rap) 4:44 hk(ZM#Bh  
(cAIvgI  
/7nb,!~~l  
[fya)}  
h:b)Wr  
p*R;hU  
(Y.k8";)`  
Exact Audio Copy V1.2 from 12. August 2016 u<7/0;D#+  
-j# 2}[J7  
EAC 抓取日志文件从18. 八月 2017, 0:59 \+oQd=K@  
zsEc(  
Michael Jackson / Jam [US Promo - ESK 4583] p,5i)nEFj  
!_]Y~[  
使用驱动器  :HL-DT-STDVDRAM GT32N   Adapter: 1  ID: 0 lK?uXr7^  
#5Qpu  
读取模式      : 可靠Secure "(3[+W{|  
使用精确流     : 是 f&N gS+<K$  
清空音频缓存    : 否 yJ[0WY8<kC  
使用 C2 指示器 : 否 b <tNk]7  
$f$SNx)),  
读取偏移校正:               : 103 *l(7D(#  
读取 Lead-In 和 Lead-Out : 否 PF0_8,@U  
用静音填充抓取中丢失偏移的采样       : 是 <X#C)-.  
去除首尾静音块               : 否 VnSCz" ?3  
在CRC 计算中使用了空样本       : 是 "-E\[@/  
已用接口                  : Win NT 及 2000 本地 Win32 接口 (Nq=H)cm8  
eYc$ dPE  
所用输出模式: : 内部 WAV 函数 3h]g}&k  
样本格式    : 44.100 Hz; 16 Bit; 立体声 Q1lyj7c#x  
!OZy7  
SA:Zc^aV  
已抓取 CD 的 TOC 6]i-E>p3R  
HH`'*$]7  
     音轨 |    起始    |    长度    |  起始扇区  |  结束扇区   ~"gA,e-)  
    -------------------------------------------- VCYwzB  
      1 |  0:00.00 |  3:56.52 |      0 |  17751 #I.+aV+2oQ  
      2 |  3:56.52 |  5:44.48 |  17752 |  43599 7jrt7[{  
      3 |  9:41.25 |  4:12.47 |  43600 |  62546 !"AvY y9  
      4 | 13:53.72 |  4:34.23 |  62547 |  83119 [> 3./YH`  
      5 | 18:28.20 |  5:43.42 |  83120 | 108886 ejKucEgD  
      6 | 24:11.62 |  6:03.08 | 108887 | 136119 !vi> U|rh  
      7 | 30:14.70 |  5:31.40 | 136120 | 160984 *][`@@->  
      8 | 35:46.35 |  4:44.55 | 160985 | 182339 [|wZ77\  
D>r&}6<  
"s-"<&>a(  
范围状态及错误 2>9C-VL2  
L- iy  
已选择范围 yF:1( 4  
v~+(GqR=+  
     文件名 F:\albums\Promos\Dangerous\JAM#2\未知艺术家 - 未知标题.wav fb7;|LF  
M t|zyXyzX  
     峰值电平 100.0 % tFn)aa~L  
     抓取速度 3.3 X ja'T+!k  
     范围质量 99.9 % ^e5=hH-%  
     复制 CRC E26C93FA Gu,wF(x7A  
     复制成功 wu6;.xTLl  
G>=*yqo  
没有错误发生 X`/k)N>l  
uZYF(Yu  
dQX6(J j  
AccurateRip 摘要 3`?7 <YJ  
e{H=dIa+  
音轨  1  在数据库中不存在 DfD&)tsMQ  
音轨  2  在数据库中不存在 Z\rwO>3  
音轨  3  在数据库中不存在 6|=f$a  
音轨  4  在数据库中不存在 ,qwuLBW  
音轨  5  在数据库中不存在 e`s ~.ZF  
音轨  6  在数据库中不存在 N~gzDQ3  
音轨  7  在数据库中不存在 S hWJ72c  
音轨  8  在数据库中不存在 wlvgg  
C) s5D  
没有任何音轨在 AccurateRip 数据库中有记录 u=sp`%?  
*^4"5X@  
状态报告结尾 6 "sSoj  
aXYY:;  
---- CUETools DB Plugin V2.1.6 d0ks G$  
A/s?x>QA  
[CTDB TOCID: RvZJ4ZBxbvEbHaV374BnkdrDOt4-] found " 8MF_Gu):  
Submit result: RvZJ4ZBxbvEbHaV374BnkdrDOt4- has been uploaded tWRC$  
Track | CTDB Status pnOAs&QAm  
  1   | (1/1) Accurately ripped cwg"c4V  
  2   | (0/1) No match c@7rqHU-0  
  3   | (0/1) No match &8lZNv8;(p  
  4   | (0/1) No match #6=  
  5   | (0/1) No match *2l7f`K  
  6   | (0/1) No match e^voW"?%  
  7   | (0/1) No match JZ x[W&]zT  
  8   | (0/1) No match
W=?<<dVYD  
`a/`,N  
链接:http://pan.baidu.com/s/1bpbEbfD 密码: 1% `Rs  
此帖售价 20 金钱,已有 11 人购买 [记录] [购买]
购买后,将显示帖子中所有出售内容。
若发现会员采用欺骗的方法获取财富,请立刻举报,我们会对会员处以2-N倍的罚金,严重者封掉ID!
此段为出售的内容,购买后显示
h?U O&(  
2条评分金钱+10威望+2
lifan_npl 威望 +2 楼主,这个压缩包有问题,能否重新压缩上传一次啊?万分感谢 2017-09-29
lifan_npl 金钱 +10 楼主,这个压缩包有问题,能否重新压缩上传一次啊?万分感谢 2017-09-29

发帖
2729
金钱
31485
威望
620
贡献值
37
交易币
382
只看该作者 1楼 发表于: 2017-09-16
非常稀罕

离线mjnet

发帖
380
金钱
30469
威望
104
贡献值
54
交易币
557
只看该作者 2楼 发表于: 2017-09-16
感謝!!這張不便宜!!
离线Moses

发帖
5059
金钱
37305
威望
2951
贡献值
1521
交易币
2745
只看该作者 3楼 发表于: 2017-09-16
配成1对
http://blog.sina.com.cn/mjjcfc
离线刘123伟

发帖
682
金钱
971
威望
54
贡献值
14
交易币
739
只看该作者 4楼 发表于: 2017-09-16
不错,分享万岁!
离线小李

发帖
232
金钱
230
威望
99
贡献值
8
交易币
204
只看该作者 5楼 发表于: 2017-09-16
谢谢,听听看. pV,P|>YTf  
离线mjdong

发帖
2200
金钱
27097
威望
1360
贡献值
686
交易币
2045
只看该作者 6楼 发表于: 2017-09-17
这单曲到底几个版本
离线linkmj

发帖
73
金钱
6
威望
15
贡献值
14
交易币
132
只看该作者 7楼 发表于: 2017-09-18
支持!收了很多了。
离线lifan_npl

发帖
2173
金钱
16819
威望
782
贡献值
347
交易币
2526
只看该作者 8楼 发表于: 2017-09-21
虽然买不起这张实体CD,但是wav一定要收一个。激动
我的淘宝:
http://shop63152617.taobao.com  
离线123456789

发帖
118
金钱
135
威望
88
贡献值
7
交易币
146
只看该作者 9楼 发表于: 2017-09-25
谢谢 赞.....
快速回复
限100 字节
 
上一个 下一个