论坛风格切换切换到宽版
  • 726阅读
  • 14回复

[亲传][Single] 1992 Jam (US Promo - ESK 4583) - WAV整轨 ♬by幽灵&恶魔心 [复制链接]

上一主题 下一主题
离线mjghosts
 

发帖
8256
金钱
219309
威望
9187
贡献值
2734
交易币
4791
只看楼主 倒序阅读 楼主  发表于: 2017-09-15
— 本帖被 mjghosts 执行加亮操作(2017-09-16) —
感谢论坛会员“恶魔心”抓轨&提供! c&['T+X  
l6M?[  
*92年超罕见美版宣传单曲,8曲。 _O`prX.:B0  
_@5Xmr  
注:独家整理,转载请注明出处!EAC无损整轨(压缩包内含CD图片) xfk -Ezv  
*zrT;j G  
解压密码:www.mjsunny.com
b 74 !Zw  
{^]qaQ[5N  
Tracklist (,At5 T  
1 Jam (Roger's Jeep Radio Mix) 3:57 1k[_DQ=^l1  
2 Jam (Teddy's Jam) 5:48 FZ*"^=)`G  
3 Jam (7" Edit) 4:03 gS(3m_  
4 Jam (MJ's Raw Mix) 4:33 pte\1q[N  
5 Jam (Teddy's 12" Mix) 5:42 Th_@'UDa  
6 Jam (Roger's Jeep Mix) 5:54 ,Yag! i>;  
7 Jam (Percapella) 5:29 1P)K@j  
8 Jam (Radio Edit Without Rap) 4:44 [s}W47N1  
(Mv~0ShakO  
L15)+^4n  
 |Iy;_8c  
r] /Ej!|  
B:>:$LIL  
:7{GOx  
Exact Audio Copy V1.2 from 12. August 2016 _'p/8K5)=  
6 ;'s9s"  
EAC 抓取日志文件从18. 八月 2017, 0:59 0hY3vBQ!  
gmp@ TY=:L  
Michael Jackson / Jam [US Promo - ESK 4583] E8C8kH]  
P`rfDQoZ  
使用驱动器  :HL-DT-STDVDRAM GT32N   Adapter: 1  ID: 0 SX,$ $43  
UV(`.  
读取模式      : 可靠Secure =2q#- ,t  
使用精确流     : 是 "Lvk?k )hx  
清空音频缓存    : 否 qt:B]#j@  
使用 C2 指示器 : 否 }a OBQsnO  
Az8b_:=  
读取偏移校正:               : 103 "s@Hg1  
读取 Lead-In 和 Lead-Out : 否 tk0m[HN@eV  
用静音填充抓取中丢失偏移的采样       : 是 DXJw)%G w  
去除首尾静音块               : 否 =lv(  
在CRC 计算中使用了空样本       : 是 Tkr~)2,(I!  
已用接口                  : Win NT 及 2000 本地 Win32 接口 wsdZwik  
6Takx%U  
所用输出模式: : 内部 WAV 函数 6l,6k~Z9  
样本格式    : 44.100 Hz; 16 Bit; 立体声 `pv  
shGUG;  
UV|{za$&/  
已抓取 CD 的 TOC i=5!taxu}E  
#Br`;hL<T  
     音轨 |    起始    |    长度    |  起始扇区  |  结束扇区   BgN^].z&  
    -------------------------------------------- _R0O9sPTO  
      1 |  0:00.00 |  3:56.52 |      0 |  17751 _e8Gt6>  
      2 |  3:56.52 |  5:44.48 |  17752 |  43599 3Ch42<  
      3 |  9:41.25 |  4:12.47 |  43600 |  62546 f7zB_hVDmE  
      4 | 13:53.72 |  4:34.23 |  62547 |  83119 {Mo[C%  
      5 | 18:28.20 |  5:43.42 |  83120 | 108886 ,nog6\  
      6 | 24:11.62 |  6:03.08 | 108887 | 136119 Tb^1#O  
      7 | 30:14.70 |  5:31.40 | 136120 | 160984 MF$Dx| Tcj  
      8 | 35:46.35 |  4:44.55 | 160985 | 182339 x`2dN/wDhf  
Q?.9BM1V  
UQI!/6F  
范围状态及错误 /=V!lRs  
w3iX "w  
已选择范围 J;V#a=I  
@6[aLF]F  
     文件名 F:\albums\Promos\Dangerous\JAM#2\未知艺术家 - 未知标题.wav bTx4}>=5l  
J>hjIN  
     峰值电平 100.0 % SA"4|#3>7  
     抓取速度 3.3 X >7?Lq<H  
     范围质量 99.9 % _4{3^QZq5  
     复制 CRC E26C93FA i'ZnU55=  
     复制成功 EE9eG31|r  
rWL&-AZQl  
没有错误发生 mmC MsBfL  
(-o}'l'mo  
M6[O> z  
AccurateRip 摘要 W9GjUswv!  
UOe@R|79q  
音轨  1  在数据库中不存在 !}d_$U$  
音轨  2  在数据库中不存在 |>JRJ"CFE  
音轨  3  在数据库中不存在 ![[:Z  
音轨  4  在数据库中不存在 H'@@%nO (  
音轨  5  在数据库中不存在 tB0f+ wC  
音轨  6  在数据库中不存在 B .?@VF  
音轨  7  在数据库中不存在 /p|L.&`U  
音轨  8  在数据库中不存在 OQ3IkE`G  
oC TSV  
没有任何音轨在 AccurateRip 数据库中有记录 )uCa]IR  
GS GaYq  
状态报告结尾 . N5$s2t  
'V4B{n7 h  
---- CUETools DB Plugin V2.1.6 ZjgfkZAS  
|v"&Y  
[CTDB TOCID: RvZJ4ZBxbvEbHaV374BnkdrDOt4-] found _o6Zj1p  
Submit result: RvZJ4ZBxbvEbHaV374BnkdrDOt4- has been uploaded _y9NDLRs8  
Track | CTDB Status cw;TIx_q  
  1   | (1/1) Accurately ripped kI~; 'M  
  2   | (0/1) No match &A&2z l %#  
  3   | (0/1) No match X<:Zx#J?i  
  4   | (0/1) No match Tu=~iQ  
  5   | (0/1) No match 5Noy~;  
  6   | (0/1) No match j2%M-y4E  
  7   | (0/1) No match m>^#:JK  
  8   | (0/1) No match
AgJPtzs  
HA;G{[X  
链接:http://pan.baidu.com/s/1bpbEbfD 密码: 6M6r&,yRu  
此帖售价 20 金钱,已有 12 人购买 [记录] [购买]
购买后,将显示帖子中所有出售内容。
若发现会员采用欺骗的方法获取财富,请立刻举报,我们会对会员处以2-N倍的罚金,严重者封掉ID!
此段为出售的内容,购买后显示
%xN91j["  
2条评分金钱+10威望+2
lifan_npl 威望 +2 楼主,这个压缩包有问题,能否重新压缩上传一次啊?万分感谢 2017-09-29
lifan_npl 金钱 +10 楼主,这个压缩包有问题,能否重新压缩上传一次啊?万分感谢 2017-09-29

发帖
2751
金钱
30829
威望
621
贡献值
38
交易币
408
只看该作者 1楼 发表于: 2017-09-16
非常稀罕

离线mjnet

发帖
381
金钱
30548
威望
104
贡献值
54
交易币
558
只看该作者 2楼 发表于: 2017-09-16
感謝!!這張不便宜!!
离线Moses

发帖
5062
金钱
37320
威望
2951
贡献值
1521
交易币
2748
只看该作者 3楼 发表于: 2017-09-16
配成1对
http://blog.sina.com.cn/mjjcfc
离线刘123伟

发帖
711
金钱
14449
威望
55
贡献值
14
交易币
768
只看该作者 4楼 发表于: 2017-09-16
不错,分享万岁!
离线小李

发帖
240
金钱
1125
威望
9
贡献值
8
交易币
212
只看该作者 5楼 发表于: 2017-09-16
谢谢,听听看. (:l6R9'=  
离线mjdong

发帖
2215
金钱
25803
威望
1360
贡献值
686
交易币
2060
只看该作者 6楼 发表于: 2017-09-17
这单曲到底几个版本
离线linkmj

发帖
77
金钱
26
威望
15
贡献值
14
交易币
136
只看该作者 7楼 发表于: 2017-09-18
支持!收了很多了。
离线lifan_npl

发帖
2212
金钱
31692
威望
853
贡献值
430
交易币
2593
只看该作者 8楼 发表于: 2017-09-21
虽然买不起这张实体CD,但是wav一定要收一个。激动
我的淘宝店:
http://shop63152617.taobao.com  
离线123456789

发帖
118
金钱
140
威望
88
贡献值
7
交易币
146
只看该作者 9楼 发表于: 2017-09-25
谢谢 赞.....
快速回复
限100 字节
 
上一个 下一个