论坛风格切换切换到宽版
  • 545阅读
  • 13回复

[亲传][Single] 1992 Jam (US Promo - ESK 4583) - WAV整轨 ♬by幽灵&恶魔心 [复制链接]

上一主题 下一主题
离线mjghosts
 

发帖
8242
金钱
217441
威望
9173
贡献值
2722
交易币
4749
只看楼主 倒序阅读 楼主  发表于: 2017-09-15
— 本帖被 mjghosts 执行加亮操作(2017-09-16) —
感谢论坛会员“恶魔心”抓轨&提供! |Rk$u  
NQCJ '%L6  
*92年超罕见美版宣传单曲,8曲。 =sVB.P  
RM2<%$  
注:独家整理,转载请注明出处!EAC无损整轨(压缩包内含CD图片) e-vwve  
;Js-27_0  
解压密码:www.mjsunny.com
~5e)h_y  
96Kv!  
Tracklist <1~5l ~  
1 Jam (Roger's Jeep Radio Mix) 3:57 Hk)IV"[R  
2 Jam (Teddy's Jam) 5:48 KtWn08D!  
3 Jam (7" Edit) 4:03 W10=SM}  
4 Jam (MJ's Raw Mix) 4:33 s&-m!|P  
5 Jam (Teddy's 12" Mix) 5:42 n_}=G RR  
6 Jam (Roger's Jeep Mix) 5:54 *$uj)*5,  
7 Jam (Percapella) 5:29 >0yx!Iao  
8 Jam (Radio Edit Without Rap) 4:44 I7!+~uX  
&%."$rC/0b  
:Osw4u]JXd  
k@HV wK'y  
KW^#DI6tr  
KMFvi_8  
<[7 bUB  
Exact Audio Copy V1.2 from 12. August 2016 s d -5AE  
x8L$T (^  
EAC 抓取日志文件从18. 八月 2017, 0:59 h_O6Z2J1  
Ns^[Hb[b'  
Michael Jackson / Jam [US Promo - ESK 4583] ~0S_S+e  
'q+CL&D  
使用驱动器  :HL-DT-STDVDRAM GT32N   Adapter: 1  ID: 0 s,KE,$5F   
R?,Oh*  
读取模式      : 可靠Secure 3zV{cm0  
使用精确流     : 是 6gUcoDD  
清空音频缓存    : 否 !nPwRK>  
使用 C2 指示器 : 否 Hchh2  
BQ\o?={  
读取偏移校正:               : 103 +7HM7cw  
读取 Lead-In 和 Lead-Out : 否 ]KsL(4PY  
用静音填充抓取中丢失偏移的采样       : 是 ynWF Y<VX  
去除首尾静音块               : 否 GIo7- 6kvm  
在CRC 计算中使用了空样本       : 是 ;rD M%S@  
已用接口                  : Win NT 及 2000 本地 Win32 接口 :P!"'&gCL  
GI]sE]tZ  
所用输出模式: : 内部 WAV 函数 9KqN .  
样本格式    : 44.100 Hz; 16 Bit; 立体声 QT!!KTf  
R:Pw@  
Myal3UF  
已抓取 CD 的 TOC R{GT? wl  
/b$0).fj@,  
     音轨 |    起始    |    长度    |  起始扇区  |  结束扇区   nBVR)|+M  
    -------------------------------------------- 6:(R/9!P  
      1 |  0:00.00 |  3:56.52 |      0 |  17751 >z(AQ  
      2 |  3:56.52 |  5:44.48 |  17752 |  43599 )ZyEn%  
      3 |  9:41.25 |  4:12.47 |  43600 |  62546 X2 Z E9b  
      4 | 13:53.72 |  4:34.23 |  62547 |  83119 L\:f#b~W  
      5 | 18:28.20 |  5:43.42 |  83120 | 108886 |Lq -vs?  
      6 | 24:11.62 |  6:03.08 | 108887 | 136119 X_j=u1*5  
      7 | 30:14.70 |  5:31.40 | 136120 | 160984 RR%[]M#_T  
      8 | 35:46.35 |  4:44.55 | 160985 | 182339 Cb{n4xKW6  
|5ifgSZ  
5i 6*$#OM_  
范围状态及错误 xnyp'O8yk  
G)I lkA@  
已选择范围 GM5s~,  
:&]THUw  
     文件名 F:\albums\Promos\Dangerous\JAM#2\未知艺术家 - 未知标题.wav bS0z\!1  
uW.)(l  
     峰值电平 100.0 % LnN6{z{M  
     抓取速度 3.3 X u&iMY3=  
     范围质量 99.9 % 5WR(jl+M  
     复制 CRC E26C93FA *k$":A  
     复制成功 p,y(Fc~]g'  
C~4$A/&(  
没有错误发生 {DPobyvwFk  
L< MIl[z7  
*o8DfZ  
AccurateRip 摘要 fJ[(zjk  
D0?l$]aE  
音轨  1  在数据库中不存在 ;c5Q"  
音轨  2  在数据库中不存在 ni#!Gxw  
音轨  3  在数据库中不存在 neGCMKtzlJ  
音轨  4  在数据库中不存在 y0Pr[XZ  
音轨  5  在数据库中不存在 @0`Q  
音轨  6  在数据库中不存在 !=(~e':Gv  
音轨  7  在数据库中不存在 Xp]tL3-p  
音轨  8  在数据库中不存在 N 3)OH6w"  
NJb5HoYZ  
没有任何音轨在 AccurateRip 数据库中有记录 [{F8+a^  
Z7&Bn  
状态报告结尾 ~y{(&7sM  
RaFk/mSw  
---- CUETools DB Plugin V2.1.6 MT" 2^&R  
]@bo;.  
[CTDB TOCID: RvZJ4ZBxbvEbHaV374BnkdrDOt4-] found UO}Kk*  
Submit result: RvZJ4ZBxbvEbHaV374BnkdrDOt4- has been uploaded ,R$n I*mf_  
Track | CTDB Status K"1xtpy  
  1   | (1/1) Accurately ripped a3]'%kKp  
  2   | (0/1) No match Rxld$@~-(]  
  3   | (0/1) No match 4RsV\Y{FN  
  4   | (0/1) No match =vBxwa^  
  5   | (0/1) No match Gk2\B]{  
  6   | (0/1) No match *""'v   
  7   | (0/1) No match 0Z#&!xTb  
  8   | (0/1) No match
}NDw3{zn  
&| el8;D  
链接:http://pan.baidu.com/s/1bpbEbfD 密码: ?G+v#?A  
此帖售价 20 金钱,已有 11 人购买 [记录] [购买]
购买后,将显示帖子中所有出售内容。
若发现会员采用欺骗的方法获取财富,请立刻举报,我们会对会员处以2-N倍的罚金,严重者封掉ID!
此段为出售的内容,购买后显示
!0ySS {/  
2条评分金钱+10威望+2
lifan_npl 威望 +2 楼主,这个压缩包有问题,能否重新压缩上传一次啊?万分感谢 2017-09-29
lifan_npl 金钱 +10 楼主,这个压缩包有问题,能否重新压缩上传一次啊?万分感谢 2017-09-29

发帖
2735
金钱
31355
威望
620
贡献值
37
交易币
388
只看该作者 1楼 发表于: 2017-09-16
非常稀罕

离线mjnet

发帖
380
金钱
30479
威望
104
贡献值
54
交易币
557
只看该作者 2楼 发表于: 2017-09-16
感謝!!這張不便宜!!
离线Moses

发帖
5060
金钱
37310
威望
2951
贡献值
1521
交易币
2746
只看该作者 3楼 发表于: 2017-09-16
配成1对
http://blog.sina.com.cn/mjjcfc
离线刘123伟

发帖
684
金钱
411
威望
54
贡献值
14
交易币
741
只看该作者 4楼 发表于: 2017-09-16
不错,分享万岁!
离线小李

发帖
233
金钱
190
威望
99
贡献值
8
交易币
205
只看该作者 5楼 发表于: 2017-09-16
谢谢,听听看. 5"=qVmT)  
离线mjdong

发帖
2201
金钱
27102
威望
1360
贡献值
686
交易币
2046
只看该作者 6楼 发表于: 2017-09-17
这单曲到底几个版本
离线linkmj

发帖
77
金钱
26
威望
15
贡献值
14
交易币
136
只看该作者 7楼 发表于: 2017-09-18
支持!收了很多了。
离线lifan_npl

发帖
2185
金钱
16546
威望
783
贡献值
348
交易币
2542
只看该作者 8楼 发表于: 2017-09-21
虽然买不起这张实体CD,但是wav一定要收一个。激动
我的淘宝:
http://shop63152617.taobao.com  
离线123456789

发帖
118
金钱
140
威望
88
贡献值
7
交易币
146
只看该作者 9楼 发表于: 2017-09-25
谢谢 赞.....
快速回复
限100 字节
 
上一个 下一个