论坛风格切换切换到宽版
  • 867阅读
  • 14回复

[亲传][Single] 1992 Jam (US Promo - ESK 4583) - WAV整轨 ♬by幽灵&恶魔心 [复制链接]

上一主题 下一主题
离线mjghosts
 

发帖
8257
金钱
219515
威望
9187
贡献值
2734
交易币
4792
只看楼主 倒序阅读 楼主  发表于: 2017-09-15
— 本帖被 mjghosts 执行加亮操作(2017-09-16) —
感谢论坛会员“恶魔心”抓轨&提供! pIID= 8RJ.  
$'A4RVVT  
*92年超罕见美版宣传单曲,8曲。 ONjC(7  
?o2;SY(-  
注:独家整理,转载请注明出处!EAC无损整轨(压缩包内含CD图片) gIV3n#-{L  
??|d=4g\  
解压密码:www.mjsunny.com
|$YyjYK  
s9uL<$,'  
Tracklist IM@"AD52a  
1 Jam (Roger's Jeep Radio Mix) 3:57 d/l,C4p  
2 Jam (Teddy's Jam) 5:48 IbF 4k .J  
3 Jam (7" Edit) 4:03 5(423"(y  
4 Jam (MJ's Raw Mix) 4:33 y7>iz6N  
5 Jam (Teddy's 12" Mix) 5:42 ooY\t +  
6 Jam (Roger's Jeep Mix) 5:54 XjxPIdX_H  
7 Jam (Percapella) 5:29 l^ARW E  
8 Jam (Radio Edit Without Rap) 4:44 =rEA:Q`~w  
+ZclGchw  
[A]Ca$':  
srK53vKMHW  
+I@cO&CY|  
krjN7&  
J {tVa(.  
Exact Audio Copy V1.2 from 12. August 2016 `Mk4sKU\a  
mU@xc N  
EAC 抓取日志文件从18. 八月 2017, 0:59 N4wA#\-  
< kP+eD  
Michael Jackson / Jam [US Promo - ESK 4583] :(p )1=I  
?KP}#>Ba@  
使用驱动器  :HL-DT-STDVDRAM GT32N   Adapter: 1  ID: 0 GwLFL.Ke  
k;Fh4Hv  
读取模式      : 可靠Secure n&Yk<  
使用精确流     : 是 ,)fkr]`<  
清空音频缓存    : 否 Y+-xvx :  
使用 C2 指示器 : 否 -J0WUN$2*  
\nvAa_,  
读取偏移校正:               : 103 % _M2N.n  
读取 Lead-In 和 Lead-Out : 否 C!x/ ^gw  
用静音填充抓取中丢失偏移的采样       : 是 H{G{H=K_  
去除首尾静音块               : 否 w YNloU  
在CRC 计算中使用了空样本       : 是 )@g;j>  
已用接口                  : Win NT 及 2000 本地 Win32 接口  z01>'  
QB{rVI>mI!  
所用输出模式: : 内部 WAV 函数 +Ezgn/bS&  
样本格式    : 44.100 Hz; 16 Bit; 立体声 .m4;^S2cO  
8cg`7(a  
g^>#^rLU  
已抓取 CD 的 TOC `cB_.&  
Lm)\Z P+W  
     音轨 |    起始    |    长度    |  起始扇区  |  结束扇区   vxlOh.a|/L  
    -------------------------------------------- 3HV%4nZLf  
      1 |  0:00.00 |  3:56.52 |      0 |  17751 N"5fmY<  
      2 |  3:56.52 |  5:44.48 |  17752 |  43599 #} ,x @]p  
      3 |  9:41.25 |  4:12.47 |  43600 |  62546 ^J=hrYGA  
      4 | 13:53.72 |  4:34.23 |  62547 |  83119 s'I)A^i+  
      5 | 18:28.20 |  5:43.42 |  83120 | 108886 6Z:YT&,f  
      6 | 24:11.62 |  6:03.08 | 108887 | 136119 Q4'C;<\@(Q  
      7 | 30:14.70 |  5:31.40 | 136120 | 160984 0irr7Y  
      8 | 35:46.35 |  4:44.55 | 160985 | 182339 j'rS&BI G  
/XpSe<3  
RXSf,O  
范围状态及错误 k=n "+  
7sV /_3H+  
已选择范围 4M`Xrfwm'[  
I'_v{k5ZI  
     文件名 F:\albums\Promos\Dangerous\JAM#2\未知艺术家 - 未知标题.wav [m#NfA:h,  
rm|7 [mK  
     峰值电平 100.0 % _S5gcPcF"  
     抓取速度 3.3 X x5vzPh`  
     范围质量 99.9 % yA}nPXrd  
     复制 CRC E26C93FA Cqa3n[Mhw1  
     复制成功 @?M; 'xMbB  
2{gwY85:  
没有错误发生 s)Gb!-``  
-$b?rt]h1g  
z 3Zu C{  
AccurateRip 摘要 ]y$)%J^T  
MG;4M>H  
音轨  1  在数据库中不存在 ='KPT1dW*  
音轨  2  在数据库中不存在 7&#'c8]/qh  
音轨  3  在数据库中不存在 Ufyxw5u5F  
音轨  4  在数据库中不存在 B(HNB\3u  
音轨  5  在数据库中不存在 A0'tCq]?0  
音轨  6  在数据库中不存在 _Eet2;9  
音轨  7  在数据库中不存在 aC $h_  
音轨  8  在数据库中不存在 sZ\i(eIU  
IrVM|8vT3  
没有任何音轨在 AccurateRip 数据库中有记录 l%3Q=c  
"1\RdTw  
状态报告结尾 knj,[7uh  
pR^Y|NG!  
---- CUETools DB Plugin V2.1.6 WG!;,~f>o  
?5+KHG*)  
[CTDB TOCID: RvZJ4ZBxbvEbHaV374BnkdrDOt4-] found ;),O*Z|"v  
Submit result: RvZJ4ZBxbvEbHaV374BnkdrDOt4- has been uploaded ff+9(P>*  
Track | CTDB Status FT?1Q'  
  1   | (1/1) Accurately ripped S5JR`o  
  2   | (0/1) No match 4 ~|TKd{  
  3   | (0/1) No match 3B|-xq;]I  
  4   | (0/1) No match JBJ7k19;  
  5   | (0/1) No match ~"YNG?Rre  
  6   | (0/1) No match 3^UsyZS)  
  7   | (0/1) No match #iDFGkK/  
  8   | (0/1) No match
ck+rOGv7{Z  
28yxX431S  
链接:http://pan.baidu.com/s/1bpbEbfD 密码: !c($C   
此帖售价 20 金钱,已有 12 人购买 [记录] [购买]
购买后,将显示帖子中所有出售内容。
若发现会员采用欺骗的方法获取财富,请立刻举报,我们会对会员处以2-N倍的罚金,严重者封掉ID!
此段为出售的内容,购买后显示
*b_54X%3  
2条评分金钱+10威望+2
lifan_npl 威望 +2 楼主,这个压缩包有问题,能否重新压缩上传一次啊?万分感谢 2017-09-29
lifan_npl 金钱 +10 楼主,这个压缩包有问题,能否重新压缩上传一次啊?万分感谢 2017-09-29

发帖
2753
金钱
30915
威望
621
贡献值
38
交易币
410
只看该作者 1楼 发表于: 2017-09-16
非常稀罕

离线mjnet

发帖
381
金钱
30546
威望
104
贡献值
54
交易币
558
只看该作者 2楼 发表于: 2017-09-16
感謝!!這張不便宜!!
离线Moses

发帖
5062
金钱
37320
威望
2951
贡献值
1521
交易币
2748
只看该作者 3楼 发表于: 2017-09-16
配成1对
http://blog.sina.com.cn/mjjcfc
离线刘123伟

发帖
721
金钱
14727
威望
56
贡献值
15
交易币
782
只看该作者 4楼 发表于: 2017-09-16
不错,分享万岁!
离线小李

发帖
240
金钱
1125
威望
9
贡献值
8
交易币
212
只看该作者 5楼 发表于: 2017-09-16
谢谢,听听看. $evuPm8G  
离线mjdong

发帖
2216
金钱
25808
威望
1360
贡献值
686
交易币
2061
只看该作者 6楼 发表于: 2017-09-17
这单曲到底几个版本
离线linkmj

发帖
80
金钱
33
威望
15
贡献值
14
交易币
139
只看该作者 7楼 发表于: 2017-09-18
支持!收了很多了。
离线lifan_npl

发帖
2213
金钱
31997
威望
853
贡献值
430
交易币
2594
只看该作者 8楼 发表于: 2017-09-21
虽然买不起这张实体CD,但是wav一定要收一个。激动
我的淘宝店:
http://shop63152617.taobao.com  
离线123456789

发帖
120
金钱
114
威望
88
贡献值
7
交易币
148
只看该作者 9楼 发表于: 2017-09-25
谢谢 赞.....
快速回复
限100 字节
 
上一个 下一个