论坛风格切换切换到宽版
  • 632阅读
  • 14回复

[亲传][Single] 1992 Jam (US Promo - ESK 4583) - WAV整轨 ♬by幽灵&恶魔心 [复制链接]

上一主题 下一主题
离线mjghosts
 

发帖
8251
金钱
218667
威望
9176
贡献值
2723
交易币
4762
只看楼主 倒序阅读 楼主  发表于: 2017-09-15
— 本帖被 mjghosts 执行加亮操作(2017-09-16) —
感谢论坛会员“恶魔心”抓轨&提供! 6q/ ?-Qcy  
%!|O.xxRR  
*92年超罕见美版宣传单曲,8曲。 qLK?%?.N<  
&JhX +'U  
注:独家整理,转载请注明出处!EAC无损整轨(压缩包内含CD图片) 5kMWW*Xtf  
caq} &A]C  
解压密码:www.mjsunny.com
Nneo{j  
2`bdrRD0  
Tracklist uY#TEjGh]  
1 Jam (Roger's Jeep Radio Mix) 3:57 l=={pb  
2 Jam (Teddy's Jam) 5:48 o\=n4;S  
3 Jam (7" Edit) 4:03 55DE\<r  
4 Jam (MJ's Raw Mix) 4:33 Q[u6|jRt  
5 Jam (Teddy's 12" Mix) 5:42 Z-X?JA\&  
6 Jam (Roger's Jeep Mix) 5:54 z`3( ,V  
7 Jam (Percapella) 5:29 KZ:hKY@q  
8 Jam (Radio Edit Without Rap) 4:44 mUP.rb6  
B80aw>M  
UKBJ_r  
+OHGn;C  
9 c3E+  
9pSUIl9|j  
CA s>AXbs  
Exact Audio Copy V1.2 from 12. August 2016 >Aq:K^D/3F  
iCQ>@P]nE  
EAC 抓取日志文件从18. 八月 2017, 0:59  kLP0{A  
[ .,>wo~  
Michael Jackson / Jam [US Promo - ESK 4583] ^+|De}`u  
 H`QQG!  
使用驱动器  :HL-DT-STDVDRAM GT32N   Adapter: 1  ID: 0 t0E51Ic@  
@'2m$a  
读取模式      : 可靠Secure FY3IUG  
使用精确流     : 是 L"+$Wc[|  
清空音频缓存    : 否 /F/;G*n  
使用 C2 指示器 : 否 `)$_YZq|SR  
X@A1#z+s0]  
读取偏移校正:               : 103 va)%et0!  
读取 Lead-In 和 Lead-Out : 否 qt e>r  
用静音填充抓取中丢失偏移的采样       : 是 J5M+FwZq  
去除首尾静音块               : 否 %3Z/+uT@v]  
在CRC 计算中使用了空样本       : 是 R!\EK H  
已用接口                  : Win NT 及 2000 本地 Win32 接口 ,El!fgL  
W&Y"K)`  
所用输出模式: : 内部 WAV 函数 +K",^6%1  
样本格式    : 44.100 Hz; 16 Bit; 立体声 J4$! 68  
a6xj\w  
&]6) LFm  
已抓取 CD 的 TOC uzOYVN$t  
C@\{ehG  
     音轨 |    起始    |    长度    |  起始扇区  |  结束扇区   tl yJmdl  
    -------------------------------------------- >H][.@LyR  
      1 |  0:00.00 |  3:56.52 |      0 |  17751 UPU+ver  
      2 |  3:56.52 |  5:44.48 |  17752 |  43599 OTWkUB{  
      3 |  9:41.25 |  4:12.47 |  43600 |  62546 . RVVWqW  
      4 | 13:53.72 |  4:34.23 |  62547 |  83119 IXLO>>`  
      5 | 18:28.20 |  5:43.42 |  83120 | 108886 oih5B<&f#  
      6 | 24:11.62 |  6:03.08 | 108887 | 136119 3Mjj' 5KH!  
      7 | 30:14.70 |  5:31.40 | 136120 | 160984 , $*IzL~  
      8 | 35:46.35 |  4:44.55 | 160985 | 182339 q Dd~2"er  
j-@kW'K  
5X.ebd;PT  
范围状态及错误 b]Kk2S/  
-!M,75nU  
已选择范围 ~!iQ6N?PY  
o?Nu:&yE  
     文件名 F:\albums\Promos\Dangerous\JAM#2\未知艺术家 - 未知标题.wav '1SG(0  
@~ Dh'w2q  
     峰值电平 100.0 % AnsjmR:Jv  
     抓取速度 3.3 X nt1CTWKM8^  
     范围质量 99.9 % I+ l%Sn#\  
     复制 CRC E26C93FA j`*N,*ha  
     复制成功 `iKj  
PaB!,<A  
没有错误发生 kYwb -;  
f&@BKx  
E:E4ulak  
AccurateRip 摘要 t/oN>mQG  
Bvjl-$m!v  
音轨  1  在数据库中不存在 #.B"q:CW*P  
音轨  2  在数据库中不存在 NF$\^WvYSP  
音轨  3  在数据库中不存在 pY8q=Kl  
音轨  4  在数据库中不存在 #%3rTU  
音轨  5  在数据库中不存在 p4u5mM  
音轨  6  在数据库中不存在  r}_c  
音轨  7  在数据库中不存在 DrW#v-d  
音轨  8  在数据库中不存在 ~=r^3nZR/J  
`ejUs]SR  
没有任何音轨在 AccurateRip 数据库中有记录 9<CG s3\  
,FQdtNMap  
状态报告结尾 5wtTP ;P  
v *hRz;  
---- CUETools DB Plugin V2.1.6 3*_fzP<R  
&(rWwOo6  
[CTDB TOCID: RvZJ4ZBxbvEbHaV374BnkdrDOt4-] found wz8PtfZ  
Submit result: RvZJ4ZBxbvEbHaV374BnkdrDOt4- has been uploaded [^H"FA[  
Track | CTDB Status m,LG=s  
  1   | (1/1) Accurately ripped `A%^UCd  
  2   | (0/1) No match @# P0M--X  
  3   | (0/1) No match X##1! ad  
  4   | (0/1) No match 1a0kfM$  
  5   | (0/1) No match Kz8:UG(  
  6   | (0/1) No match  /RZR}  
  7   | (0/1) No match ]T! }XXK  
  8   | (0/1) No match
".*x!l0y7  
F7m?xy  
链接:http://pan.baidu.com/s/1bpbEbfD 密码: {'+Q H)w(  
此帖售价 20 金钱,已有 12 人购买 [记录] [购买]
购买后,将显示帖子中所有出售内容。
若发现会员采用欺骗的方法获取财富,请立刻举报,我们会对会员处以2-N倍的罚金,严重者封掉ID!
此段为出售的内容,购买后显示
]-o"}"3Ef  
2条评分金钱+10威望+2
lifan_npl 威望 +2 楼主,这个压缩包有问题,能否重新压缩上传一次啊?万分感谢 2017-09-29
lifan_npl 金钱 +10 楼主,这个压缩包有问题,能否重新压缩上传一次啊?万分感谢 2017-09-29

发帖
2740
金钱
30927
威望
620
贡献值
37
交易币
393
只看该作者 1楼 发表于: 2017-09-16
非常稀罕

离线mjnet

发帖
380
金钱
30579
威望
104
贡献值
54
交易币
557
只看该作者 2楼 发表于: 2017-09-16
感謝!!這張不便宜!!
离线Moses

发帖
5062
金钱
37320
威望
2951
贡献值
1521
交易币
2748
只看该作者 3楼 发表于: 2017-09-16
配成1对
http://blog.sina.com.cn/mjjcfc
离线刘123伟

发帖
697
金钱
1160
威望
54
贡献值
14
交易币
754
只看该作者 4楼 发表于: 2017-09-16
不错,分享万岁!
离线小李

发帖
238
金钱
1115
威望
9
贡献值
8
交易币
210
只看该作者 5楼 发表于: 2017-09-16
谢谢,听听看. Q@<S[Qh[.  
离线mjdong

发帖
2207
金钱
25897
威望
1360
贡献值
686
交易币
2052
只看该作者 6楼 发表于: 2017-09-17
这单曲到底几个版本
离线linkmj

发帖
77
金钱
26
威望
15
贡献值
14
交易币
136
只看该作者 7楼 发表于: 2017-09-18
支持!收了很多了。
离线lifan_npl

发帖
2196
金钱
31917
威望
851
贡献值
428
交易币
2569
只看该作者 8楼 发表于: 2017-09-21
虽然买不起这张实体CD,但是wav一定要收一个。激动
我的淘宝:
http://shop63152617.taobao.com  
离线123456789

发帖
118
金钱
140
威望
88
贡献值
7
交易币
146
只看该作者 9楼 发表于: 2017-09-25
谢谢 赞.....
快速回复
限100 字节
 
上一个 下一个