论坛风格切换切换到宽版
  • 893阅读
  • 15回复

[亲传][Single] 1992 Jam (US Promo - ESK 74333) - WAV整轨 ♬by幽灵&恶魔心 [复制链接]

上一主题 下一主题
离线mjghosts
 

发帖
8257
金钱
219515
威望
9187
贡献值
2734
交易币
4792
只看楼主 倒序阅读 楼主  发表于: 2017-09-16
— 本帖被 mjghosts 执行加亮操作(2017-09-16) —
感谢论坛会员“恶魔心”抓轨&提供! Q`7!~qV0=  
25l6@7q.  
*92年罕见美版宣传单曲,7曲。 P~#!-9?  
)*G3q/l1u6  
注:独家整理,转载请注明出处!EAC无损整轨(压缩包内含CD图片) j23OgbI  
%\}|&z6  
解压密码:www.mjsunny.com
s C e7ni  
U# -&%|b$  
Tracklist Bo`fy/x#  
1 Jam (7" Edit) 4:03 tW|B\p}  
2 Jam (7" Edit Without Rap) 3:52 RT9fp(6*  
3 Jam (Roger's Jeep Radio Mix) 3:57 K>RL  
4 Jam (Silky 7") 4:17 D?}LKs[  
5 Jam (Club Radio Mix) 3:51 |QAmN> 7U  
6 Jam (Radio Edit) 5:00 x4*8q/G=D  
7 Jam (Radio Edit Without Rap) 4:45
%a5Sc|&-  
S^I38gJd  
2YuaPq/  
`gfK#0x#  
+ywWQ|V  
m(B6FPjr  
Exact Audio Copy V1.2 from 12. August 2016 {EW}Wd  
pm5Yc@D  
EAC 抓取日志文件从17. 八月 2017, 21:09 eFsku8$<  
A javV  
Michael Jackson / Jam [US Promo ESK 74333] 86R}G/>>e  
p&vQ* }  
使用驱动器  :HL-DT-STDVDRAM GT32N   Adapter: 1  ID: 0 E+E5`-V  
bpUN8BI[T  
读取模式      : 可靠Secure ,wRrx&  
使用精确流     : 是 (&njZdcb*  
清空音频缓存    : 否 Bu 6t3  
使用 C2 指示器 : 否 uVp R^  
~PoGuj2wA  
读取偏移校正:               : 103 3FX` dZ  
读取 Lead-In 和 Lead-Out : 否 aQRZyE}  
用静音填充抓取中丢失偏移的采样       : 是 ` -w;=_Bm  
去除首尾静音块               : 否 $&a`zffG  
在CRC 计算中使用了空样本       : 是 r*tGT_/6  
已用接口                  : Win NT 及 2000 本地 Win32 接口 lJU[9)Q_  
,u\M7,a^  
所用输出模式: : 内部 WAV 函数 <X;y 4lPZ  
样本格式    : 44.100 Hz; 16 Bit; 立体声 g4-HUc zk  
YE0s5bB6  
~rKo5#D  
已抓取 CD 的 TOC .CmwR$u&  
Ai /a y# E  
     音轨 |    起始    |    长度    |  起始扇区  |  结束扇区   `U?;9!|;6  
    -------------------------------------------- `Y$LXF~,Om  
      1 |  0:00.00 |  4:13.47 |      0 |  19021 7';PI!$  
      2 |  4:13.47 |  3:55.68 |  19022 |  36714 ~>+}(%<,  
      3 |  8:09.40 |  3:56.40 |  36715 |  54454 K);:+s-  
      4 | 12:06.05 |  4:14.60 |  54455 |  73564 .dl1sv U  
      5 | 16:20.65 |  3:51.70 |  73565 |  90959 q/&Z6LJ)  
      6 | 20:12.60 |  5:02.70 |  90960 | 113679 Ro? 4tGn  
      7 | 25:15.55 |  4:45.35 | 113680 | 135089 VNA VdP  
X0p=jBye~>  
")cdY) 14"  
范围状态及错误 ?][Mv`ST  
t'FY*|xk  
已选择范围 KxK$Y.y]  
G#n27y nh  
     文件名 F:\CDImage.wav b pExYyt  
nv@$'uQRp  
     峰值电平 100.0 % rEs,o3h?po  
     抓取速度 2.9 X 'Pr(7^  
     范围质量 100.0 % d; V  
     复制 CRC 61DDD13D 8H3|^J  
     复制成功 X=mzo\Aos  
]X;Ty\UD&  
没有错误发生 \0'o*nlJ  
j+w*Absh  
KP -g<Zc  
AccurateRip 摘要 & tkkn2t  
?)'j;1_=E3  
音轨  1  精确地校准抓取  1)  [D15642E0]  (AR v1) Ng0V&oDI  
音轨  2  精确地校准抓取  1)  [97CB0910]  (AR v1) U[ u9RB  
音轨  3  精确地校准抓取  1)  [C94C9E5D]  (AR v1) -r_z,h|  
音轨  4  精确地校准抓取  1)  [9B2C2B21]  (AR v1) oJvF)d@gU  
音轨  5  精确地校准抓取  1)  [E7B0C7DC]  (AR v1) i$?i1z*c}  
音轨  6  精确地校准抓取  1)  [B3DD5D7B]  (AR v1) ac p-4g+j  
音轨  7  精确地校准抓取  1)  [BF090855]  (AR v1) bT@3fuL4  
UW8b(b[-6b  
所有音轨精确校准抓取 \=?f4*4|/  
Mmq{]q~At  
状态报告结尾 =1!wep"  
\/p\QT@mm  
---- CUETools DB Plugin V2.1.6 m,K0BL  
/>S=Y"a/7  
[CTDB TOCID: 6Jtf27gtzAJsJhbRhWTUm_FQEGc-] found L5 Rj;qhi  
Submit result: 6Jtf27gtzAJsJhbRhWTUm_FQEGc- has been confirmed oIdMDp^$  
Track | CTDB Status -z)I;R  
  1   | (1/1) Accurately ripped e*;-vS9H  
  2   | (1/1) Accurately ripped ZMQSy7  
  3   | (1/1) Accurately ripped WUkx v*  
  4   | (1/1) Accurately ripped W]{mEB  
  5   | (1/1) Accurately ripped ' \Z54$  
  6   | (1/1) Accurately ripped f8'D{OP"G  
  7   | (1/1) Accurately ripped
|f;u5r!^=  
{SVd='!V  
链接:http://pan.baidu.com/s/1gfnHd79 密码: Ll\y2oJ  
此帖售价 20 金钱,已有 13 人购买 [记录] [购买]
购买后,将显示帖子中所有出售内容。
若发现会员采用欺骗的方法获取财富,请立刻举报,我们会对会员处以2-N倍的罚金,严重者封掉ID!
此段为出售的内容,购买后显示
A q;]al  

发帖
2753
金钱
30915
威望
621
贡献值
38
交易币
410
只看该作者 1楼 发表于: 2017-09-16
劳苦功高 2%{(BT6  

离线mjnet

发帖
381
金钱
30546
威望
104
贡献值
54
交易币
558
只看该作者 2楼 发表于: 2017-09-16
讚....極品
离线131

发帖
1220
金钱
8982
威望
430
贡献值
239
交易币
851
只看该作者 3楼 发表于: 2017-09-16
收收收!~!!!
离线Moses

发帖
5062
金钱
37320
威望
2951
贡献值
1521
交易币
2748
只看该作者 4楼 发表于: 2017-09-16
好像还有1款
http://blog.sina.com.cn/mjjcfc
离线刘123伟

发帖
721
金钱
14727
威望
56
贡献值
15
交易币
782
只看该作者 5楼 发表于: 2017-09-16
可以,666!
离线小李

发帖
240
金钱
1125
威望
9
贡献值
8
交易币
212
只看该作者 6楼 发表于: 2017-09-16
Jam (Atlanta Techno Mix) M5 `m.n<  
Jam (E-Smoove's Jazzy Jam Mix) G h=<0WaF=  
Jam (More Than Enuff Mix) 0 {,h.:  
Jam (Roger's Club Mix) ssT@<Tk^4  
Jam (Roger's Jeep Mix) (M8h y4Ex  
Jam (Roger's Underground Mix) /:KQAM0  
Jam (Silky 12' Mix) 3u4:l  
Jam (Teddy's Jam Mix) &\c5!xQ9*  
Jam (Teddy's Jam Mix #2) 9ClF<5?M  
/0l-mfRr  
仔细听听,很少有JAM的MIX能出以上其右
离线mjdong

发帖
2216
金钱
25808
威望
1360
贡献值
686
交易币
2061
只看该作者 7楼 发表于: 2017-09-17
这单曲封面也不错
离线linkmj

发帖
80
金钱
33
威望
15
贡献值
14
交易币
139
只看该作者 8楼 发表于: 2017-09-18
谢谢
离线xiaoyin258

发帖
262
金钱
4350
威望
22
贡献值
27
交易币
371
只看该作者 9楼 发表于: 2017-09-18
我也给听听哈
快速回复
限100 字节
 
上一个 下一个