论坛风格切换切换到宽版
  • 591阅读
  • 14回复

[亲传][Single] 1992 Jam (US Promo - ESK 74333) - WAV整轨 ♬by幽灵&恶魔心 [复制链接]

上一主题 下一主题
离线mjghosts
 

发帖
8242
金钱
217441
威望
9173
贡献值
2722
交易币
4749
只看楼主 倒序阅读 楼主  发表于: 2017-09-16
— 本帖被 mjghosts 执行加亮操作(2017-09-16) —
感谢论坛会员“恶魔心”抓轨&提供! kid3@  
NldeD2~H  
*92年罕见美版宣传单曲,7曲。 @T0F }(k  
UA>UW!I  
注:独家整理,转载请注明出处!EAC无损整轨(压缩包内含CD图片) d9^ uEz(  
9*pH[vH  
解压密码:www.mjsunny.com
H`odQkZ!  
$$ma1.t"  
Tracklist .aTu]i3l_  
1 Jam (7" Edit) 4:03 JR>#PJ,N-  
2 Jam (7" Edit Without Rap) 3:52 =m]|C1x  
3 Jam (Roger's Jeep Radio Mix) 3:57 VUAW/  
4 Jam (Silky 7") 4:17 >1u!(-A  
5 Jam (Club Radio Mix) 3:51 o,}`4_N||  
6 Jam (Radio Edit) 5:00 X <QSi   
7 Jam (Radio Edit Without Rap) 4:45
H809gm3(Z  
3jH-!M5  
=@BVO @z@  
5MU-Eu|*>  
H$G`e'`OZ  
CG!7BP\  
Exact Audio Copy V1.2 from 12. August 2016 J9buf}C[  
W.67};',  
EAC 抓取日志文件从17. 八月 2017, 21:09 ePD~SO9*  
(j>a?dKDS  
Michael Jackson / Jam [US Promo ESK 74333] @cc4]>4  
r0xmDJ@y  
使用驱动器  :HL-DT-STDVDRAM GT32N   Adapter: 1  ID: 0 u[Ij4h.  
ZjB]pG+  
读取模式      : 可靠Secure _/\U  
使用精确流     : 是 mBtXa|PJ  
清空音频缓存    : 否 x@aWvrL  
使用 C2 指示器 : 否 ORdS|y;:  
LA9'HC(5  
读取偏移校正:               : 103 rYn)E=FG/  
读取 Lead-In 和 Lead-Out : 否 jl)7Jd  
用静音填充抓取中丢失偏移的采样       : 是 EjF2mkA*  
去除首尾静音块               : 否 j8cXv  
在CRC 计算中使用了空样本       : 是 FPC^-mD  
已用接口                  : Win NT 及 2000 本地 Win32 接口 #*~3gMI{=  
V/@7XAt  
所用输出模式: : 内部 WAV 函数 K2@],E?e%|  
样本格式    : 44.100 Hz; 16 Bit; 立体声 d>1cKmH!  
Id<O/C  
u 2%E(pr  
已抓取 CD 的 TOC HU47 S  
h{/lW#[  
     音轨 |    起始    |    长度    |  起始扇区  |  结束扇区   Lz:Q6  
    -------------------------------------------- ,(v=ZeI  
      1 |  0:00.00 |  4:13.47 |      0 |  19021 \}EJtux q  
      2 |  4:13.47 |  3:55.68 |  19022 |  36714 3:?QE  
      3 |  8:09.40 |  3:56.40 |  36715 |  54454 V: P   
      4 | 12:06.05 |  4:14.60 |  54455 |  73564 ~@%#eg  
      5 | 16:20.65 |  3:51.70 |  73565 |  90959 l % 0c{E~  
      6 | 20:12.60 |  5:02.70 |  90960 | 113679 P,*yuF|bk  
      7 | 25:15.55 |  4:45.35 | 113680 | 135089 L5n/eg:Q  
vhz Q.>  
Mp_SL^g|  
范围状态及错误 5z@QAQ  
~4=XYYcka  
已选择范围 6T-iBJT  
my*E7[  
     文件名 F:\CDImage.wav Cg&:+  
XBN,{  
     峰值电平 100.0 % an,JV0  
     抓取速度 2.9 X Pw/$ }Q9X  
     范围质量 100.0 % Vh8RVFi;c  
     复制 CRC 61DDD13D 41^ $  
     复制成功 C0-,<X  
LT6VZ,S  
没有错误发生 e<-^  
% QI6`@Y"  
}(v <f*7=n  
AccurateRip 摘要 Fu"@)xw/-q  
;7bY>zc(w  
音轨  1  精确地校准抓取  1)  [D15642E0]  (AR v1) Ops""#Zi  
音轨  2  精确地校准抓取  1)  [97CB0910]  (AR v1) fhbILg  
音轨  3  精确地校准抓取  1)  [C94C9E5D]  (AR v1) zR_yxs'  
音轨  4  精确地校准抓取  1)  [9B2C2B21]  (AR v1) uW^W/S%'  
音轨  5  精确地校准抓取  1)  [E7B0C7DC]  (AR v1) {p M3f  
音轨  6  精确地校准抓取  1)  [B3DD5D7B]  (AR v1) E K#ib  
音轨  7  精确地校准抓取  1)  [BF090855]  (AR v1) Z=CY6Zu7  
~[9(}UM  
所有音轨精确校准抓取 @AAkEWo)_  
tx{tIw^2;  
状态报告结尾 >"z&KZKI  
Zfn390_  
---- CUETools DB Plugin V2.1.6 >!|(n @  
g&6O*vx  
[CTDB TOCID: 6Jtf27gtzAJsJhbRhWTUm_FQEGc-] found 1WMwTBHy+  
Submit result: 6Jtf27gtzAJsJhbRhWTUm_FQEGc- has been confirmed o4g<[X)  
Track | CTDB Status (" +/ :  
  1   | (1/1) Accurately ripped k(v8zDq*  
  2   | (1/1) Accurately ripped -j 6U{l  
  3   | (1/1) Accurately ripped 6hs2B5)+  
  4   | (1/1) Accurately ripped HLy}ta\  
  5   | (1/1) Accurately ripped a+CHrnU\;  
  6   | (1/1) Accurately ripped &)p/cOiV  
  7   | (1/1) Accurately ripped
wZECG-jr/  
aO]0|<2 j  
链接:http://pan.baidu.com/s/1gfnHd79 密码: qK4E:dD  
此帖售价 20 金钱,已有 12 人购买 [记录] [购买]
购买后,将显示帖子中所有出售内容。
若发现会员采用欺骗的方法获取财富,请立刻举报,我们会对会员处以2-N倍的罚金,严重者封掉ID!
此段为出售的内容,购买后显示
qYW{$K  

发帖
2735
金钱
31355
威望
620
贡献值
37
交易币
388
只看该作者 1楼 发表于: 2017-09-16
劳苦功高 O]~cv^  

离线mjnet

发帖
380
金钱
30479
威望
104
贡献值
54
交易币
557
只看该作者 2楼 发表于: 2017-09-16
讚....極品
离线131

发帖
1200
金钱
9379
威望
430
贡献值
239
交易币
831
只看该作者 3楼 发表于: 2017-09-16
收收收!~!!!
离线Moses

发帖
5060
金钱
37310
威望
2951
贡献值
1521
交易币
2746
只看该作者 4楼 发表于: 2017-09-16
好像还有1款
http://blog.sina.com.cn/mjjcfc
离线刘123伟

发帖
684
金钱
411
威望
54
贡献值
14
交易币
741
只看该作者 5楼 发表于: 2017-09-16
可以,666!
离线小李

发帖
233
金钱
190
威望
99
贡献值
8
交易币
205
只看该作者 6楼 发表于: 2017-09-16
Jam (Atlanta Techno Mix) skfFj&_T  
Jam (E-Smoove's Jazzy Jam Mix) ZD]5"oHY  
Jam (More Than Enuff Mix) G(y@Tor+  
Jam (Roger's Club Mix) GvT'v0&+  
Jam (Roger's Jeep Mix) d[I}+%{[  
Jam (Roger's Underground Mix) -|xyj2M  
Jam (Silky 12' Mix) c>RS~/Y  
Jam (Teddy's Jam Mix) geu8$^  
Jam (Teddy's Jam Mix #2) -kd_gbnr3  
9 &~Rj 9  
仔细听听,很少有JAM的MIX能出以上其右
离线mjdong

发帖
2201
金钱
27102
威望
1360
贡献值
686
交易币
2046
只看该作者 7楼 发表于: 2017-09-17
这单曲封面也不错
离线linkmj

发帖
77
金钱
26
威望
15
贡献值
14
交易币
136
只看该作者 8楼 发表于: 2017-09-18
谢谢
离线xiaoyin258

发帖
222
金钱
5288
威望
17
贡献值
23
交易币
315
只看该作者 9楼 发表于: 2017-09-18
我也给听听哈
快速回复
限100 字节
 
上一个 下一个