论坛风格切换切换到宽版
  • 753阅读
  • 15回复

[亲传][Single] 1992 Jam (US Promo - ESK 74333) - WAV整轨 ♬by幽灵&恶魔心 [复制链接]

上一主题 下一主题
离线mjghosts
 

发帖
8256
金钱
219309
威望
9187
贡献值
2734
交易币
4791
只看楼主 倒序阅读 楼主  发表于: 2017-09-16
— 本帖被 mjghosts 执行加亮操作(2017-09-16) —
感谢论坛会员“恶魔心”抓轨&提供! 6$;)CO!h  
! \Kh\  
*92年罕见美版宣传单曲,7曲。 @Oay$gP{T  
nvs7s0@Fqe  
注:独家整理,转载请注明出处!EAC无损整轨(压缩包内含CD图片) #iU/Yg!  
v0J1%{/xs  
解压密码:www.mjsunny.com
<b40\Z{+  
/;ITnG  
Tracklist &y?B&4|hM  
1 Jam (7" Edit) 4:03 ?P]md9$(+e  
2 Jam (7" Edit Without Rap) 3:52 ]TOY_K8"z#  
3 Jam (Roger's Jeep Radio Mix) 3:57 sVnu Sm  
4 Jam (Silky 7") 4:17 %QbrVl+  
5 Jam (Club Radio Mix) 3:51 X y<KvFy  
6 Jam (Radio Edit) 5:00 #pFybk  
7 Jam (Radio Edit Without Rap) 4:45
y70gNPuTOD  
5xKR ]u  
]x\wP7x  
_ji%BwJ  
1vb0G ;a;|  
_v,n~a}&  
Exact Audio Copy V1.2 from 12. August 2016 (*]Y<ve  
S3f BZIPp  
EAC 抓取日志文件从17. 八月 2017, 21:09 5. i;IOx  
8uiQm;W  
Michael Jackson / Jam [US Promo ESK 74333] q[ZYlF,Ho  
jL$X3QS:  
使用驱动器  :HL-DT-STDVDRAM GT32N   Adapter: 1  ID: 0 g!uhy}  
Y._AzJ&B[  
读取模式      : 可靠Secure Mt`.|N;y!  
使用精确流     : 是 FTe#@\I  
清空音频缓存    : 否 E*vi@aI  
使用 C2 指示器 : 否 %94"e7Hy  
S;~_9i]upe  
读取偏移校正:               : 103  |QdS;  
读取 Lead-In 和 Lead-Out : 否 +W`~bX+  
用静音填充抓取中丢失偏移的采样       : 是 |HLh?AcX  
去除首尾静音块               : 否 c 9@*  
在CRC 计算中使用了空样本       : 是 )U` c9*.  
已用接口                  : Win NT 及 2000 本地 Win32 接口 <V{BRRx  
-_+0[Nb.  
所用输出模式: : 内部 WAV 函数 :gXj( $  
样本格式    : 44.100 Hz; 16 Bit; 立体声 _4+1c5Q!  
u CXd% CzE  
O?_'6T  
已抓取 CD 的 TOC 9 +6"<r!  
SWt"QqBU  
     音轨 |    起始    |    长度    |  起始扇区  |  结束扇区   ^H'#*b0u  
    -------------------------------------------- 2B# \683  
      1 |  0:00.00 |  4:13.47 |      0 |  19021 A<&9   
      2 |  4:13.47 |  3:55.68 |  19022 |  36714 2mRso.Ah  
      3 |  8:09.40 |  3:56.40 |  36715 |  54454 !**q20-aP  
      4 | 12:06.05 |  4:14.60 |  54455 |  73564 *T3"U|0_y  
      5 | 16:20.65 |  3:51.70 |  73565 |  90959 S}<(9@]z  
      6 | 20:12.60 |  5:02.70 |  90960 | 113679 Ur@3_F  
      7 | 25:15.55 |  4:45.35 | 113680 | 135089 {)+/w"^.  
xnArYm  
A /MOY@%G  
范围状态及错误 D4G{= Y}G  
6 -oQs?  
已选择范围 Y9Pb  
_T1e##Sq,  
     文件名 F:\CDImage.wav TS-[p d  
GxBj N7"  
     峰值电平 100.0 % ,yC~{ H  
     抓取速度 2.9 X ka(xU#;  
     范围质量 100.0 % + 7Z%N9  
     复制 CRC 61DDD13D ALG +  
     复制成功 Zy<0'k%U  
3[c54S+(U  
没有错误发生 }\9qN!ol  
hfY2pG9N  
4"GY0) Q  
AccurateRip 摘要 Ft07>E$/Q^  
6pH.sX$!_  
音轨  1  精确地校准抓取  1)  [D15642E0]  (AR v1) H.YntFtD'  
音轨  2  精确地校准抓取  1)  [97CB0910]  (AR v1) 0s(G*D2%6  
音轨  3  精确地校准抓取  1)  [C94C9E5D]  (AR v1) 5nk]{ G> V  
音轨  4  精确地校准抓取  1)  [9B2C2B21]  (AR v1) 5-MI 7I@l  
音轨  5  精确地校准抓取  1)  [E7B0C7DC]  (AR v1) ^JH 4: h  
音轨  6  精确地校准抓取  1)  [B3DD5D7B]  (AR v1) FN G]  
音轨  7  精确地校准抓取  1)  [BF090855]  (AR v1) [z/OY&kF  
&L_(yJ~-  
所有音轨精确校准抓取 Wu:evaZ:i  
R@;kY S  
状态报告结尾 i7iL[+f]Q  
7%C6gU!r  
---- CUETools DB Plugin V2.1.6 Z[ys>\_To  
aCQAh[T  
[CTDB TOCID: 6Jtf27gtzAJsJhbRhWTUm_FQEGc-] found 'v?Z~"w=  
Submit result: 6Jtf27gtzAJsJhbRhWTUm_FQEGc- has been confirmed [V =O$X_  
Track | CTDB Status xM[m(m  
  1   | (1/1) Accurately ripped ^`ny]3JA  
  2   | (1/1) Accurately ripped X"*pt5B6`  
  3   | (1/1) Accurately ripped u`g|u:(r  
  4   | (1/1) Accurately ripped bIR7g(PJ.b  
  5   | (1/1) Accurately ripped %R."  
  6   | (1/1) Accurately ripped ).5$c0`U&  
  7   | (1/1) Accurately ripped
<8~bb- U$  
F8KSB"!NR  
链接:http://pan.baidu.com/s/1gfnHd79 密码: # R}sGT  
此帖售价 20 金钱,已有 13 人购买 [记录] [购买]
购买后,将显示帖子中所有出售内容。
若发现会员采用欺骗的方法获取财富,请立刻举报,我们会对会员处以2-N倍的罚金,严重者封掉ID!
此段为出售的内容,购买后显示
rjz$~(&m6  

发帖
2751
金钱
30829
威望
621
贡献值
38
交易币
408
只看该作者 1楼 发表于: 2017-09-16
劳苦功高 SFJ"(ey$  

离线mjnet

发帖
381
金钱
30548
威望
104
贡献值
54
交易币
558
只看该作者 2楼 发表于: 2017-09-16
讚....極品
离线131

发帖
1217
金钱
8965
威望
430
贡献值
239
交易币
848
只看该作者 3楼 发表于: 2017-09-16
收收收!~!!!
离线Moses

发帖
5062
金钱
37320
威望
2951
贡献值
1521
交易币
2748
只看该作者 4楼 发表于: 2017-09-16
好像还有1款
http://blog.sina.com.cn/mjjcfc
离线刘123伟

发帖
711
金钱
14449
威望
55
贡献值
14
交易币
768
只看该作者 5楼 发表于: 2017-09-16
可以,666!
离线小李

发帖
240
金钱
1125
威望
9
贡献值
8
交易币
212
只看该作者 6楼 发表于: 2017-09-16
Jam (Atlanta Techno Mix) r/L3j0  
Jam (E-Smoove's Jazzy Jam Mix) N[ArwV2O  
Jam (More Than Enuff Mix) # dxlU/*  
Jam (Roger's Club Mix) 4!6g[[| &J  
Jam (Roger's Jeep Mix) rsP-?oD8)  
Jam (Roger's Underground Mix) Dl/UZ@8pl  
Jam (Silky 12' Mix) '7'cKp  
Jam (Teddy's Jam Mix) n*iaNaU"'  
Jam (Teddy's Jam Mix #2) %_SE$>v^  
x)vYc36H  
仔细听听,很少有JAM的MIX能出以上其右
离线mjdong

发帖
2215
金钱
25803
威望
1360
贡献值
686
交易币
2060
只看该作者 7楼 发表于: 2017-09-17
这单曲封面也不错
离线linkmj

发帖
77
金钱
26
威望
15
贡献值
14
交易币
136
只看该作者 8楼 发表于: 2017-09-18
谢谢
离线xiaoyin258

发帖
260
金钱
4340
威望
22
贡献值
27
交易币
369
只看该作者 9楼 发表于: 2017-09-18
我也给听听哈
快速回复
限100 字节
 
上一个 下一个