论坛风格切换切换到宽版
  • 663阅读
  • 15回复

[亲传][Single] 1992 Jam (US Promo - ESK 74333) - WAV整轨 ♬by幽灵&恶魔心 [复制链接]

上一主题 下一主题
离线mjghosts
 

发帖
8251
金钱
218667
威望
9176
贡献值
2723
交易币
4762
只看楼主 倒序阅读 楼主  发表于: 2017-09-16
— 本帖被 mjghosts 执行加亮操作(2017-09-16) —
感谢论坛会员“恶魔心”抓轨&提供!  1k2Ck  
>G' NI?$  
*92年罕见美版宣传单曲,7曲。 s[nOB0  
5ez"B]&T  
注:独家整理,转载请注明出处!EAC无损整轨(压缩包内含CD图片) T fzad2}^  
IAnY+= ^  
解压密码:www.mjsunny.com
XS9k&~)*  
t1Hd-]28V  
Tracklist +/\.%S/  
1 Jam (7" Edit) 4:03 5y=X?hF~)  
2 Jam (7" Edit Without Rap) 3:52 UT+\IzL  
3 Jam (Roger's Jeep Radio Mix) 3:57 #%k5s?cP@  
4 Jam (Silky 7") 4:17 ji A$6dZU  
5 Jam (Club Radio Mix) 3:51 (`3 Bi]7  
6 Jam (Radio Edit) 5:00 tjDVU7um  
7 Jam (Radio Edit Without Rap) 4:45
@#VxjXW^  
eqeVz`  
Zs+6Zd4f  
9!2KpuWji  
px4Z  
S_?}H  
Exact Audio Copy V1.2 from 12. August 2016 ;-*4 (3lu  
~p'/Z@Atu  
EAC 抓取日志文件从17. 八月 2017, 21:09 yc%AkhX*  
aMv  
Michael Jackson / Jam [US Promo ESK 74333] R0. `2=  
>#!n"i;  
使用驱动器  :HL-DT-STDVDRAM GT32N   Adapter: 1  ID: 0 ,{'~J @  
ReSP)%oW  
读取模式      : 可靠Secure O "{o (  
使用精确流     : 是 rB=1*.}FLc  
清空音频缓存    : 否 [c>X Q  
使用 C2 指示器 : 否 -(:BkA  
:&_@U$  
读取偏移校正:               : 103 /3Se*"u  
读取 Lead-In 和 Lead-Out : 否 0Fbq/63  
用静音填充抓取中丢失偏移的采样       : 是 .@B \&U7  
去除首尾静音块               : 否 Bljh'Qp>C  
在CRC 计算中使用了空样本       : 是 nH[@EL  
已用接口                  : Win NT 及 2000 本地 Win32 接口 -$e\m] }Z  
Oh8;YE-%  
所用输出模式: : 内部 WAV 函数 P_b00",S  
样本格式    : 44.100 Hz; 16 Bit; 立体声 \;P Bx &  
-O(.J'=8  
v t(kL(}v  
已抓取 CD 的 TOC t$Qav>D  
*RuUf  
     音轨 |    起始    |    长度    |  起始扇区  |  结束扇区   [dt1%DD`M  
    -------------------------------------------- .5ingB3%  
      1 |  0:00.00 |  4:13.47 |      0 |  19021 > ]6Eb`v  
      2 |  4:13.47 |  3:55.68 |  19022 |  36714 OM, uR3,  
      3 |  8:09.40 |  3:56.40 |  36715 |  54454 )0UQy#r  
      4 | 12:06.05 |  4:14.60 |  54455 |  73564 T[<9Ty'^  
      5 | 16:20.65 |  3:51.70 |  73565 |  90959 #>>-:?X  
      6 | 20:12.60 |  5:02.70 |  90960 | 113679 |@d7o]eM|  
      7 | 25:15.55 |  4:45.35 | 113680 | 135089 :L\@+}{(c  
W6wgX0H  
!FO||z(vb  
范围状态及错误 S{ *RF)  
n{UB^-}5  
已选择范围 a2p<HW;)m  
Lww0LH >  
     文件名 F:\CDImage.wav 1[B?nk  
r[~K m5  
     峰值电平 100.0 % T.&^1qWWA  
     抓取速度 2.9 X se(_`a/4Q  
     范围质量 100.0 % TQnMPELh"  
     复制 CRC 61DDD13D WU}JArX9  
     复制成功 BH%eu 7`t  
oYqlN6n,=6  
没有错误发生 T_I"Tsv  
 !@bN  
% ]  
AccurateRip 摘要 }vc C4 =t/  
ZEHz/Y%  
音轨  1  精确地校准抓取  1)  [D15642E0]  (AR v1) Ym0Xl(Se  
音轨  2  精确地校准抓取  1)  [97CB0910]  (AR v1) mDj:w#q  
音轨  3  精确地校准抓取  1)  [C94C9E5D]  (AR v1) &AlVJEI+  
音轨  4  精确地校准抓取  1)  [9B2C2B21]  (AR v1) Ku&0bXP  
音轨  5  精确地校准抓取  1)  [E7B0C7DC]  (AR v1) S{J$[!F  
音轨  6  精确地校准抓取  1)  [B3DD5D7B]  (AR v1) "1`c^  
音轨  7  精确地校准抓取  1)  [BF090855]  (AR v1) 0}HKmEM  
,R*ru*  
所有音轨精确校准抓取 30[?XVI&  
,?i#NN5p  
状态报告结尾 7uxy<#Ar  
7kG>s9O  
---- CUETools DB Plugin V2.1.6 -Z]?v3 9  
%,>> <8  
[CTDB TOCID: 6Jtf27gtzAJsJhbRhWTUm_FQEGc-] found '{U56^b]  
Submit result: 6Jtf27gtzAJsJhbRhWTUm_FQEGc- has been confirmed Z\O ,9  
Track | CTDB Status g24)GjDi  
  1   | (1/1) Accurately ripped rN} {v}n  
  2   | (1/1) Accurately ripped E}\^GNT  
  3   | (1/1) Accurately ripped S 8h/AW6l  
  4   | (1/1) Accurately ripped bIe>j*VPh@  
  5   | (1/1) Accurately ripped 4d9i AN  
  6   | (1/1) Accurately ripped [0F+t,`  
  7   | (1/1) Accurately ripped
<E6]8SQE  
I+8m1 *  
链接:http://pan.baidu.com/s/1gfnHd79 密码: yq\)8Fe  
此帖售价 20 金钱,已有 13 人购买 [记录] [购买]
购买后,将显示帖子中所有出售内容。
若发现会员采用欺骗的方法获取财富,请立刻举报,我们会对会员处以2-N倍的罚金,严重者封掉ID!
此段为出售的内容,购买后显示
NfS0yQPx  

发帖
2740
金钱
30927
威望
620
贡献值
37
交易币
393
只看该作者 1楼 发表于: 2017-09-16
劳苦功高  L~I<y;x  

离线mjnet

发帖
380
金钱
30579
威望
104
贡献值
54
交易币
557
只看该作者 2楼 发表于: 2017-09-16
讚....極品
离线131

发帖
1208
金钱
9093
威望
430
贡献值
239
交易币
839
只看该作者 3楼 发表于: 2017-09-16
收收收!~!!!
离线Moses

发帖
5062
金钱
37320
威望
2951
贡献值
1521
交易币
2748
只看该作者 4楼 发表于: 2017-09-16
好像还有1款
http://blog.sina.com.cn/mjjcfc
离线刘123伟

发帖
697
金钱
1160
威望
54
贡献值
14
交易币
754
只看该作者 5楼 发表于: 2017-09-16
可以,666!
离线小李

发帖
238
金钱
1115
威望
9
贡献值
8
交易币
210
只看该作者 6楼 发表于: 2017-09-16
Jam (Atlanta Techno Mix) }cl~Vo-mp  
Jam (E-Smoove's Jazzy Jam Mix) km%c0:  
Jam (More Than Enuff Mix) D/& 8[Z/Cn  
Jam (Roger's Club Mix) <o JM||ZA  
Jam (Roger's Jeep Mix) >a6{y   
Jam (Roger's Underground Mix) ;"d>lyL  
Jam (Silky 12' Mix) "4`i]vy8  
Jam (Teddy's Jam Mix) ao+lLCr  
Jam (Teddy's Jam Mix #2) m {dXN=  
xEULV4Qw  
仔细听听,很少有JAM的MIX能出以上其右
离线mjdong

发帖
2207
金钱
25897
威望
1360
贡献值
686
交易币
2052
只看该作者 7楼 发表于: 2017-09-17
这单曲封面也不错
离线linkmj

发帖
77
金钱
26
威望
15
贡献值
14
交易币
136
只看该作者 8楼 发表于: 2017-09-18
谢谢
离线xiaoyin258

发帖
237
金钱
4321
威望
18
贡献值
24
交易币
334
只看该作者 9楼 发表于: 2017-09-18
我也给听听哈
快速回复
限100 字节
 
上一个 下一个