论坛风格切换切换到宽版
  • 486阅读
  • 14回复

[亲传][Single] 1992 Jam (US Promo - ESK 74333) - WAV整轨 ♬by幽灵&恶魔心 [复制链接]

上一主题 下一主题
离线mjghosts
 

发帖
8240
金钱
216437
威望
9172
贡献值
2721
交易币
4743
只看楼主 倒序阅读 楼主  发表于: 2017-09-16
— 本帖被 mjghosts 执行加亮操作(2017-09-16) —
感谢论坛会员“恶魔心”抓轨&提供! fEdp^oVg  
~rUcko8  
*92年罕见美版宣传单曲,7曲。 nY>UYSv  
I"=a:q  
注:独家整理,转载请注明出处!EAC无损整轨(压缩包内含CD图片) 'ie+/O@G  
8_d>=*(  
解压密码:www.mjsunny.com
wWI1%#__|o  
?;bsg 9  
Tracklist aqw;T\GI+~  
1 Jam (7" Edit) 4:03 N wISf  
2 Jam (7" Edit Without Rap) 3:52 \#hp,XV>  
3 Jam (Roger's Jeep Radio Mix) 3:57 X!AD]sK  
4 Jam (Silky 7") 4:17 e8Y;~OAj[  
5 Jam (Club Radio Mix) 3:51 L'@@ewA  
6 Jam (Radio Edit) 5:00 x\R%hGt  
7 Jam (Radio Edit Without Rap) 4:45
79bt%P  
UWPzRk#s"  
;+Mee ^E>!  
:rdnb=n  
VS\+"TPuH  
;&~9k?v7L  
Exact Audio Copy V1.2 from 12. August 2016 4*Y`Pn@  
#sJL"GB  
EAC 抓取日志文件从17. 八月 2017, 21:09 62Q`&n6  
p8bAz  
Michael Jackson / Jam [US Promo ESK 74333] 0\DlzIO  
zYZ^/7)  
使用驱动器  :HL-DT-STDVDRAM GT32N   Adapter: 1  ID: 0 9X ^D(  
1_MaaA;ow"  
读取模式      : 可靠Secure qV&ai{G:  
使用精确流     : 是 skzTw66W.  
清空音频缓存    : 否 a$2 WL g,  
使用 C2 指示器 : 否 LPK[^  
Ks FkC=  
读取偏移校正:               : 103 Ou,Eu05jt'  
读取 Lead-In 和 Lead-Out : 否 eczS(KoL4  
用静音填充抓取中丢失偏移的采样       : 是 j`LvS  
去除首尾静音块               : 否 |\] _u 3  
在CRC 计算中使用了空样本       : 是 [&H?--I  
已用接口                  : Win NT 及 2000 本地 Win32 接口 q A?j-H  
<lFQ4<"m  
所用输出模式: : 内部 WAV 函数 xGVL|/?8  
样本格式    : 44.100 Hz; 16 Bit; 立体声 6z>Zm1h  
s\#eD0|  
'@ C\,E  
已抓取 CD 的 TOC SYZS@o  
'@Q aeFm  
     音轨 |    起始    |    长度    |  起始扇区  |  结束扇区   1XvB,DhJ  
    -------------------------------------------- JkMf+ !  
      1 |  0:00.00 |  4:13.47 |      0 |  19021 KN"V(<!)~  
      2 |  4:13.47 |  3:55.68 |  19022 |  36714 kb>/R/,9  
      3 |  8:09.40 |  3:56.40 |  36715 |  54454 Tfba3+V  
      4 | 12:06.05 |  4:14.60 |  54455 |  73564 (!^(74  
      5 | 16:20.65 |  3:51.70 |  73565 |  90959 Zg@NMT  
      6 | 20:12.60 |  5:02.70 |  90960 | 113679 kN)m"}gX  
      7 | 25:15.55 |  4:45.35 | 113680 | 135089 O)tZ`X;  
u}7#3JfLn  
0O,l rF0'  
范围状态及错误 L##lXUl  
[kyF|3k~  
已选择范围 Q`Q%;%t  
Ew=8"V`C  
     文件名 F:\CDImage.wav ['MG/FKuv  
pr8eRV!x  
     峰值电平 100.0 % cp0@wC#d  
     抓取速度 2.9 X xq2{0q  
     范围质量 100.0 % XHgwK @GU  
     复制 CRC 61DDD13D a W`q  
     复制成功 =h?WT*  
[V~(7U  
没有错误发生 L'LZK  
|*W`}i  
3%Z:B8:<y  
AccurateRip 摘要 &13qlc6  
*Ppb;   
音轨  1  精确地校准抓取  1)  [D15642E0]  (AR v1) n`Pwo &  
音轨  2  精确地校准抓取  1)  [97CB0910]  (AR v1) CM+Nm(|\,  
音轨  3  精确地校准抓取  1)  [C94C9E5D]  (AR v1) U}ei2q\  
音轨  4  精确地校准抓取  1)  [9B2C2B21]  (AR v1) z^z_!@7v   
音轨  5  精确地校准抓取  1)  [E7B0C7DC]  (AR v1) '\8gY((7   
音轨  6  精确地校准抓取  1)  [B3DD5D7B]  (AR v1) ]n9o=^q/  
音轨  7  精确地校准抓取  1)  [BF090855]  (AR v1) oc+TsVt  
$VOSd<87  
所有音轨精确校准抓取 U$+EUDFi3_  
nBw4YDR!  
状态报告结尾 hKVj\88  
FXMrD,qVg  
---- CUETools DB Plugin V2.1.6 %d-|C.  
.nDB{@#  
[CTDB TOCID: 6Jtf27gtzAJsJhbRhWTUm_FQEGc-] found @">^2  
Submit result: 6Jtf27gtzAJsJhbRhWTUm_FQEGc- has been confirmed [;6,lI}  
Track | CTDB Status v_U+wga  
  1   | (1/1) Accurately ripped fkKk/M> 1  
  2   | (1/1) Accurately ripped Bs?B\k=  
  3   | (1/1) Accurately ripped 9):h %o  
  4   | (1/1) Accurately ripped {3)^$F=T  
  5   | (1/1) Accurately ripped _P].Z8  
  6   | (1/1) Accurately ripped n]nb+_-97  
  7   | (1/1) Accurately ripped
-F->l5  
QmiS/`AAv  
链接:http://pan.baidu.com/s/1gfnHd79 密码: \I-bZ|^  
此帖售价 20 金钱,已有 12 人购买 [记录] [购买]
购买后,将显示帖子中所有出售内容。
若发现会员采用欺骗的方法获取财富,请立刻举报,我们会对会员处以2-N倍的罚金,严重者封掉ID!
此段为出售的内容,购买后显示
i3dV2^O  

发帖
2729
金钱
31485
威望
620
贡献值
37
交易币
382
只看该作者 1楼 发表于: 2017-09-16
劳苦功高 OcLFVD=  

离线mjnet

发帖
380
金钱
30469
威望
104
贡献值
54
交易币
557
只看该作者 2楼 发表于: 2017-09-16
讚....極品
离线131

发帖
1195
金钱
9341
威望
430
贡献值
239
交易币
826
只看该作者 3楼 发表于: 2017-09-16
收收收!~!!!
离线Moses

发帖
5059
金钱
37305
威望
2951
贡献值
1521
交易币
2745
只看该作者 4楼 发表于: 2017-09-16
好像还有1款
http://blog.sina.com.cn/mjjcfc
离线刘123伟

发帖
682
金钱
971
威望
54
贡献值
14
交易币
739
只看该作者 5楼 发表于: 2017-09-16
可以,666!
离线小李

发帖
232
金钱
230
威望
99
贡献值
8
交易币
204
只看该作者 6楼 发表于: 2017-09-16
Jam (Atlanta Techno Mix) ;:4&nJ*qG  
Jam (E-Smoove's Jazzy Jam Mix) ikX"f?Q;S2  
Jam (More Than Enuff Mix) 6<u =hhL  
Jam (Roger's Club Mix) $P&{DOiKS  
Jam (Roger's Jeep Mix) &&T\PspM  
Jam (Roger's Underground Mix) "{(|}Cds  
Jam (Silky 12' Mix) Kh&W\\K  
Jam (Teddy's Jam Mix) q)te/J@  
Jam (Teddy's Jam Mix #2) Pt5"q3ec{T  
-UY5T@as  
仔细听听,很少有JAM的MIX能出以上其右
离线mjdong

发帖
2200
金钱
27097
威望
1360
贡献值
686
交易币
2045
只看该作者 7楼 发表于: 2017-09-17
这单曲封面也不错
离线linkmj

发帖
73
金钱
6
威望
15
贡献值
14
交易币
132
只看该作者 8楼 发表于: 2017-09-18
谢谢
离线xiaoyin258

发帖
221
金钱
5303
威望
17
贡献值
23
交易币
314
只看该作者 9楼 发表于: 2017-09-18
我也给听听哈
快速回复
限100 字节
 
上一个 下一个