论坛风格切换切换到宽版
  • 136阅读
  • 7回复

[亲传][Album] 1972 Ben (美首版银圈) (US - 3746351532) - WAV整轨 ♬by幽灵 [复制链接]

上一主题 下一主题
离线mjghosts
 

发帖
8240
金钱
216437
威望
9172
贡献值
2721
交易币
4743
只看楼主 倒序阅读 楼主  发表于: 02-06
— 本帖被 mjghosts 执行加亮操作(2018-02-06) —
*72年的专辑,当时只有LP,至于CD,最早或许就是这张银圈版吧,约为88-89年的产物,珍贵音源,分享给大家!* IueI7A  
;b, bHL  
注:独家整理,转载请注明出处!EAC无损整轨(压缩包内含CD图片) #q?:Act  
ZQ#AEVI,  
解压密码:www.mjsunny.com
m W4tW  
o-]8)G>~M  
Tracklist -kzg(+sm  
1 Ben 2:44 Yb>A?@S  
2 Greatest Show On Earth 2:48 xEe3,tb'e  
3 People Make The World Go 'Round 3:15 4({Wipd  
4 We've Got A Good Thing Going 3:02 0 aiE0b9c  
5 Everybody's Somebody's Fool 2:59 'ewVn1ME[  
6 My Girl 3:08 [ST7CrwC  
7 What Goes Around Comes Around 3:33 YH$whJ`W0  
8 In Our Small Way 3:38 #jR1ti)p  
9 Shoo-Be-Doo-Be-Doo-Da-Day 3:21 |t h"ET  
10 You Can Cry On My Shoulder 2:39
-&_;x&k /  
91j.%#[v'  
q|7$@H^*  
9jTm g%  
K yFR;.F-  
DANndXQLH  
Exact Audio Copy V1.0 beta 6 from 9. April 2015 2w? 5vSv  
AT]Ty  
EAC 抓取日志文件从3. 一月 2018, 1:27 P_3U4J  
v"a.%" oN8  
Michael Jackson / Ben [ O"8Tzr  
[v$NxmRu  
使用驱动器  :MATSHITADVD-RAM UJ890AS   Adapter: 1  ID: 1 <<[hZ$.  
!%{s[eO\  
读取模式      : 可靠Secure _C97G&  
使用精确流     : 是 L/R ES  
清空音频缓存    : 否 t846:Z%[  
使用 C2 指示器 : 是 _ooSMp|  
Qb;5:U/x  
读取偏移校正:               : 102 !bHM:!6^  
读取 Lead-In 和 Lead-Out : 否 .{|AHW&0<  
用静音填充抓取中丢失偏移的采样       : 是 rGe^$!QB  
去除首尾静音块               : 否 +RO=a_AS  
在CRC 计算中使用了空样本       : 是 [[[QBplJ  
已用接口                  : Win NT 及 2000 本地 Win32 接口 jnoFNIW   
p ?HODwZ  
所用输出模式: : 内部 WAV 函数 S %"7`xl  
样本格式    : 44.100 Hz; 16 Bit; 立体声 Wb4%=2Qn  
^/Hj^4~_U  
_OF 8D  
已抓取 CD 的 TOC VmTk4?V4  
KG#|Cq  
     音轨 |    起始    |    长度    |  起始扇区  |  结束扇区   IBVP4&}x$  
    -------------------------------------------- 2597#O  
      1 |  0:00.00 |  2:46.23 |      0 |  12472 Y@.> eS  
      2 |  2:46.23 |  2:50.65 |  12473 |  25287 1&YP}sg)  
      3 |  5:37.13 |  3:16.37 |  25288 |  40024 RpLm'~N'  
      4 |  8:53.50 |  3:05.43 |  40025 |  53942 xDr *|d  
      5 | 11:59.18 |  3:01.17 |  53943 |  67534 n?,fF(  
      6 | 15:00.35 |  3:10.45 |  67535 |  81829 uR"]w7=  
      7 | 18:11.05 |  3:34.18 |  81830 |  97897 1*-58N*  
      8 | 21:45.23 |  3:40.42 |  97898 | 114439 fQx 4/4j  
      9 | 25:25.65 |  3:22.48 | 114440 | 129637 Ar'5kPzY>  
     10 | 28:48.38 |  2:39.20 | 129638 | 141582 hcaH   
rfPJBD{Ve  
YT:5J%"  
范围状态及错误 etDB|(,z  
uw<Ruy  
已选择范围 tIvtiN6[|l  
`H|g~7KD&  
     文件名 H:\12 Music*音乐\[WAV] Michael Jackson Audios\CDImage.wav FQ4rA 4  
2Vi[qS^  
     峰值电平 100.0 % lubS{3<  
     抓取速度 5.5 X oy |@m|J  
     范围质量 99.9 % BxG;vS3>*e  
     复制 CRC F674143D 9PBmBP ~  
     复制成功 <*\J 6:^n  
f0uiNy(r$  
没有错误发生 a"zoDD/  
~DD/\V  
I5~DC  
AccurateRip 摘要 x<l1s  
anvj{1  
音轨  1  不能准确地校验 (确认 3)  [3DA149FB], 返回 AccurateRip [243385B6]  (AR v2) "OPUGwf  
音轨  2  不能准确地校验 (确认 3)  [36DAB86B], 返回 AccurateRip [1161EE8F]  (AR v2) dd$N4&  
音轨  3  不能准确地校验 (确认 3)  [6EA0045C], 返回 AccurateRip [1094A8ED]  (AR v2) Vo%d;>!G\;  
音轨  4  不能准确地校验 (确认 3)  [A9D5A599], 返回 AccurateRip [7816F5FA]  (AR v2) HZ}*o%O  
音轨  5  不能准确地校验 (确认 3)  [5F5E15AB], 返回 AccurateRip [E3044EBF]  (AR v2) 9<#D0hh$  
音轨  6  不能准确地校验 (确认 3)  [5EF586B3], 返回 AccurateRip [2A22A0C5]  (AR v2) +[ItkfSod!  
音轨  7  不能准确地校验 (确认 3)  [29F46E44], 返回 AccurateRip [AFF4CB87]  (AR v2) @>Keu\)  
音轨  8  不能准确地校验 (确认 3)  [483C184A], 返回 AccurateRip [49A5A0A2]  (AR v2) -?W@-*J  
音轨  9  不能准确地校验 (确认 3)  [FF3AE073], 返回 AccurateRip [B66AA1DE]  (AR v2) aW"!bAdx`,  
音轨 10  不能准确地校验 (确认 3)  [956F14F6], 返回 AccurateRip [176AF681]  (AR v2) qx)k1QY  
o!~bR  
没有音轨被准确核实 6<Z: Xw  
你的版本可能与数据库的版本不同 0Mg8{  
H |UL5<:]D  
状态报告结尾
=[JN'|Q+  
U*Qq5=dqD  
链接:https://pan.baidu.com/s/1jJa7W5C 密码: s.`d<(X?  
此帖售价 15 金钱,已有 5 人购买 [记录] [购买]
购买后,将显示帖子中所有出售内容。
若发现会员采用欺骗的方法获取财富,请立刻举报,我们会对会员处以2-N倍的罚金,严重者封掉ID!
此段为出售的内容,购买后显示
aMQjoamz  
离线mjlove98

发帖
2520
金钱
5968
威望
196
贡献值
122
交易币
2594
只看该作者 1楼 发表于: 02-06
Re:[Album] 1972 Ben (美首版银圈) (US - 3746351532) - WAV整轨 ?by幽灵
感谢楼主了

发帖
2729
金钱
31485
威望
620
贡献值
37
交易币
382
只看该作者 2楼 发表于: 02-07
经典经典

离线刘123伟

发帖
682
金钱
971
威望
54
贡献值
14
交易币
739
只看该作者 3楼 发表于: 02-09
节前快乐!好碟!!!
离线三分寰宇

发帖
70
金钱
97
威望
11
贡献值
1
交易币
21
只看该作者 4楼 发表于: 02-09
给力的楼主!!!
离线mjnet

发帖
380
金钱
30469
威望
104
贡献值
54
交易币
557
只看该作者 5楼 发表于: 02-10
thank you!!!!
离线妙脚踹人

发帖
2
金钱
12
威望
1
贡献值
0
交易币
3
只看该作者 6楼 发表于: 02-10
谢谢分享
离线天地若龙

发帖
171
金钱
170
威望
36
贡献值
5
交易币
192
只看该作者 7楼 发表于: 02-13
感谢~! od IV:(  
MJ早期作品都挺罕见的
快速回复
限100 字节
 
上一个 下一个