论坛风格切换切换到宽版
  • 233阅读
  • 9回复

[亲传][Album] 1972 Ben (美首版银圈) (US - 3746351532) - WAV整轨 ♬by幽灵 [复制链接]

上一主题 下一主题
离线mjghosts
 

发帖
8242
金钱
217431
威望
9173
贡献值
2722
交易币
4749
只看楼主 倒序阅读 楼主  发表于: 02-06
— 本帖被 mjghosts 执行加亮操作(2018-02-06) —
*72年的专辑,当时只有LP,至于CD,最早或许就是这张银圈版吧,约为88-89年的产物,珍贵音源,分享给大家!* A}4t9|/K6  
@W)/\AZ3  
注:独家整理,转载请注明出处!EAC无损整轨(压缩包内含CD图片) z[biK|YL  
4 m $sJ  
解压密码:www.mjsunny.com
 V.fp/jhj  
UFk!dK+  
Tracklist x!`KhTu`_A  
1 Ben 2:44 $$~a=q,P[  
2 Greatest Show On Earth 2:48 e9}8RHy1$  
3 People Make The World Go 'Round 3:15 :OX$LCi  
4 We've Got A Good Thing Going 3:02 )ZeLaaP  
5 Everybody's Somebody's Fool 2:59 mMslWe  
6 My Girl 3:08 pbFYiu+  
7 What Goes Around Comes Around 3:33 "C& Jwm?  
8 In Our Small Way 3:38 wyNC|P;j$g  
9 Shoo-Be-Doo-Be-Doo-Da-Day 3:21 srhFEmgN7)  
10 You Can Cry On My Shoulder 2:39
aDXpkG0E  
y>%W;r)  
+&(J n  
M&eQ=vew.  
8u/3?Kc  
D\n>*x  
Exact Audio Copy V1.0 beta 6 from 9. April 2015 Q3(hK<Qh;  
eB)UXOu1  
EAC 抓取日志文件从3. 一月 2018, 1:27 58qaA\iw  
11PLH0  
Michael Jackson / Ben jn0t-":  
1!K !oY  
使用驱动器  :MATSHITADVD-RAM UJ890AS   Adapter: 1  ID: 1 Dh*~U :6$g  
l=Vowx.$2f  
读取模式      : 可靠Secure s?4%<jz  
使用精确流     : 是 KfJ c  
清空音频缓存    : 否 wFKuSd  
使用 C2 指示器 : 是 `?Y_0Nh>  
f(@"[-[  
读取偏移校正:               : 102 b |o`Q7Hj  
读取 Lead-In 和 Lead-Out : 否 /)eNx  
用静音填充抓取中丢失偏移的采样       : 是 l,^i5t'  
去除首尾静音块               : 否 aHVdClD2o  
在CRC 计算中使用了空样本       : 是 76u/WC>B  
已用接口                  : Win NT 及 2000 本地 Win32 接口 D:RBq\8  
\r1kbf7?  
所用输出模式: : 内部 WAV 函数 b0zxT9  
样本格式    : 44.100 Hz; 16 Bit; 立体声 8R??J>h5\  
95gsv\2  
4, *^QK  
已抓取 CD 的 TOC 8y 4D9_{  
!>Qc2&ZV  
     音轨 |    起始    |    长度    |  起始扇区  |  结束扇区   'Kso@St`o  
    -------------------------------------------- fO|~Oz<S  
      1 |  0:00.00 |  2:46.23 |      0 |  12472 %3l;bR>  
      2 |  2:46.23 |  2:50.65 |  12473 |  25287 f;tyoN0wHx  
      3 |  5:37.13 |  3:16.37 |  25288 |  40024 PVkN3J  
      4 |  8:53.50 |  3:05.43 |  40025 |  53942 8$<AxNR  
      5 | 11:59.18 |  3:01.17 |  53943 |  67534 `2mbF ^-4  
      6 | 15:00.35 |  3:10.45 |  67535 |  81829 k'I_,Z<,  
      7 | 18:11.05 |  3:34.18 |  81830 |  97897 =@jMx^A"  
      8 | 21:45.23 |  3:40.42 |  97898 | 114439 ~j&:)a'^  
      9 | 25:25.65 |  3:22.48 | 114440 | 129637 v.LUK  
     10 | 28:48.38 |  2:39.20 | 129638 | 141582 1DlcO>#@  
PUZXmnB  
\y )4`A  
范围状态及错误 ]|La MMD  
cYwC,\ uF  
已选择范围 yqb <<4I  
Qp{-!*  
     文件名 H:\12 Music*音乐\[WAV] Michael Jackson Audios\CDImage.wav 8Gg/M%wq9U  
+M]8_kE=+l  
     峰值电平 100.0 % JIKxY$GS  
     抓取速度 5.5 X \ J:T]  
     范围质量 99.9 % to|9)\  
     复制 CRC F674143D j"u)/A8*  
     复制成功 GFa/9Bi  
"[S 6w  
没有错误发生 9ufs6 z  
Z|S7 " ,  
~'.yhPo g  
AccurateRip 摘要 (+ anTA=  
1W<_5 j_  
音轨  1  不能准确地校验 (确认 3)  [3DA149FB], 返回 AccurateRip [243385B6]  (AR v2) $i>VI  
音轨  2  不能准确地校验 (确认 3)  [36DAB86B], 返回 AccurateRip [1161EE8F]  (AR v2) beZ| i 1:  
音轨  3  不能准确地校验 (确认 3)  [6EA0045C], 返回 AccurateRip [1094A8ED]  (AR v2) Yb{t!KL  
音轨  4  不能准确地校验 (确认 3)  [A9D5A599], 返回 AccurateRip [7816F5FA]  (AR v2) bR,Iq}p  
音轨  5  不能准确地校验 (确认 3)  [5F5E15AB], 返回 AccurateRip [E3044EBF]  (AR v2) c (8J  
音轨  6  不能准确地校验 (确认 3)  [5EF586B3], 返回 AccurateRip [2A22A0C5]  (AR v2) AB\4+ CLV  
音轨  7  不能准确地校验 (确认 3)  [29F46E44], 返回 AccurateRip [AFF4CB87]  (AR v2) E/']M~Q  
音轨  8  不能准确地校验 (确认 3)  [483C184A], 返回 AccurateRip [49A5A0A2]  (AR v2) q Db}b d5  
音轨  9  不能准确地校验 (确认 3)  [FF3AE073], 返回 AccurateRip [B66AA1DE]  (AR v2) _I4sy=tYXK  
音轨 10  不能准确地校验 (确认 3)  [956F14F6], 返回 AccurateRip [176AF681]  (AR v2) ),,vu  
B4aZ3.&W  
没有音轨被准确核实 K^ \9R  
你的版本可能与数据库的版本不同 Shz;)0To  
7!%"8Rl-  
状态报告结尾
 <@u6*]  
hgGcUpJy?  
链接:https://pan.baidu.com/s/1jJa7W5C 密码: 7ow1=%Q  
此帖售价 15 金钱,已有 6 人购买 [记录] [购买]
购买后,将显示帖子中所有出售内容。
若发现会员采用欺骗的方法获取财富,请立刻举报,我们会对会员处以2-N倍的罚金,严重者封掉ID!
此段为出售的内容,购买后显示
Sdp1h0E}7=  
离线mjlove98

发帖
2545
金钱
5654
威望
196
贡献值
122
交易币
2619
只看该作者 1楼 发表于: 02-06
Re:[Album] 1972 Ben (美首版银圈) (US - 3746351532) - WAV整轨 ?by幽灵
感谢楼主了

发帖
2735
金钱
31355
威望
620
贡献值
37
交易币
388
只看该作者 2楼 发表于: 02-07
经典经典

离线刘123伟

发帖
684
金钱
406
威望
54
贡献值
14
交易币
741
只看该作者 3楼 发表于: 02-09
节前快乐!好碟!!!
离线三分寰宇

发帖
70
金钱
97
威望
11
贡献值
1
交易币
21
只看该作者 4楼 发表于: 02-09
给力的楼主!!!
离线mjnet

发帖
380
金钱
30479
威望
104
贡献值
54
交易币
557
只看该作者 5楼 发表于: 02-10
thank you!!!!
离线妙脚踹人

发帖
6
金钱
45
威望
2
贡献值
1
交易币
11
只看该作者 6楼 发表于: 02-10
谢谢分享
离线天地若龙

发帖
175
金钱
190
威望
36
贡献值
5
交易币
196
只看该作者 7楼 发表于: 02-13
感谢~! `VB]4i}u  
MJ早期作品都挺罕见的
离线lifan_npl

发帖
2185
金钱
16546
威望
783
贡献值
348
交易币
2542
只看该作者 8楼 发表于: 02-23
有一点意思  收藏一个
我的淘宝:
http://shop63152617.taobao.com  
离线linkmj

发帖
77
金钱
26
威望
15
贡献值
14
交易币
136
只看该作者 9楼 发表于: 02-23
很棒啊!!!
快速回复
限100 字节
 
上一个 下一个