论坛风格切换切换到宽版
  • 152阅读
  • 9回复

[亲传][Album] 1972 Ben (美首版银圈) (US - 3746351532) - WAV整轨 ♬by幽灵 [复制链接]

上一主题 下一主题
离线mjghosts
 

发帖
8240
金钱
216674
威望
9172
贡献值
2721
交易币
4743
只看楼主 倒序阅读 楼主  发表于: 02-06
— 本帖被 mjghosts 执行加亮操作(2018-02-06) —
*72年的专辑,当时只有LP,至于CD,最早或许就是这张银圈版吧,约为88-89年的产物,珍贵音源,分享给大家!* << ;HY}s  
y3cf[Q  
注:独家整理,转载请注明出处!EAC无损整轨(压缩包内含CD图片) Z<ajET`)  
%h"qMs S  
解压密码:www.mjsunny.com
?AnjD8i  
\6lh `U  
Tracklist <8rgtu!VU  
1 Ben 2:44 Z6Nj<2u2  
2 Greatest Show On Earth 2:48 6x_ T@  
3 People Make The World Go 'Round 3:15 IV{FH&t^T"  
4 We've Got A Good Thing Going 3:02 *me,(C  
5 Everybody's Somebody's Fool 2:59 2wx!Lpr<i_  
6 My Girl 3:08 #(%t*"IY;  
7 What Goes Around Comes Around 3:33 Bx(yu'g|a  
8 In Our Small Way 3:38 V: ^JC>6  
9 Shoo-Be-Doo-Be-Doo-Da-Day 3:21 2B7h9P.NB  
10 You Can Cry On My Shoulder 2:39
L@w0N)P<!{  
$ye^uu;Z  
ezp<@'0ZT  
lDo(@nM  
1h2H1gy5I3  
l '/N3&5  
Exact Audio Copy V1.0 beta 6 from 9. April 2015 [4p=X=B  
'Q5&5UrBr  
EAC 抓取日志文件从3. 一月 2018, 1:27 sxo;/~.p  
*8PN!^  
Michael Jackson / Ben 22>;vM."  
2JVxzj<~`  
使用驱动器  :MATSHITADVD-RAM UJ890AS   Adapter: 1  ID: 1 6UlF5pom  
Lj8)' [K"  
读取模式      : 可靠Secure ,)zt AFn=  
使用精确流     : 是 |g<*Rk0  
清空音频缓存    : 否 \gItZ}+c4}  
使用 C2 指示器 : 是 2+.18"rvi  
>.<ooWw  
读取偏移校正:               : 102 FRZs[\I|iT  
读取 Lead-In 和 Lead-Out : 否 gcf6\f}\<  
用静音填充抓取中丢失偏移的采样       : 是 >$H|:{D  
去除首尾静音块               : 否 /(?@mnq_  
在CRC 计算中使用了空样本       : 是 Kesy2mE  
已用接口                  : Win NT 及 2000 本地 Win32 接口 y&oNv xG-  
@hif$  
所用输出模式: : 内部 WAV 函数 !kL> ,O>/  
样本格式    : 44.100 Hz; 16 Bit; 立体声 *5V Xyt2  
3y A2WW  
|Au]1}  
已抓取 CD 的 TOC }uY!(4Rw  
v jT( Q  
     音轨 |    起始    |    长度    |  起始扇区  |  结束扇区   beXNrf=bG  
    -------------------------------------------- -&2B@]]  
      1 |  0:00.00 |  2:46.23 |      0 |  12472 GV.A+u  
      2 |  2:46.23 |  2:50.65 |  12473 |  25287 qk/:A+  
      3 |  5:37.13 |  3:16.37 |  25288 |  40024 :9t4s#.  
      4 |  8:53.50 |  3:05.43 |  40025 |  53942 ,XkGe   
      5 | 11:59.18 |  3:01.17 |  53943 |  67534 Dnf*7)X  
      6 | 15:00.35 |  3:10.45 |  67535 |  81829 cD|Htt"  
      7 | 18:11.05 |  3:34.18 |  81830 |  97897 tCG76LH  
      8 | 21:45.23 |  3:40.42 |  97898 | 114439 `Z"Q^  
      9 | 25:25.65 |  3:22.48 | 114440 | 129637 J (4"S o_  
     10 | 28:48.38 |  2:39.20 | 129638 | 141582 Fs_]RfG  
yXI >I  
dovZ#D@Q  
范围状态及错误 ;W>Cqg=  
$$b 9&mTl#  
已选择范围 o8e?J\?  
FR2= las"z  
     文件名 H:\12 Music*音乐\[WAV] Michael Jackson Audios\CDImage.wav qTZFPfyU  
!EUan  
     峰值电平 100.0 % F}Vr:~  
     抓取速度 5.5 X O G<,- 7  
     范围质量 99.9 % jZ NOt  
     复制 CRC F674143D ca+5=+X7  
     复制成功 jKt7M>P  
}&_/PA0j  
没有错误发生 lNSLs"x^  
j?'GZ d"B  
1GzAG;UUo6  
AccurateRip 摘要 g+z1  
O({2ivX  
音轨  1  不能准确地校验 (确认 3)  [3DA149FB], 返回 AccurateRip [243385B6]  (AR v2) =>-Rnc@  
音轨  2  不能准确地校验 (确认 3)  [36DAB86B], 返回 AccurateRip [1161EE8F]  (AR v2) B {>7-0  
音轨  3  不能准确地校验 (确认 3)  [6EA0045C], 返回 AccurateRip [1094A8ED]  (AR v2) z<Nfm  
音轨  4  不能准确地校验 (确认 3)  [A9D5A599], 返回 AccurateRip [7816F5FA]  (AR v2) ui?  
音轨  5  不能准确地校验 (确认 3)  [5F5E15AB], 返回 AccurateRip [E3044EBF]  (AR v2) |:gf lseE  
音轨  6  不能准确地校验 (确认 3)  [5EF586B3], 返回 AccurateRip [2A22A0C5]  (AR v2) FYpzQ6s~  
音轨  7  不能准确地校验 (确认 3)  [29F46E44], 返回 AccurateRip [AFF4CB87]  (AR v2) K|epPGRr  
音轨  8  不能准确地校验 (确认 3)  [483C184A], 返回 AccurateRip [49A5A0A2]  (AR v2) vw9@v`k  
音轨  9  不能准确地校验 (确认 3)  [FF3AE073], 返回 AccurateRip [B66AA1DE]  (AR v2) K|[*t~59  
音轨 10  不能准确地校验 (确认 3)  [956F14F6], 返回 AccurateRip [176AF681]  (AR v2) $| @ (  
eceP0x  
没有音轨被准确核实 7fZDs j:  
你的版本可能与数据库的版本不同 asppRL||  
3EPv"f^V  
状态报告结尾
3[Qxd{8r  
I 7{T  
链接:https://pan.baidu.com/s/1jJa7W5C 密码: <Z mg#  
此帖售价 15 金钱,已有 6 人购买 [记录] [购买]
购买后,将显示帖子中所有出售内容。
若发现会员采用欺骗的方法获取财富,请立刻举报,我们会对会员处以2-N倍的罚金,严重者封掉ID!
此段为出售的内容,购买后显示
Rl?_^dPx  
离线mjlove98

发帖
2520
金钱
5968
威望
196
贡献值
122
交易币
2594
只看该作者 1楼 发表于: 02-06
Re:[Album] 1972 Ben (美首版银圈) (US - 3746351532) - WAV整轨 ?by幽灵
感谢楼主了

发帖
2729
金钱
31485
威望
620
贡献值
37
交易币
382
只看该作者 2楼 发表于: 02-07
经典经典

离线刘123伟

发帖
682
金钱
981
威望
54
贡献值
14
交易币
739
只看该作者 3楼 发表于: 02-09
节前快乐!好碟!!!
离线三分寰宇

发帖
70
金钱
97
威望
11
贡献值
1
交易币
21
只看该作者 4楼 发表于: 02-09
给力的楼主!!!
离线mjnet

发帖
380
金钱
30469
威望
104
贡献值
54
交易币
557
只看该作者 5楼 发表于: 02-10
thank you!!!!
离线妙脚踹人

发帖
6
金钱
45
威望
2
贡献值
1
交易币
11
只看该作者 6楼 发表于: 02-10
谢谢分享
离线天地若龙

发帖
172
金钱
175
威望
36
贡献值
5
交易币
193
只看该作者 7楼 发表于: 02-13
感谢~! )uIe&B  
MJ早期作品都挺罕见的
离线lifan_npl

发帖
2178
金钱
16636
威望
782
贡献值
347
交易币
2531
只看该作者 8楼 发表于: 前天 16:55
有一点意思  收藏一个
我的淘宝:
http://shop63152617.taobao.com  
离线linkmj

发帖
77
金钱
26
威望
15
贡献值
14
交易币
136
只看该作者 9楼 发表于: 前天 21:28
很棒啊!!!
快速回复
限100 字节
 
上一个 下一个