论坛风格切换切换到宽版
  • 588阅读
  • 12回复

[亲传][Album] 1972 Ben (美首版银圈) (US - 3746351532) - WAV整轨 ♬by幽灵 [复制链接]

上一主题 下一主题
离线mjghosts
 

发帖
8257
金钱
219515
威望
9187
贡献值
2734
交易币
4792
只看楼主 倒序阅读 楼主  发表于: 2018-02-06
— 本帖被 mjghosts 执行加亮操作(2018-02-06) —
*72年的专辑,当时只有LP,至于CD,最早或许就是这张银圈版吧,约为88-89年的产物,珍贵音源,分享给大家!* IMLsQit*  
"4xfrlOc  
注:独家整理,转载请注明出处!EAC无损整轨(压缩包内含CD图片) Q5+_u/  
@ GDX7TPV  
解压密码:www.mjsunny.com
">jwh.  
`k{& /]  
Tracklist j ) vlM+  
1 Ben 2:44 %"$@%"8;3  
2 Greatest Show On Earth 2:48 bha?eN  
3 People Make The World Go 'Round 3:15 C 'mL&  
4 We've Got A Good Thing Going 3:02 in%;Eqk  
5 Everybody's Somebody's Fool 2:59 D%/8{b:  
6 My Girl 3:08 ~4,I7c7  
7 What Goes Around Comes Around 3:33 Bstk{&ew  
8 In Our Small Way 3:38 ,K9f_bv  
9 Shoo-Be-Doo-Be-Doo-Da-Day 3:21 7YIK9edP  
10 You Can Cry On My Shoulder 2:39
d4^`}6@  
f>Td)s1 M  
qB6dFl\ (  
i^Ut015q%  
;]D(33) (  
"u^EleE!  
Exact Audio Copy V1.0 beta 6 from 9. April 2015 *b(wVvz  
qc-,+sn(  
EAC 抓取日志文件从3. 一月 2018, 1:27 w_-+o^  
?r_kyuU  
Michael Jackson / Ben f4t.f*#  
Z| 6{T  
使用驱动器  :MATSHITADVD-RAM UJ890AS   Adapter: 1  ID: 1 ]?l{j  
:- +4:S  
读取模式      : 可靠Secure X T>('qy  
使用精确流     : 是 Iin#Wd-/  
清空音频缓存    : 否 RVM&4#E  
使用 C2 指示器 : 是 e<+<lj "  
7Ua7A  
读取偏移校正:               : 102 a|qsQ'1,;  
读取 Lead-In 和 Lead-Out : 否 .XH8YT42  
用静音填充抓取中丢失偏移的采样       : 是 wyQb5n2`;~  
去除首尾静音块               : 否 v<h;Di@  
在CRC 计算中使用了空样本       : 是 O.\h'3C  
已用接口                  : Win NT 及 2000 本地 Win32 接口  H!eh J$[  
L,M+sN  
所用输出模式: : 内部 WAV 函数 sBjXE>_#)  
样本格式    : 44.100 Hz; 16 Bit; 立体声 )/Y~6A9>  
n<R \w''x  
azGn P3_  
已抓取 CD 的 TOC sR79 K1*j  
vInFo.e[4  
     音轨 |    起始    |    长度    |  起始扇区  |  结束扇区   l%PnB )F  
    -------------------------------------------- P9yw&A  
      1 |  0:00.00 |  2:46.23 |      0 |  12472 ,"H?hFQ  
      2 |  2:46.23 |  2:50.65 |  12473 |  25287 ;,`]O!G:P  
      3 |  5:37.13 |  3:16.37 |  25288 |  40024 :uvc\|:s  
      4 |  8:53.50 |  3:05.43 |  40025 |  53942 qw0~ *0}  
      5 | 11:59.18 |  3:01.17 |  53943 |  67534  2}!R T  
      6 | 15:00.35 |  3:10.45 |  67535 |  81829 .f%vDBJS  
      7 | 18:11.05 |  3:34.18 |  81830 |  97897 Ou!)1UFI  
      8 | 21:45.23 |  3:40.42 |  97898 | 114439 =W |vOfy  
      9 | 25:25.65 |  3:22.48 | 114440 | 129637 X&,N}9>B  
     10 | 28:48.38 |  2:39.20 | 129638 | 141582 L:^Y@[f  
l`qP~ k#  
d(\1 } l  
范围状态及错误 e00RT1L  
pBvo M={2!  
已选择范围 "LXXs0  
C\J@fpH(t`  
     文件名 H:\12 Music*音乐\[WAV] Michael Jackson Audios\CDImage.wav LuLy6]6D;  
& 8zk3  
     峰值电平 100.0 % KqFmFcf|  
     抓取速度 5.5 X 1o(+rR<h9  
     范围质量 99.9 % ozT._ C  
     复制 CRC F674143D 4;08n|C  
     复制成功 "sC$%D<oc  
[ e$]pN%  
没有错误发生 g8C+1G8  
1 OuSH+  
N;%j#(v j  
AccurateRip 摘要 ,"4X&>_f  
89 _&X[X  
音轨  1  不能准确地校验 (确认 3)  [3DA149FB], 返回 AccurateRip [243385B6]  (AR v2) bvt-leA=  
音轨  2  不能准确地校验 (确认 3)  [36DAB86B], 返回 AccurateRip [1161EE8F]  (AR v2) yTMGISX5  
音轨  3  不能准确地校验 (确认 3)  [6EA0045C], 返回 AccurateRip [1094A8ED]  (AR v2) #$9U=^Z[  
音轨  4  不能准确地校验 (确认 3)  [A9D5A599], 返回 AccurateRip [7816F5FA]  (AR v2) Xmw2$MCB  
音轨  5  不能准确地校验 (确认 3)  [5F5E15AB], 返回 AccurateRip [E3044EBF]  (AR v2) G5C#i7cpm  
音轨  6  不能准确地校验 (确认 3)  [5EF586B3], 返回 AccurateRip [2A22A0C5]  (AR v2) y"{UN M|R  
音轨  7  不能准确地校验 (确认 3)  [29F46E44], 返回 AccurateRip [AFF4CB87]  (AR v2) {RWahnr{  
音轨  8  不能准确地校验 (确认 3)  [483C184A], 返回 AccurateRip [49A5A0A2]  (AR v2) 2g`uC}  
音轨  9  不能准确地校验 (确认 3)  [FF3AE073], 返回 AccurateRip [B66AA1DE]  (AR v2) mAtG&my)  
音轨 10  不能准确地校验 (确认 3)  [956F14F6], 返回 AccurateRip [176AF681]  (AR v2) s`dkEaS  
*AJezhR  
没有音轨被准确核实 %E=,H?9&>  
你的版本可能与数据库的版本不同 (,Zz&3 AV  
n$Oky-P"  
状态报告结尾
+P<w<GfQ  
:7AauoI  
链接:https://pan.baidu.com/s/1jJa7W5C 密码: IDVY2`sM  
此帖售价 15 金钱,已有 9 人购买 [记录] [购买]
购买后,将显示帖子中所有出售内容。
若发现会员采用欺骗的方法获取财富,请立刻举报,我们会对会员处以2-N倍的罚金,严重者封掉ID!
此段为出售的内容,购买后显示
0OoO cc  
离线mjlove98

发帖
2585
金钱
4080
威望
197
贡献值
123
交易币
2663
只看该作者 1楼 发表于: 2018-02-06
Re:[Album] 1972 Ben (美首版银圈) (US - 3746351532) - WAV整轨 ?by幽灵
感谢楼主了

发帖
2753
金钱
30915
威望
621
贡献值
38
交易币
410
只看该作者 2楼 发表于: 2018-02-07
经典经典

离线刘123伟

发帖
721
金钱
14727
威望
56
贡献值
15
交易币
782
只看该作者 3楼 发表于: 2018-02-09
节前快乐!好碟!!!
离线三分寰宇

发帖
74
金钱
67
威望
11
贡献值
1
交易币
25
只看该作者 4楼 发表于: 2018-02-09
给力的楼主!!!
离线mjnet

发帖
381
金钱
30546
威望
104
贡献值
54
交易币
558
只看该作者 5楼 发表于: 2018-02-10
thank you!!!!
离线妙脚踹人

发帖
6
金钱
45
威望
2
贡献值
1
交易币
11
只看该作者 6楼 发表于: 2018-02-10
谢谢分享
离线天地若龙

发帖
175
金钱
190
威望
36
贡献值
5
交易币
196
只看该作者 7楼 发表于: 2018-02-13
感谢~! MwmUgN"g  
MJ早期作品都挺罕见的
离线lifan_npl

发帖
2213
金钱
31997
威望
853
贡献值
430
交易币
2594
只看该作者 8楼 发表于: 2018-02-23
有一点意思  收藏一个
我的淘宝店:
http://shop63152617.taobao.com  
离线linkmj

发帖
80
金钱
33
威望
15
贡献值
14
交易币
139
只看该作者 9楼 发表于: 2018-02-23
很棒啊!!!
快速回复
限100 字节
 
上一个 下一个