论坛风格切换切换到宽版
  • 416阅读
  • 12回复

[亲传][Album] 1972 Ben (美首版银圈) (US - 3746351532) - WAV整轨 ♬by幽灵 [复制链接]

上一主题 下一主题
离线mjghosts
 

发帖
8256
金钱
219309
威望
9187
贡献值
2734
交易币
4791
只看楼主 倒序阅读 楼主  发表于: 02-06
— 本帖被 mjghosts 执行加亮操作(2018-02-06) —
*72年的专辑,当时只有LP,至于CD,最早或许就是这张银圈版吧,约为88-89年的产物,珍贵音源,分享给大家!* nN$Y(2ZN  
C@N1ljXJT  
注:独家整理,转载请注明出处!EAC无损整轨(压缩包内含CD图片) 8+m H:O  
5-)#f?  
解压密码:www.mjsunny.com
)'l*Tl  
C8a*Q"  
Tracklist @v\*AYr'M  
1 Ben 2:44 ?Z\Yu'  
2 Greatest Show On Earth 2:48 (I@bkMp  
3 People Make The World Go 'Round 3:15 a:~@CUD >I  
4 We've Got A Good Thing Going 3:02 ?}Z1(it0  
5 Everybody's Somebody's Fool 2:59 SPj><5Ro  
6 My Girl 3:08 %iJ%{{f`  
7 What Goes Around Comes Around 3:33 RkF D*E$  
8 In Our Small Way 3:38 Qy#)Gxp  
9 Shoo-Be-Doo-Be-Doo-Da-Day 3:21 +Taa!hfys  
10 You Can Cry On My Shoulder 2:39
VC5_v62&.  
uGdp@]z&8Q  
Ou'?]{  
N__H*yP  
EoX_KG{  
H* !EP  
Exact Audio Copy V1.0 beta 6 from 9. April 2015 vUC!fIG  
Q5S,{ ZeT  
EAC 抓取日志文件从3. 一月 2018, 1:27 mq/zTm  
HEK-L)S. *  
Michael Jackson / Ben -6Tk<W  
R)!`JKeO/  
使用驱动器  :MATSHITADVD-RAM UJ890AS   Adapter: 1  ID: 1 31Cq22"  
c*\<,n_  
读取模式      : 可靠Secure us?&:L|!=  
使用精确流     : 是 mxrG)n6Y  
清空音频缓存    : 否 ,xJrXPW  
使用 C2 指示器 : 是 %R_{1GrL'c  
8YY|;\F)J~  
读取偏移校正:               : 102 yI:# |w|  
读取 Lead-In 和 Lead-Out : 否 (k-YI{D3  
用静音填充抓取中丢失偏移的采样       : 是 dOa!htx]  
去除首尾静音块               : 否 vnX  
在CRC 计算中使用了空样本       : 是 ~>ME'D~  
已用接口                  : Win NT 及 2000 本地 Win32 接口 $%2_{m_K:p  
c yQ(fIYl  
所用输出模式: : 内部 WAV 函数 !7H6i#g*  
样本格式    : 44.100 Hz; 16 Bit; 立体声 t7#lsd`_  
A,i()R'I  
T!q_/[i~7  
已抓取 CD 的 TOC aP~gaSx  
7u11&(Lz  
     音轨 |    起始    |    长度    |  起始扇区  |  结束扇区   f%^'P"R  
    -------------------------------------------- +Al>2~  
      1 |  0:00.00 |  2:46.23 |      0 |  12472 5P^U_  
      2 |  2:46.23 |  2:50.65 |  12473 |  25287  o sdOw8  
      3 |  5:37.13 |  3:16.37 |  25288 |  40024 ~bU7QLr  
      4 |  8:53.50 |  3:05.43 |  40025 |  53942 pV`$7^#X  
      5 | 11:59.18 |  3:01.17 |  53943 |  67534 :Am-8  
      6 | 15:00.35 |  3:10.45 |  67535 |  81829 B< ;==|  
      7 | 18:11.05 |  3:34.18 |  81830 |  97897 UKB_Yy^Y  
      8 | 21:45.23 |  3:40.42 |  97898 | 114439 W04av_u 5  
      9 | 25:25.65 |  3:22.48 | 114440 | 129637  .Oo/y0E^  
     10 | 28:48.38 |  2:39.20 | 129638 | 141582 >Gd.&flSj  
to3?$-L  
HFh /$VM  
范围状态及错误 }0eg{{g8  
`q?RF+  
已选择范围 4 eh=f!(+  
V:^H4WvL\W  
     文件名 H:\12 Music*音乐\[WAV] Michael Jackson Audios\CDImage.wav g{ (@uzqG  
mxtgb$*  
     峰值电平 100.0 % EZAm)5:]A  
     抓取速度 5.5 X Z] {@H  
     范围质量 99.9 % {g=b]yg\o  
     复制 CRC F674143D fEiJ~&{&  
     复制成功 ya>N.h  
K`+vfqX  
没有错误发生 QT}iaeC1i  
{CP o<lz  
YRa4W.&Yn  
AccurateRip 摘要 m!!;/e?yx  
Vu|dV\N0*  
音轨  1  不能准确地校验 (确认 3)  [3DA149FB], 返回 AccurateRip [243385B6]  (AR v2) j;0ih_Z@4W  
音轨  2  不能准确地校验 (确认 3)  [36DAB86B], 返回 AccurateRip [1161EE8F]  (AR v2) GMb!Q0I8  
音轨  3  不能准确地校验 (确认 3)  [6EA0045C], 返回 AccurateRip [1094A8ED]  (AR v2) ]L]T>~X`  
音轨  4  不能准确地校验 (确认 3)  [A9D5A599], 返回 AccurateRip [7816F5FA]  (AR v2) PJwEA  
音轨  5  不能准确地校验 (确认 3)  [5F5E15AB], 返回 AccurateRip [E3044EBF]  (AR v2) oP-;y&AS  
音轨  6  不能准确地校验 (确认 3)  [5EF586B3], 返回 AccurateRip [2A22A0C5]  (AR v2) fv|%Ocm  
音轨  7  不能准确地校验 (确认 3)  [29F46E44], 返回 AccurateRip [AFF4CB87]  (AR v2) /$*; >4=>f  
音轨  8  不能准确地校验 (确认 3)  [483C184A], 返回 AccurateRip [49A5A0A2]  (AR v2) cUM_ncYOP  
音轨  9  不能准确地校验 (确认 3)  [FF3AE073], 返回 AccurateRip [B66AA1DE]  (AR v2) VD4S_qx  
音轨 10  不能准确地校验 (确认 3)  [956F14F6], 返回 AccurateRip [176AF681]  (AR v2) vK'9{q|g  
% &+|==-  
没有音轨被准确核实 okh0 _4  
你的版本可能与数据库的版本不同 |$w0+bV*  
`E%(pjG  
状态报告结尾
])68wqD  
_X?y ,#  
链接:https://pan.baidu.com/s/1jJa7W5C 密码: 0O^r.&{j>  
此帖售价 15 金钱,已有 9 人购买 [记录] [购买]
购买后,将显示帖子中所有出售内容。
若发现会员采用欺骗的方法获取财富,请立刻举报,我们会对会员处以2-N倍的罚金,严重者封掉ID!
此段为出售的内容,购买后显示
e18T(g_i  
离线mjlove98

发帖
2584
金钱
4090
威望
197
贡献值
123
交易币
2662
只看该作者 1楼 发表于: 02-06
Re:[Album] 1972 Ben (美首版银圈) (US - 3746351532) - WAV整轨 ?by幽灵
感谢楼主了

发帖
2751
金钱
30829
威望
621
贡献值
38
交易币
408
只看该作者 2楼 发表于: 02-07
经典经典

在线刘123伟

发帖
711
金钱
14449
威望
55
贡献值
14
交易币
768
只看该作者 3楼 发表于: 02-09
节前快乐!好碟!!!
离线三分寰宇

发帖
72
金钱
77
威望
11
贡献值
1
交易币
23
只看该作者 4楼 发表于: 02-09
给力的楼主!!!
离线mjnet

发帖
381
金钱
30548
威望
104
贡献值
54
交易币
558
只看该作者 5楼 发表于: 02-10
thank you!!!!
离线妙脚踹人

发帖
6
金钱
45
威望
2
贡献值
1
交易币
11
只看该作者 6楼 发表于: 02-10
谢谢分享
离线天地若龙

发帖
175
金钱
190
威望
36
贡献值
5
交易币
196
只看该作者 7楼 发表于: 02-13
感谢~! U%olH >1K  
MJ早期作品都挺罕见的
离线lifan_npl

发帖
2212
金钱
31692
威望
853
贡献值
430
交易币
2593
只看该作者 8楼 发表于: 02-23
有一点意思  收藏一个
我的淘宝店:
http://shop63152617.taobao.com  
离线linkmj

发帖
77
金钱
26
威望
15
贡献值
14
交易币
136
只看该作者 9楼 发表于: 02-23
很棒啊!!!
快速回复
限100 字节
 
上一个 下一个