论坛风格切换切换到宽版
  • 325阅读
  • 12回复

[亲传][Album] 1972 Ben (美首版银圈) (US - 3746351532) - WAV整轨 ♬by幽灵 [复制链接]

上一主题 下一主题
离线mjghosts
 

发帖
8251
金钱
218770
威望
9176
贡献值
2723
交易币
4762
只看楼主 倒序阅读 楼主  发表于: 02-06
— 本帖被 mjghosts 执行加亮操作(2018-02-06) —
*72年的专辑,当时只有LP,至于CD,最早或许就是这张银圈版吧,约为88-89年的产物,珍贵音源,分享给大家!* sOf;I]E|  
b3vPGR  
注:独家整理,转载请注明出处!EAC无损整轨(压缩包内含CD图片) 2~wIHtd  
3= q,k<=L  
解压密码:www.mjsunny.com
MB"TwtW  
Mx]![O.ye  
Tracklist  W>HGB  
1 Ben 2:44 eF06B'uL  
2 Greatest Show On Earth 2:48 C-:lM1  
3 People Make The World Go 'Round 3:15 &| guPZ  
4 We've Got A Good Thing Going 3:02 ,SQ`, C _5  
5 Everybody's Somebody's Fool 2:59 vTk\6o q  
6 My Girl 3:08 bZKlQ<sI  
7 What Goes Around Comes Around 3:33 ~B2,edkM  
8 In Our Small Way 3:38 MKPw;@-  
9 Shoo-Be-Doo-Be-Doo-Da-Day 3:21 5Kw$QJ/  
10 You Can Cry On My Shoulder 2:39
[WXa]d5Y  
GX\6J]x=^2  
 D_D76  
gT&s &0_7  
921m'WE  
U-6pia /o  
Exact Audio Copy V1.0 beta 6 from 9. April 2015 \|f3\4;!  
\&jmSa=]l  
EAC 抓取日志文件从3. 一月 2018, 1:27 TR J5m?x  
Q| _e=  
Michael Jackson / Ben (Z |Nz*<  
/!A?>#O&.  
使用驱动器  :MATSHITADVD-RAM UJ890AS   Adapter: 1  ID: 1 M$$Lsb [  
e$l*s/"0t  
读取模式      : 可靠Secure h]>7Dl]  
使用精确流     : 是 KbGz3O'u  
清空音频缓存    : 否 ^R h`XE  
使用 C2 指示器 : 是 xU;/LJ6  
}!QVcu"+t/  
读取偏移校正:               : 102 zGtv(gwk  
读取 Lead-In 和 Lead-Out : 否 !:3X{)4  
用静音填充抓取中丢失偏移的采样       : 是 G]zyx"0Sqb  
去除首尾静音块               : 否 yYiu69v  
在CRC 计算中使用了空样本       : 是 M \UB r4  
已用接口                  : Win NT 及 2000 本地 Win32 接口 zALtG<_t  
|3G;Rh9w,  
所用输出模式: : 内部 WAV 函数 GL,( N|  
样本格式    : 44.100 Hz; 16 Bit; 立体声 NH<~B C]I  
@?*; -]#)  
l4ru0V8s7  
已抓取 CD 的 TOC 3.6Gh|7  
]]P@*4!  
     音轨 |    起始    |    长度    |  起始扇区  |  结束扇区   n(W&GSj|u9  
    -------------------------------------------- !8&EkXTw,  
      1 |  0:00.00 |  2:46.23 |      0 |  12472 Vwb_$Yi+]  
      2 |  2:46.23 |  2:50.65 |  12473 |  25287 <m~{60{  
      3 |  5:37.13 |  3:16.37 |  25288 |  40024 gv){&=9/  
      4 |  8:53.50 |  3:05.43 |  40025 |  53942 Ygc|9}  
      5 | 11:59.18 |  3:01.17 |  53943 |  67534 "^)GnK +-  
      6 | 15:00.35 |  3:10.45 |  67535 |  81829 )iid9K<HB  
      7 | 18:11.05 |  3:34.18 |  81830 |  97897  ozKS<<  
      8 | 21:45.23 |  3:40.42 |  97898 | 114439 %/ "yt}"|  
      9 | 25:25.65 |  3:22.48 | 114440 | 129637 2.vmZaKP  
     10 | 28:48.38 |  2:39.20 | 129638 | 141582 tu(^D23  
,U)&ny  
I0qJr2[X~  
范围状态及错误 sVGQSJJ5  
6}VFob#h8  
已选择范围 j dz IU  
BO7XN;  
     文件名 H:\12 Music*音乐\[WAV] Michael Jackson Audios\CDImage.wav e ;^}@X  
$rTb'8  
     峰值电平 100.0 % %n GjP^  
     抓取速度 5.5 X ^\kH^   
     范围质量 99.9 % sHMO9{[7H  
     复制 CRC F674143D F3]VSI6^E,  
     复制成功 %vm_v.Q4)  
("r:L<xe&  
没有错误发生 h_+  
iP;" -Mj  
M8<Vd1-5  
AccurateRip 摘要 02trjp.f  
_ZFEo< `'  
音轨  1  不能准确地校验 (确认 3)  [3DA149FB], 返回 AccurateRip [243385B6]  (AR v2) V$w lOMp  
音轨  2  不能准确地校验 (确认 3)  [36DAB86B], 返回 AccurateRip [1161EE8F]  (AR v2)  X(X[v]  
音轨  3  不能准确地校验 (确认 3)  [6EA0045C], 返回 AccurateRip [1094A8ED]  (AR v2) SY[3O  
音轨  4  不能准确地校验 (确认 3)  [A9D5A599], 返回 AccurateRip [7816F5FA]  (AR v2) {7@*cB qN  
音轨  5  不能准确地校验 (确认 3)  [5F5E15AB], 返回 AccurateRip [E3044EBF]  (AR v2) jBOl:l,+  
音轨  6  不能准确地校验 (确认 3)  [5EF586B3], 返回 AccurateRip [2A22A0C5]  (AR v2) X~c?C-fV  
音轨  7  不能准确地校验 (确认 3)  [29F46E44], 返回 AccurateRip [AFF4CB87]  (AR v2) A)>#n)  
音轨  8  不能准确地校验 (确认 3)  [483C184A], 返回 AccurateRip [49A5A0A2]  (AR v2) O0xqA\  
音轨  9  不能准确地校验 (确认 3)  [FF3AE073], 返回 AccurateRip [B66AA1DE]  (AR v2) 0V(}Zj>  
音轨 10  不能准确地校验 (确认 3)  [956F14F6], 返回 AccurateRip [176AF681]  (AR v2) SeDk/}/~e  
2wIJ;rh  
没有音轨被准确核实 [i ~qVn2vT  
你的版本可能与数据库的版本不同 +jwHYfAK)  
][v]Nk  
状态报告结尾
8mKp PwG0  
+|,4g_(j  
链接:https://pan.baidu.com/s/1jJa7W5C 密码: Tgr,1) T  
此帖售价 15 金钱,已有 9 人购买 [记录] [购买]
购买后,将显示帖子中所有出售内容。
若发现会员采用欺骗的方法获取财富,请立刻举报,我们会对会员处以2-N倍的罚金,严重者封掉ID!
此段为出售的内容,购买后显示
"O4A&PJD  
离线mjlove98

发帖
2568
金钱
4330
威望
197
贡献值
123
交易币
2646
只看该作者 1楼 发表于: 02-06
Re:[Album] 1972 Ben (美首版银圈) (US - 3746351532) - WAV整轨 ?by幽灵
感谢楼主了

发帖
2740
金钱
30927
威望
620
贡献值
37
交易币
393
只看该作者 2楼 发表于: 02-07
经典经典

离线刘123伟

发帖
697
金钱
1175
威望
54
贡献值
14
交易币
754
只看该作者 3楼 发表于: 02-09
节前快乐!好碟!!!
离线三分寰宇

发帖
70
金钱
97
威望
11
贡献值
1
交易币
21
只看该作者 4楼 发表于: 02-09
给力的楼主!!!
离线mjnet

发帖
381
金钱
30568
威望
104
贡献值
54
交易币
558
只看该作者 5楼 发表于: 02-10
thank you!!!!
离线妙脚踹人

发帖
6
金钱
45
威望
2
贡献值
1
交易币
11
只看该作者 6楼 发表于: 02-10
谢谢分享
离线天地若龙

发帖
175
金钱
190
威望
36
贡献值
5
交易币
196
只看该作者 7楼 发表于: 02-13
感谢~! x%)oL:ue  
MJ早期作品都挺罕见的
离线lifan_npl

发帖
2196
金钱
31917
威望
851
贡献值
428
交易币
2569
只看该作者 8楼 发表于: 02-23
有一点意思  收藏一个
我的淘宝:
http://shop63152617.taobao.com  
离线linkmj

发帖
77
金钱
26
威望
15
贡献值
14
交易币
136
只看该作者 9楼 发表于: 02-23
很棒啊!!!
快速回复
限100 字节
 
上一个 下一个