论坛风格切换切换到宽版
  • 134阅读
  • 7回复

[亲传][Album] 1972 Ben (美首版银圈) (US - 3746351532) - WAV整轨 ♬by幽灵 [复制链接]

上一主题 下一主题
离线mjghosts
 

发帖
8240
金钱
216437
威望
9172
贡献值
2721
交易币
4743
只看楼主 倒序阅读 楼主  发表于: 02-06
— 本帖被 mjghosts 执行加亮操作(2018-02-06) —
*72年的专辑,当时只有LP,至于CD,最早或许就是这张银圈版吧,约为88-89年的产物,珍贵音源,分享给大家!* qSL~A-  
FEg&EYI  
注:独家整理,转载请注明出处!EAC无损整轨(压缩包内含CD图片) 0`e- ;  
]p~,C*UH0  
解压密码:www.mjsunny.com
Hn(L0#Oqy  
en gh3TZC  
Tracklist  _$4vk  
1 Ben 2:44 8,(5Q  
2 Greatest Show On Earth 2:48 noNL.%I  
3 People Make The World Go 'Round 3:15 ;0\  
4 We've Got A Good Thing Going 3:02 !Lj+&D|z  
5 Everybody's Somebody's Fool 2:59 ,t>/_pI+=  
6 My Girl 3:08 1 Xu^pc  
7 What Goes Around Comes Around 3:33 {mV,bg,}~  
8 In Our Small Way 3:38 V?Zvu9b&  
9 Shoo-Be-Doo-Be-Doo-Da-Day 3:21 3&JsYQu  
10 You Can Cry On My Shoulder 2:39
!~k-S exh  
o %tvwv  
A@"CrVE  
"%Eyb\V!  
"eal Yveu  
jW+L0RkX  
Exact Audio Copy V1.0 beta 6 from 9. April 2015 A5gdZZ'x  
N8l(m5Kk,k  
EAC 抓取日志文件从3. 一月 2018, 1:27 '4qi^$|\  
TNV#   
Michael Jackson / Ben ;dYpdy  
PRCr7f  
使用驱动器  :MATSHITADVD-RAM UJ890AS   Adapter: 1  ID: 1 wLC|mByq  
G}\E{VvWh  
读取模式      : 可靠Secure `7|v  
使用精确流     : 是 /Et:',D  
清空音频缓存    : 否 @4b"0ne}h  
使用 C2 指示器 : 是 t <#Yr%a  
vV| u+v{  
读取偏移校正:               : 102 ^YKEc0"w(  
读取 Lead-In 和 Lead-Out : 否 /cDla5eej  
用静音填充抓取中丢失偏移的采样       : 是 nMXSpX>!|  
去除首尾静音块               : 否 OY6l t.t  
在CRC 计算中使用了空样本       : 是 70m}+R(`  
已用接口                  : Win NT 及 2000 本地 Win32 接口 I "9S  
 >kK  
所用输出模式: : 内部 WAV 函数 >+fet ,  
样本格式    : 44.100 Hz; 16 Bit; 立体声 !K1[o'o#  
Ssr P  
T.aY {Y  
已抓取 CD 的 TOC BxO8oKe  
h4S,(*V$!  
     音轨 |    起始    |    长度    |  起始扇区  |  结束扇区   R y0n_J:7  
    -------------------------------------------- a! P?RbW  
      1 |  0:00.00 |  2:46.23 |      0 |  12472 c ++tk4  
      2 |  2:46.23 |  2:50.65 |  12473 |  25287 'cT R<LVo  
      3 |  5:37.13 |  3:16.37 |  25288 |  40024 izow=}  
      4 |  8:53.50 |  3:05.43 |  40025 |  53942 z6b!,lp  
      5 | 11:59.18 |  3:01.17 |  53943 |  67534 PygaW&9Z|d  
      6 | 15:00.35 |  3:10.45 |  67535 |  81829 S=ebht=  
      7 | 18:11.05 |  3:34.18 |  81830 |  97897 `$7j:<c=  
      8 | 21:45.23 |  3:40.42 |  97898 | 114439 Qhsh{muw(  
      9 | 25:25.65 |  3:22.48 | 114440 | 129637 Id(L}i(X  
     10 | 28:48.38 |  2:39.20 | 129638 | 141582 &mKtW$K` q  
&hEtVkK  
try'%0}>  
范围状态及错误 6+e@)[l.zc  
A$Mmnu%  
已选择范围 hdp;/Qz&  
xg k~y,F  
     文件名 H:\12 Music*音乐\[WAV] Michael Jackson Audios\CDImage.wav r:2G11[  
Ua)ARi %  
     峰值电平 100.0 % n:,At] ky  
     抓取速度 5.5 X VChNDHiH  
     范围质量 99.9 % 0~Z >}(  
     复制 CRC F674143D BYFvf(>  
     复制成功 T$)&8"Xya  
i<l_z&  
没有错误发生 1~Zmc1]  
BMkN68q  
Stq&^S\x69  
AccurateRip 摘要 K>hQls+  
*JDQaWzBd  
音轨  1  不能准确地校验 (确认 3)  [3DA149FB], 返回 AccurateRip [243385B6]  (AR v2) kHygif !I4  
音轨  2  不能准确地校验 (确认 3)  [36DAB86B], 返回 AccurateRip [1161EE8F]  (AR v2) @9lV~,,U  
音轨  3  不能准确地校验 (确认 3)  [6EA0045C], 返回 AccurateRip [1094A8ED]  (AR v2) zgXg-cr  
音轨  4  不能准确地校验 (确认 3)  [A9D5A599], 返回 AccurateRip [7816F5FA]  (AR v2) ]1h W/!  
音轨  5  不能准确地校验 (确认 3)  [5F5E15AB], 返回 AccurateRip [E3044EBF]  (AR v2) #$2 {l,>  
音轨  6  不能准确地校验 (确认 3)  [5EF586B3], 返回 AccurateRip [2A22A0C5]  (AR v2)  L_3Ao'SA  
音轨  7  不能准确地校验 (确认 3)  [29F46E44], 返回 AccurateRip [AFF4CB87]  (AR v2) \ :To\6\Ri  
音轨  8  不能准确地校验 (确认 3)  [483C184A], 返回 AccurateRip [49A5A0A2]  (AR v2) CT,PQ  
音轨  9  不能准确地校验 (确认 3)  [FF3AE073], 返回 AccurateRip [B66AA1DE]  (AR v2) jD1/`g%  
音轨 10  不能准确地校验 (确认 3)  [956F14F6], 返回 AccurateRip [176AF681]  (AR v2) gb+iy$o-  
2o2jDQ|7  
没有音轨被准确核实 [qbZp1s|(  
你的版本可能与数据库的版本不同 OSreS5bg  
j5\z7  
状态报告结尾
""$vaqt  
mq 0d ea  
链接:https://pan.baidu.com/s/1jJa7W5C 密码: 9U~fc U6  
此帖售价 15 金钱,已有 5 人购买 [记录] [购买]
购买后,将显示帖子中所有出售内容。
若发现会员采用欺骗的方法获取财富,请立刻举报,我们会对会员处以2-N倍的罚金,严重者封掉ID!
此段为出售的内容,购买后显示
o;#:%  
离线mjlove98

发帖
2520
金钱
5968
威望
196
贡献值
122
交易币
2594
只看该作者 1楼 发表于: 02-06
Re:[Album] 1972 Ben (美首版银圈) (US - 3746351532) - WAV整轨 ?by幽灵
感谢楼主了

发帖
2729
金钱
31485
威望
620
贡献值
37
交易币
382
只看该作者 2楼 发表于: 02-07
经典经典

离线刘123伟

发帖
682
金钱
971
威望
54
贡献值
14
交易币
739
只看该作者 3楼 发表于: 02-09
节前快乐!好碟!!!
离线三分寰宇

发帖
70
金钱
97
威望
11
贡献值
1
交易币
21
只看该作者 4楼 发表于: 02-09
给力的楼主!!!
离线mjnet

发帖
380
金钱
30469
威望
104
贡献值
54
交易币
557
只看该作者 5楼 发表于: 02-10
thank you!!!!
离线妙脚踹人

发帖
2
金钱
12
威望
1
贡献值
0
交易币
3
只看该作者 6楼 发表于: 02-10
谢谢分享
离线天地若龙

发帖
171
金钱
170
威望
36
贡献值
5
交易币
192
只看该作者 7楼 发表于: 02-13
感谢~! plRBfw>]N  
MJ早期作品都挺罕见的
快速回复
限100 字节
 
上一个 下一个