论坛风格切换切换到宽版
  • 232阅读
  • 9回复

[亲传][Album] 1972 Ben (美首版银圈) (US - 3746351532) - WAV整轨 ♬by幽灵 [复制链接]

上一主题 下一主题
离线mjghosts
 

发帖
8242
金钱
217431
威望
9173
贡献值
2722
交易币
4749
只看楼主 倒序阅读 楼主  发表于: 02-06
— 本帖被 mjghosts 执行加亮操作(2018-02-06) —
*72年的专辑,当时只有LP,至于CD,最早或许就是这张银圈版吧,约为88-89年的产物,珍贵音源,分享给大家!* $=3&qg"!  
0se0AcrW  
注:独家整理,转载请注明出处!EAC无损整轨(压缩包内含CD图片) Zcst$Aro  
TNun)0p  
解压密码:www.mjsunny.com
Q5Yy \M  
$r>$ u  
Tracklist B:5NIa  
1 Ben 2:44 iB-h3/  
2 Greatest Show On Earth 2:48 Jr2x`^aNO  
3 People Make The World Go 'Round 3:15 3jeB\  
4 We've Got A Good Thing Going 3:02 +,8j]<wpo  
5 Everybody's Somebody's Fool 2:59 ioJ~k[T  
6 My Girl 3:08 <t~RGn3  
7 What Goes Around Comes Around 3:33 #saK8; tp  
8 In Our Small Way 3:38 6_rgj{L  
9 Shoo-Be-Doo-Be-Doo-Da-Day 3:21 \jR('5DcB  
10 You Can Cry On My Shoulder 2:39
jWUpzf)q=T  
v,eTDgw  
-O~ V4004  
arQEi  
l<DpcLX  
Zqp<8M2  
Exact Audio Copy V1.0 beta 6 from 9. April 2015 $D%[}[2  
Q($.s=&l;  
EAC 抓取日志文件从3. 一月 2018, 1:27 j34L*?  
BIK^<_?+ZU  
Michael Jackson / Ben uK!G-1   
?c7} v  
使用驱动器  :MATSHITADVD-RAM UJ890AS   Adapter: 1  ID: 1 wU $j/~L  
;5.S"  
读取模式      : 可靠Secure {wS)M  
使用精确流     : 是 84|oqwZO  
清空音频缓存    : 否 Z<ABK`rEO  
使用 C2 指示器 : 是 1SY`V?cu  
l+!eC lM%  
读取偏移校正:               : 102 L2$`S'UW  
读取 Lead-In 和 Lead-Out : 否 WA1h|:Z  
用静音填充抓取中丢失偏移的采样       : 是 ijuIf9!  
去除首尾静音块               : 否 {%! >0@7  
在CRC 计算中使用了空样本       : 是 R{3vPG  
已用接口                  : Win NT 及 2000 本地 Win32 接口 *ke9/hO1i  
?VCM@{9  
所用输出模式: : 内部 WAV 函数 R&P}\cf8T  
样本格式    : 44.100 Hz; 16 Bit; 立体声 1:Dm, d;  
A!bH0=<I  
J~=tR1 k  
已抓取 CD 的 TOC l+n0=^ Z  
2J0N]`|)  
     音轨 |    起始    |    长度    |  起始扇区  |  结束扇区   DI,8y"!5  
    -------------------------------------------- R.rxpJ+kU  
      1 |  0:00.00 |  2:46.23 |      0 |  12472 s>+,u7EV  
      2 |  2:46.23 |  2:50.65 |  12473 |  25287 #OE]'k Ss  
      3 |  5:37.13 |  3:16.37 |  25288 |  40024 Zwm2T3@e  
      4 |  8:53.50 |  3:05.43 |  40025 |  53942 L kA_M'G  
      5 | 11:59.18 |  3:01.17 |  53943 |  67534 kntM  
      6 | 15:00.35 |  3:10.45 |  67535 |  81829 D1g .Fek5  
      7 | 18:11.05 |  3:34.18 |  81830 |  97897 ImZ!8#  
      8 | 21:45.23 |  3:40.42 |  97898 | 114439 a ]~Yi.H  
      9 | 25:25.65 |  3:22.48 | 114440 | 129637 1GA$nFBVC  
     10 | 28:48.38 |  2:39.20 | 129638 | 141582 ,ag:w<km  
f:_mrzz  
6^vseVx  
范围状态及错误 .{}=!>U2  
sH_5.+,`  
已选择范围 WVa#nU^  
EJ&aT etQ  
     文件名 H:\12 Music*音乐\[WAV] Michael Jackson Audios\CDImage.wav % bpVK~z  
F!yr};@^p  
     峰值电平 100.0 % `Fn6*_n  
     抓取速度 5.5 X Eh{]so  
     范围质量 99.9 % *RpBKm&^7  
     复制 CRC F674143D sb^%eUU])  
     复制成功 /-_<RQ  
=^L?Sgg  
没有错误发生 =%UX"K`  
W\W|v?r  
afJ`1l  
AccurateRip 摘要 ecjjCt2S  
4Em$L]7   
音轨  1  不能准确地校验 (确认 3)  [3DA149FB], 返回 AccurateRip [243385B6]  (AR v2) Fo0dz  
音轨  2  不能准确地校验 (确认 3)  [36DAB86B], 返回 AccurateRip [1161EE8F]  (AR v2) l-GQ AI8  
音轨  3  不能准确地校验 (确认 3)  [6EA0045C], 返回 AccurateRip [1094A8ED]  (AR v2) ) C?emTih  
音轨  4  不能准确地校验 (确认 3)  [A9D5A599], 返回 AccurateRip [7816F5FA]  (AR v2) ELlTR/NW  
音轨  5  不能准确地校验 (确认 3)  [5F5E15AB], 返回 AccurateRip [E3044EBF]  (AR v2) GOx+%`.R\  
音轨  6  不能准确地校验 (确认 3)  [5EF586B3], 返回 AccurateRip [2A22A0C5]  (AR v2) z 5T_  
音轨  7  不能准确地校验 (确认 3)  [29F46E44], 返回 AccurateRip [AFF4CB87]  (AR v2) 4IW7^Pq`P  
音轨  8  不能准确地校验 (确认 3)  [483C184A], 返回 AccurateRip [49A5A0A2]  (AR v2) m ^O9G?  
音轨  9  不能准确地校验 (确认 3)  [FF3AE073], 返回 AccurateRip [B66AA1DE]  (AR v2) 5tIM@,.I/  
音轨 10  不能准确地校验 (确认 3)  [956F14F6], 返回 AccurateRip [176AF681]  (AR v2) Ot]Y/;K  
4T-9F  
没有音轨被准确核实 }lzyl*.  
你的版本可能与数据库的版本不同 Md \yXp  
`.z;.&x  
状态报告结尾
a!,q\p8<t0  
Azx4+`!-  
链接:https://pan.baidu.com/s/1jJa7W5C 密码: P8K{K:T  
此帖售价 15 金钱,已有 6 人购买 [记录] [购买]
购买后,将显示帖子中所有出售内容。
若发现会员采用欺骗的方法获取财富,请立刻举报,我们会对会员处以2-N倍的罚金,严重者封掉ID!
此段为出售的内容,购买后显示
OO@ (lt  
离线mjlove98

发帖
2545
金钱
5654
威望
196
贡献值
122
交易币
2619
只看该作者 1楼 发表于: 02-06
Re:[Album] 1972 Ben (美首版银圈) (US - 3746351532) - WAV整轨 ?by幽灵
感谢楼主了

发帖
2735
金钱
31355
威望
620
贡献值
37
交易币
388
只看该作者 2楼 发表于: 02-07
经典经典

离线刘123伟

发帖
684
金钱
406
威望
54
贡献值
14
交易币
741
只看该作者 3楼 发表于: 02-09
节前快乐!好碟!!!
离线三分寰宇

发帖
70
金钱
97
威望
11
贡献值
1
交易币
21
只看该作者 4楼 发表于: 02-09
给力的楼主!!!
离线mjnet

发帖
380
金钱
30479
威望
104
贡献值
54
交易币
557
只看该作者 5楼 发表于: 02-10
thank you!!!!
离线妙脚踹人

发帖
6
金钱
45
威望
2
贡献值
1
交易币
11
只看该作者 6楼 发表于: 02-10
谢谢分享
离线天地若龙

发帖
175
金钱
190
威望
36
贡献值
5
交易币
196
只看该作者 7楼 发表于: 02-13
感谢~! =nQgS.D  
MJ早期作品都挺罕见的
离线lifan_npl

发帖
2185
金钱
16546
威望
783
贡献值
348
交易币
2542
只看该作者 8楼 发表于: 02-23
有一点意思  收藏一个
我的淘宝:
http://shop63152617.taobao.com  
离线linkmj

发帖
77
金钱
26
威望
15
贡献值
14
交易币
136
只看该作者 9楼 发表于: 02-23
很棒啊!!!
快速回复
限100 字节
 
上一个 下一个