论坛风格切换切换到宽版
  • 224阅读
  • 12回复

[亲传][Single] 1988 Smooth Criminal (US Promo - ESK 1274) - WAV整轨 ♬by幽灵 [复制链接]

上一主题 下一主题
离线mjghosts
 

发帖
8240
金钱
216437
威望
9172
贡献值
2721
交易币
4743
只看楼主 倒序阅读 楼主  发表于: 02-06
— 本帖被 mjghosts 执行加亮操作(2018-02-06) —
*1988年精品宣传CD,值得一提的是,曲目2,3,4与日本发行的单曲版(曲名相同)的部分混音有所不同!非常值得收藏的无损音源!* P6^\*xkMr  
>> -{AR0  
注:独家整理,转载请注明出处!EAC无损整轨(压缩包内含CD图片) )J\ JAUj  
W7V#G(cpU  
解压密码:www.mjsunny.com
2rP!]  
EJ:2]!O  
Tracklist g( eA?  
1 Smooth Criminal (Single Mix) 4:10 .0y .0=l  
2 Smooth Criminal (Dance Mix - Extended) 7:45 It'PWqZtG  
3 Smooth Criminal (Dance Mix - Radio Edit) 5:21 !Cm9DzG  
4 Smooth Criminal ("Annie" Mix) 5:35 b Oh[(O!  
5 Smooth Criminal (Dance Mix - Dub Version) 4:45 kf",/?s2Z  
6 Smooth Criminal (A Cappella Mix) 4:12
@q" #.?>s  
ss7Z-A4z  
^''3}<Ep  
Q@l.p-:^U  
? i|LO  
h4M>k{  
Exact Audio Copy V1.0 beta 6 from 9. April 2015 @JD!.3  
_vE[TFy  
EAC 抓取日志文件从20. 一月 2018, 23:01 .TRp74  
6$$ku  
Michael Jackson / Smooth Criminal 8nRxx`U\q  
uchz<z1  
使用驱动器  :MATSHITADVD-RAM UJ890AS   Adapter: 1  ID: 1 -+|{#cz  
UazUr=| e  
读取模式      : 可靠Secure z 4`H<Pn  
使用精确流     : 是 dr7ry"5Zq  
清空音频缓存    : 否 2Yd;#i)  
使用 C2 指示器 : 是 ZNbb8v  
:.EVvuXI  
读取偏移校正:               : 102 k<NEauQ  
读取 Lead-In 和 Lead-Out : 否 > 1&_-  
用静音填充抓取中丢失偏移的采样       : 是 pSJc.j  
去除首尾静音块               : 否 7j L.\O  
在CRC 计算中使用了空样本       : 是 +q3E>K9a  
已用接口                  : Win NT 及 2000 本地 Win32 接口 d_}q.%*  
ZiOL7#QWX  
所用输出模式: : 内部 WAV 函数 >) PcK  
样本格式    : 44.100 Hz; 16 Bit; 立体声 )o8]MWT\;  
n$y)F} .-  
d$`NApr  
已抓取 CD 的 TOC #\fxU:z~r  
>w"k:O17  
     音轨 |    起始    |    长度    |  起始扇区  |  结束扇区   ?5g0#wqI  
    -------------------------------------------- H#;-(`F  
      1 |  0:00.00 |  4:13.57 |      0 |  19031 mxV0"$'Fm  
      2 |  4:13.57 |  7:50.48 |  19032 |  54329 5b2_{6t  
      3 | 12:04.30 |  5:25.57 |  54330 |  78761 &qP&=( $  
      4 | 17:30.12 |  5:39.33 |  78762 | 104219 yqw#= fy  
      5 | 23:09.45 |  4:48.30 | 104220 | 125849 U&\8~h  
      6 | 27:58.00 |  4:12.20 | 125850 | 144769 %kJ_o*"  
n^ AQ!wC  
\We\*7^E  
范围状态及错误 >f$>Odqe  
jLs-v  
已选择范围 q^_PR|  
_cY!\'  
     文件名 H:\12 Music*音乐\[WAV] Michael Jackson Audios\【Single】1988 Smooth Criminal (US Promo - ESK 1274) 6''\CDImage.wav D|}%(N@sl  
I(*4N^9++  
     峰值电平 100.0 % S6r$n  
     抓取速度 5.8 X zMkjdjb  
     范围质量 100.0 % :! h1S`wS  
     复制 CRC 5BD3E543 c.u$NnDU6  
     复制成功 0OndSa,  
;:[!I]E0  
没有错误发生 xi.L?"^/!  
w34&m  
EhkvC>y  
AccurateRip 摘要 PyD'lsV  
e[HP]$\   
音轨  1  在数据库中不存在 ]F5qXF5  
音轨  2  在数据库中不存在 3:f<cy   
音轨  3  在数据库中不存在 `43`*=  
音轨  4  在数据库中不存在 J2BW>T!tuw  
音轨  5  在数据库中不存在 C w<bu|?  
音轨  6  在数据库中不存在 5h9`lS2  
|-Z9-rl  
没有任何音轨在 AccurateRip 数据库中有记录 }vRs n-E@  
\>8"r,hG|  
状态报告结尾
3le/(=&1  
E-NuCP%|c  
链接:https://pan.baidu.com/s/1kWZ0nB5 密码: NJG-~ w  
此帖售价 148 金钱,已有 5 人购买 [记录] [购买]
购买后,将显示帖子中所有出售内容。
若发现会员采用欺骗的方法获取财富,请立刻举报,我们会对会员处以2-N倍的罚金,严重者封掉ID!
此段为出售的内容,购买后显示
\$o!M1j  
离线mjlove98

发帖
2520
金钱
5968
威望
196
贡献值
122
交易币
2594
只看该作者 1楼 发表于: 02-06
Re:[Single] 1988 Smooth Criminal (US Promo - ESK 1274) - WAV整轨 ?by幽灵
谢谢楼主了,很好的资源

发帖
2729
金钱
31485
威望
620
贡献值
37
交易币
382
只看该作者 2楼 发表于: 02-07
必须收

离线恶魔心

发帖
3375
金钱
31005
威望
1735
贡献值
1130
交易币
3957
只看该作者 3楼 发表于: 02-07
Re:[Single] 1988 Smooth Criminal (US Promo - ESK 1274) - WAV整轨
哪里不同了
天降枭雄万恶身 地塌山摇起风云 盟结群魔掠八方 主宰苍生令沉浮
MJFOREVERLAND--淘宝小店
威恶扬名万骨悲 震碎乾坤祸劫临 江山万代同色变 湖海任我笑中行
离线mjghosts

发帖
8240
金钱
216437
威望
9172
贡献值
2721
交易币
4743
只看该作者 4楼 发表于: 02-07
回 恶魔心 的帖子
恶魔心:哪里不同了  (2018-02-07 12:11)  Y~ ( <H e?  
cri.kr9Y  
就拿Smooth Criminal ("Annie" Mix)来说,从3:48秒开始对比
离线小李

发帖
232
金钱
230
威望
99
贡献值
8
交易币
204
只看该作者 5楼 发表于: 02-08
金钱居然不够买这个帖子了。 6_s_2cr  
有什么不同啊。
1条评分金钱+100
mjghosts 金钱 +100 忠实粉丝 02-09
离线刘123伟

发帖
682
金钱
971
威望
54
贡献值
14
交易币
739
只看该作者 6楼 发表于: 02-09
感谢分享,幽灵君!长见识了!!!
离线mjghosts

发帖
8240
金钱
216437
威望
9172
贡献值
2721
交易币
4743
只看该作者 7楼 发表于: 02-09
回 小李 的帖子
小李:金钱居然不够买这个帖子了。 G1; .\i  
有什么不同啊。 (2018-02-08 11:12)  %ZN p  
*wNX<R.  
Extended Dance Mix是整首歌的鼓点都不一样,美宣的鼓点更接近原版 s]=s2.=  
区别比较大的是Annie Mix,两者的0:38,3:48两处听得出来
离线三分寰宇

发帖
70
金钱
97
威望
11
贡献值
1
交易币
21
只看该作者 8楼 发表于: 02-10
哇,这个好贵啊,不过必须收,有独占混音
离线小李

发帖
232
金钱
230
威望
99
贡献值
8
交易币
204
只看该作者 9楼 发表于: 02-10
回 小李 的帖子
小李:金钱居然不够买这个帖子了。 (&0%![j&  
有什么不同啊。 (2018-02-08 11:12)  8RWfv}:X  
cc7*O  
谢谢。我通过朋友下载到了
快速回复
限100 字节
 
上一个 下一个