论坛风格切换切换到宽版
  • 512阅读
  • 17回复

[亲传][Single] 1988 Smooth Criminal (US Promo - ESK 1274) - WAV整轨 ♬by幽灵 [复制链接]

上一主题 下一主题
离线mjghosts
 

发帖
8251
金钱
218770
威望
9176
贡献值
2723
交易币
4762
只看楼主 倒序阅读 楼主  发表于: 02-06
— 本帖被 mjghosts 执行加亮操作(2018-02-06) —
*1988年精品宣传CD,值得一提的是,曲目2,3,4与日本发行的单曲版(曲名相同)的部分混音有所不同!非常值得收藏的无损音源!* 6^,;^   
xE6hE'rh.O  
注:独家整理,转载请注明出处!EAC无损整轨(压缩包内含CD图片) WFfn:WSWU  
mfk^t`w_  
解压密码:www.mjsunny.com
>UXNR`?  
S3y(' PeF  
Tracklist XJA];9^  
1 Smooth Criminal (Single Mix) 4:10 3 5p) e c  
2 Smooth Criminal (Dance Mix - Extended) 7:45 mv#*%St5  
3 Smooth Criminal (Dance Mix - Radio Edit) 5:21 &[5pR60  
4 Smooth Criminal ("Annie" Mix) 5:35 3yLJWHO%W  
5 Smooth Criminal (Dance Mix - Dub Version) 4:45 2CV?cm  
6 Smooth Criminal (A Cappella Mix) 4:12
2~%^ y6lR  
R#W=*cN  
FQ u c}A  
YVPLHwh/5  
dQy K4T  
yV*4|EkvW  
Exact Audio Copy V1.0 beta 6 from 9. April 2015 VPb8dv(a3  
W"&,=wvg2  
EAC 抓取日志文件从20. 一月 2018, 23:01 KC nm_4  
e/}4Pt  
Michael Jackson / Smooth Criminal `yO'-(@"gY  
$dG:29w  
使用驱动器  :MATSHITADVD-RAM UJ890AS   Adapter: 1  ID: 1 pj7v{H+  
)W&{OMr  
读取模式      : 可靠Secure U*?`tdXJ$  
使用精确流     : 是 `\f 3Ij,  
清空音频缓存    : 否 ?$l|];m)-  
使用 C2 指示器 : 是  K~B  
QW tDZ>  
读取偏移校正:               : 102 Je}0KW3G9L  
读取 Lead-In 和 Lead-Out : 否 4u+0 )<  
用静音填充抓取中丢失偏移的采样       : 是 -:E~Z_J`  
去除首尾静音块               : 否 !-%XrU8o3  
在CRC 计算中使用了空样本       : 是 )]s<Czm%  
已用接口                  : Win NT 及 2000 本地 Win32 接口 I2Imb9k~B  
-Jw4z# /-  
所用输出模式: : 内部 WAV 函数 @&Bh!_TWc  
样本格式    : 44.100 Hz; 16 Bit; 立体声 bzxf*b1I  
ft$RF  
G!;PV^6x  
已抓取 CD 的 TOC JO+tY[q  
\2 e^x  
     音轨 |    起始    |    长度    |  起始扇区  |  结束扇区   p6R+t]oH  
    -------------------------------------------- r PK.Q)g  
      1 |  0:00.00 |  4:13.57 |      0 |  19031  dC{dw^  
      2 |  4:13.57 |  7:50.48 |  19032 |  54329 )iQ^HZ  
      3 | 12:04.30 |  5:25.57 |  54330 |  78761 ?VmgM"'md  
      4 | 17:30.12 |  5:39.33 |  78762 | 104219 6UuN-7z!"  
      5 | 23:09.45 |  4:48.30 | 104220 | 125849 Q_|}~4_+  
      6 | 27:58.00 |  4:12.20 | 125850 | 144769 rR-[CT  
Y?NL|cW4  
R ~kO5jpW  
范围状态及错误 A}(]J!rc  
!SW0iq[7j  
已选择范围 X]p3?"7  
|p&EP2?T  
     文件名 H:\12 Music*音乐\[WAV] Michael Jackson Audios\【Single】1988 Smooth Criminal (US Promo - ESK 1274) 6''\CDImage.wav Lc{arhN  
a+cMXMf  
     峰值电平 100.0 % ZyUcL_   
     抓取速度 5.8 X E{u6<B*  
     范围质量 100.0 % 3 y}E*QE  
     复制 CRC 5BD3E543 I/Vw2  
     复制成功 z!"vez  
d2`g,~d  
没有错误发生 \0b}Z#'0  
Q M0B6F  
F}nwTras  
AccurateRip 摘要 ]u|fLK.|  
faQmkO  
音轨  1  在数据库中不存在  arYq$~U  
音轨  2  在数据库中不存在 7Z6=e6/\  
音轨  3  在数据库中不存在 vgwpuRL5b  
音轨  4  在数据库中不存在 ;77K&#1  
音轨  5  在数据库中不存在 3kn-tM  
音轨  6  在数据库中不存在 "n%s>@$  
m@Z#  
没有任何音轨在 AccurateRip 数据库中有记录 r]3-}:vU  
V@ >(xe7  
状态报告结尾
9wvlR6z;u  
HlGSt$woX  
链接:https://pan.baidu.com/s/1kWZ0nB5 密码: s2<!Zb4  
此帖售价 148 金钱,已有 8 人购买 [记录] [购买]
购买后,将显示帖子中所有出售内容。
若发现会员采用欺骗的方法获取财富,请立刻举报,我们会对会员处以2-N倍的罚金,严重者封掉ID!
此段为出售的内容,购买后显示
7L!JP:v   
离线mjlove98

发帖
2568
金钱
4330
威望
197
贡献值
123
交易币
2646
只看该作者 1楼 发表于: 02-06
Re:[Single] 1988 Smooth Criminal (US Promo - ESK 1274) - WAV整轨 ?by幽灵
谢谢楼主了,很好的资源

发帖
2740
金钱
30927
威望
620
贡献值
37
交易币
393
只看该作者 2楼 发表于: 02-07
必须收

离线恶魔心

发帖
3378
金钱
31030
威望
1735
贡献值
1130
交易币
3960
只看该作者 3楼 发表于: 02-07
Re:[Single] 1988 Smooth Criminal (US Promo - ESK 1274) - WAV整轨
哪里不同了
天降枭雄万恶身 地塌山摇起风云 盟结群魔掠八方 主宰苍生令沉浮
MJFOREVERLAND--淘宝小店
威恶扬名万骨悲 震碎乾坤祸劫临 江山万代同色变 湖海任我笑中行
离线mjghosts

发帖
8251
金钱
218770
威望
9176
贡献值
2723
交易币
4762
只看该作者 4楼 发表于: 02-07
回 恶魔心 的帖子
恶魔心:哪里不同了  (2018-02-07 12:11)  [e\IHakj  
`B&E?x  
就拿Smooth Criminal ("Annie" Mix)来说,从3:48秒开始对比
离线小李

发帖
238
金钱
1115
威望
9
贡献值
8
交易币
210
只看该作者 5楼 发表于: 02-08
金钱居然不够买这个帖子了。 Cnc=GTR i  
有什么不同啊。
1条评分金钱+100
mjghosts 金钱 +100 忠实粉丝 02-09
离线刘123伟

发帖
697
金钱
1175
威望
54
贡献值
14
交易币
754
只看该作者 6楼 发表于: 02-09
感谢分享,幽灵君!长见识了!!!
离线mjghosts

发帖
8251
金钱
218770
威望
9176
贡献值
2723
交易币
4762
只看该作者 7楼 发表于: 02-09
回 小李 的帖子
小李:金钱居然不够买这个帖子了。 sDy~<$l?  
有什么不同啊。 (2018-02-08 11:12)  ^Ov+n1,)  
4 ..V  
Extended Dance Mix是整首歌的鼓点都不一样,美宣的鼓点更接近原版 GS!1K(7  
区别比较大的是Annie Mix,两者的0:38,3:48两处听得出来
离线三分寰宇

发帖
70
金钱
97
威望
11
贡献值
1
交易币
21
只看该作者 8楼 发表于: 02-10
哇,这个好贵啊,不过必须收,有独占混音
离线小李

发帖
238
金钱
1115
威望
9
贡献值
8
交易币
210
只看该作者 9楼 发表于: 02-10
回 小李 的帖子
小李:金钱居然不够买这个帖子了。 l6Q75i)eF  
有什么不同啊。 (2018-02-08 11:12)  +vtI1LC;_  
%Sdzr!I7*  
谢谢。我通过朋友下载到了
快速回复
限100 字节
 
上一个 下一个