论坛风格切换切换到宽版
  • 401阅读
  • 15回复

[亲传][Single] 1988 Smooth Criminal (US Promo - ESK 1274) - WAV整轨 ♬by幽灵 [复制链接]

上一主题 下一主题
离线mjghosts
 

发帖
8242
金钱
217431
威望
9173
贡献值
2722
交易币
4749
只看楼主 倒序阅读 楼主  发表于: 02-06
— 本帖被 mjghosts 执行加亮操作(2018-02-06) —
*1988年精品宣传CD,值得一提的是,曲目2,3,4与日本发行的单曲版(曲名相同)的部分混音有所不同!非常值得收藏的无损音源!* Zj]jE%AT  
N&]GP l0  
注:独家整理,转载请注明出处!EAC无损整轨(压缩包内含CD图片) Svun RUE-f  
V^[B=|56  
解压密码:www.mjsunny.com
&}q;,"  
Y;dQLZ CC  
Tracklist %Xfy.v  
1 Smooth Criminal (Single Mix) 4:10 5tG\5  
2 Smooth Criminal (Dance Mix - Extended) 7:45 % r>v^1Vo  
3 Smooth Criminal (Dance Mix - Radio Edit) 5:21 cq#=Vb  
4 Smooth Criminal ("Annie" Mix) 5:35 ZtofDp5B  
5 Smooth Criminal (Dance Mix - Dub Version) 4:45 P'<D0   
6 Smooth Criminal (A Cappella Mix) 4:12
)r|Pm-:A{  
yZyB.wT  
,E3Ze*(U  
3^-yw`  
sOb=+u$$9  
:211T&B%A_  
Exact Audio Copy V1.0 beta 6 from 9. April 2015 {O"N2W  
 Ds@nuQ  
EAC 抓取日志文件从20. 一月 2018, 23:01 MG(qQ#;j/  
%z "${ zw  
Michael Jackson / Smooth Criminal ;!Q}g19C  
r";;Fk#5  
使用驱动器  :MATSHITADVD-RAM UJ890AS   Adapter: 1  ID: 1 \Jm^XXgS  
AEE&{ _[S  
读取模式      : 可靠Secure "[`/J?W  
使用精确流     : 是 +(/' b' *  
清空音频缓存    : 否 d$#DXLA\P  
使用 C2 指示器 : 是 #iVr @|,  
v&r\Z @%  
读取偏移校正:               : 102 ':#DROe!  
读取 Lead-In 和 Lead-Out : 否 )JXy>q#  
用静音填充抓取中丢失偏移的采样       : 是 9?zi  
去除首尾静音块               : 否 |oX1J<LM  
在CRC 计算中使用了空样本       : 是 O6$n VpD3  
已用接口                  : Win NT 及 2000 本地 Win32 接口 I/)*pzt8  
m_h$fT8 _  
所用输出模式: : 内部 WAV 函数 UY^TTRrH  
样本格式    : 44.100 Hz; 16 Bit; 立体声 o,[Em<  
7[:?VXQ  
Mo]aB:a  
已抓取 CD 的 TOC s8SCEpz  
d>wG6Z,|  
     音轨 |    起始    |    长度    |  起始扇区  |  结束扇区   wrVR[v>E<  
    -------------------------------------------- $YK~7!!  
      1 |  0:00.00 |  4:13.57 |      0 |  19031 Hnf?`j>  
      2 |  4:13.57 |  7:50.48 |  19032 |  54329 BG+X8t8\  
      3 | 12:04.30 |  5:25.57 |  54330 |  78761 :s|xa u=  
      4 | 17:30.12 |  5:39.33 |  78762 | 104219 BF U#FE)s  
      5 | 23:09.45 |  4:48.30 | 104220 | 125849 [bd?$q i  
      6 | 27:58.00 |  4:12.20 | 125850 | 144769 LdyE*u_  
e{d$OzT) V  
 Fr9_!f  
范围状态及错误 ~ *P9_<  
jVdB- y/r  
已选择范围 WK6|e[iP  
l%$co07cX  
     文件名 H:\12 Music*音乐\[WAV] Michael Jackson Audios\【Single】1988 Smooth Criminal (US Promo - ESK 1274) 6''\CDImage.wav yn-TN_/Y,  
W02swhS  
     峰值电平 100.0 % yjxv D  
     抓取速度 5.8 X o>Jr6: D(  
     范围质量 100.0 % )w++cC4/5  
     复制 CRC 5BD3E543 bR}{xHe  
     复制成功 =^LX,!2zp{  
g$jZpU  
没有错误发生 fmhqm"  
ZRd,V~iz  
, 9C~%c0Pw  
AccurateRip 摘要 %fyah}=  
;x=k J@  
音轨  1  在数据库中不存在 jxU z-U-  
音轨  2  在数据库中不存在 ,/=Fm  
音轨  3  在数据库中不存在 5)rMoYn25  
音轨  4  在数据库中不存在 l1&NU'WW  
音轨  5  在数据库中不存在 <Oi65O_X  
音轨  6  在数据库中不存在 P9Yw\   
']N1OVw^vf  
没有任何音轨在 AccurateRip 数据库中有记录 3y[6n$U&  
H{}Nr 4  
状态报告结尾
Ft&ARTsa*  
ftr8~*]O  
链接:https://pan.baidu.com/s/1kWZ0nB5 密码: X,] E {  
此帖售价 148 金钱,已有 7 人购买 [记录] [购买]
购买后,将显示帖子中所有出售内容。
若发现会员采用欺骗的方法获取财富,请立刻举报,我们会对会员处以2-N倍的罚金,严重者封掉ID!
此段为出售的内容,购买后显示
^&!S nM  
离线mjlove98

发帖
2545
金钱
5654
威望
196
贡献值
122
交易币
2619
只看该作者 1楼 发表于: 02-06
Re:[Single] 1988 Smooth Criminal (US Promo - ESK 1274) - WAV整轨 ?by幽灵
谢谢楼主了,很好的资源

发帖
2735
金钱
31355
威望
620
贡献值
37
交易币
388
只看该作者 2楼 发表于: 02-07
必须收

离线恶魔心

发帖
3376
金钱
31020
威望
1735
贡献值
1130
交易币
3958
只看该作者 3楼 发表于: 02-07
Re:[Single] 1988 Smooth Criminal (US Promo - ESK 1274) - WAV整轨
哪里不同了
天降枭雄万恶身 地塌山摇起风云 盟结群魔掠八方 主宰苍生令沉浮
MJFOREVERLAND--淘宝小店
威恶扬名万骨悲 震碎乾坤祸劫临 江山万代同色变 湖海任我笑中行
离线mjghosts

发帖
8242
金钱
217431
威望
9173
贡献值
2722
交易币
4749
只看该作者 4楼 发表于: 02-07
回 恶魔心 的帖子
恶魔心:哪里不同了  (2018-02-07 12:11)  cW),Y|8  
)^)VyI`O  
就拿Smooth Criminal ("Annie" Mix)来说,从3:48秒开始对比
离线小李

发帖
233
金钱
190
威望
99
贡献值
8
交易币
205
只看该作者 5楼 发表于: 02-08
金钱居然不够买这个帖子了。 E-"Jgq\aC  
有什么不同啊。
1条评分金钱+100
mjghosts 金钱 +100 忠实粉丝 02-09
离线刘123伟

发帖
684
金钱
406
威望
54
贡献值
14
交易币
741
只看该作者 6楼 发表于: 02-09
感谢分享,幽灵君!长见识了!!!
离线mjghosts

发帖
8242
金钱
217431
威望
9173
贡献值
2722
交易币
4749
只看该作者 7楼 发表于: 02-09
回 小李 的帖子
小李:金钱居然不够买这个帖子了。 J|I|3h<T  
有什么不同啊。 (2018-02-08 11:12)  VE GUhI/d  
P= ]ZXj[  
Extended Dance Mix是整首歌的鼓点都不一样,美宣的鼓点更接近原版 LN7;Yr  
区别比较大的是Annie Mix,两者的0:38,3:48两处听得出来
离线三分寰宇

发帖
70
金钱
97
威望
11
贡献值
1
交易币
21
只看该作者 8楼 发表于: 02-10
哇,这个好贵啊,不过必须收,有独占混音
离线小李

发帖
233
金钱
190
威望
99
贡献值
8
交易币
205
只看该作者 9楼 发表于: 02-10
回 小李 的帖子
小李:金钱居然不够买这个帖子了。 JG0TbM1(Bt  
有什么不同啊。 (2018-02-08 11:12)  `SFI\Y+WDT  
!NZFo S~  
谢谢。我通过朋友下载到了
快速回复
限100 字节
 
上一个 下一个