论坛风格切换切换到宽版
  • 623阅读
  • 17回复

[亲传][Single] 1988 Smooth Criminal (US Promo - ESK 1274) - WAV整轨 ♬by幽灵 [复制链接]

上一主题 下一主题
离线mjghosts
 

发帖
8256
金钱
219309
威望
9187
贡献值
2734
交易币
4791
只看楼主 倒序阅读 楼主  发表于: 02-06
— 本帖被 mjghosts 执行加亮操作(2018-02-06) —
*1988年精品宣传CD,值得一提的是,曲目2,3,4与日本发行的单曲版(曲名相同)的部分混音有所不同!非常值得收藏的无损音源!* 6=V&3|"  
D{h sa  
注:独家整理,转载请注明出处!EAC无损整轨(压缩包内含CD图片) -Y]ue*k{  
lR5< G  
解压密码:www.mjsunny.com
CA2 ,  
$[zy|Y(  
Tracklist Q+e|;Mj  
1 Smooth Criminal (Single Mix) 4:10 9IFK4>&O6  
2 Smooth Criminal (Dance Mix - Extended) 7:45 H8[ L:VeNT  
3 Smooth Criminal (Dance Mix - Radio Edit) 5:21 " S6'<~s  
4 Smooth Criminal ("Annie" Mix) 5:35 <^j,jX  
5 Smooth Criminal (Dance Mix - Dub Version) 4:45 N*.JQvbnr  
6 Smooth Criminal (A Cappella Mix) 4:12
O][R "5d  
8=;'kEU  
DyiyH%SSD  
#T0uPK ;  
Y#3<w  
tuzw% =Ey  
Exact Audio Copy V1.0 beta 6 from 9. April 2015 ^O_E T$  
}E626d}uA  
EAC 抓取日志文件从20. 一月 2018, 23:01 1-`Il]@?8  
9 06b=  
Michael Jackson / Smooth Criminal "8{#R*p  
:77dl/d%  
使用驱动器  :MATSHITADVD-RAM UJ890AS   Adapter: 1  ID: 1 ~(Wq 5<v  
S>AM?  
读取模式      : 可靠Secure 8G&'ED_&  
使用精确流     : 是 X?PcEAi;w  
清空音频缓存    : 否 g\;&Z  
使用 C2 指示器 : 是 :m~R<BQ"  
=1qM`M   
读取偏移校正:               : 102 7OF6;@<  
读取 Lead-In 和 Lead-Out : 否 -+9,RtHR7  
用静音填充抓取中丢失偏移的采样       : 是 (yh zjN~  
去除首尾静音块               : 否 ;;r}=0V*=  
在CRC 计算中使用了空样本       : 是 ?<mxv"  
已用接口                  : Win NT 及 2000 本地 Win32 接口 >M`ryM2=D  
tQTVP2:Y  
所用输出模式: : 内部 WAV 函数 ;:2:f1_  
样本格式    : 44.100 Hz; 16 Bit; 立体声 ^)\z  
qKL :#ny  
h_xHQf&#  
已抓取 CD 的 TOC ;|a,1#x  
%d%$jF`  
     音轨 |    起始    |    长度    |  起始扇区  |  结束扇区   xzI?'?duC  
    -------------------------------------------- OVy ZyZ#  
      1 |  0:00.00 |  4:13.57 |      0 |  19031 KMU2Po qD  
      2 |  4:13.57 |  7:50.48 |  19032 |  54329 G/y@`A)  
      3 | 12:04.30 |  5:25.57 |  54330 |  78761 C;DR@'+q  
      4 | 17:30.12 |  5:39.33 |  78762 | 104219 QOfqW@g  
      5 | 23:09.45 |  4:48.30 | 104220 | 125849 #<4/ *< 5  
      6 | 27:58.00 |  4:12.20 | 125850 | 144769 Q,AM<\S  
ea\b7a*  
z}gfH|  
范围状态及错误 2)W~7GED  
!(&N{NH9  
已选择范围 sz?/4tY  
~"t33U6  
     文件名 H:\12 Music*音乐\[WAV] Michael Jackson Audios\【Single】1988 Smooth Criminal (US Promo - ESK 1274) 6''\CDImage.wav }2X"  
p2\mPFxEP  
     峰值电平 100.0 % <h vVh9  
     抓取速度 5.8 X ~\ C.Nm  
     范围质量 100.0 % 2y"|l  
     复制 CRC 5BD3E543  HuCzXl  
     复制成功 $vQ#ah/k  
GmJ4AYEP  
没有错误发生 ^kElb;d  
m&36$>r=  
R54wNm @  
AccurateRip 摘要 O6gl[aZN  
jEkO #xI  
音轨  1  在数据库中不存在 ^@"EI|fsP  
音轨  2  在数据库中不存在 :MIJfr>z  
音轨  3  在数据库中不存在 l[G&=/R@H  
音轨  4  在数据库中不存在 &ml7368@  
音轨  5  在数据库中不存在 Uh9p ,AV  
音轨  6  在数据库中不存在 L93PDp4v  
sX :)g>b   
没有任何音轨在 AccurateRip 数据库中有记录 6w )mo)<X  
l[_ y|W5  
状态报告结尾
S1!X;PP/  
uVQH,NA,  
链接:https://pan.baidu.com/s/1kWZ0nB5 密码: ]I+"";oQGB  
此帖售价 148 金钱,已有 8 人购买 [记录] [购买]
购买后,将显示帖子中所有出售内容。
若发现会员采用欺骗的方法获取财富,请立刻举报,我们会对会员处以2-N倍的罚金,严重者封掉ID!
此段为出售的内容,购买后显示
8n[6BF);  
离线mjlove98

发帖
2584
金钱
4090
威望
197
贡献值
123
交易币
2662
只看该作者 1楼 发表于: 02-06
Re:[Single] 1988 Smooth Criminal (US Promo - ESK 1274) - WAV整轨 ?by幽灵
谢谢楼主了,很好的资源

发帖
2751
金钱
30829
威望
621
贡献值
38
交易币
408
只看该作者 2楼 发表于: 02-07
必须收

离线恶魔心

发帖
3379
金钱
31045
威望
1735
贡献值
1130
交易币
3961
只看该作者 3楼 发表于: 02-07
Re:[Single] 1988 Smooth Criminal (US Promo - ESK 1274) - WAV整轨
哪里不同了
天降枭雄万恶身 地塌山摇起风云 盟结群魔掠八方 主宰苍生令沉浮
MJFOREVERLAND--淘宝小店
威恶扬名万骨悲 震碎乾坤祸劫临 江山万代同色变 湖海任我笑中行
离线mjghosts

发帖
8256
金钱
219309
威望
9187
贡献值
2734
交易币
4791
只看该作者 4楼 发表于: 02-07
回 恶魔心 的帖子
恶魔心:哪里不同了  (2018-02-07 12:11)  h&@ A'om~  
[&12`!;j  
就拿Smooth Criminal ("Annie" Mix)来说,从3:48秒开始对比
离线小李

发帖
240
金钱
1125
威望
9
贡献值
8
交易币
212
只看该作者 5楼 发表于: 02-08
金钱居然不够买这个帖子了。 g7UZtpLTm  
有什么不同啊。
1条评分金钱+100
mjghosts 金钱 +100 忠实粉丝 02-09
在线刘123伟

发帖
711
金钱
14449
威望
55
贡献值
14
交易币
768
只看该作者 6楼 发表于: 02-09
感谢分享,幽灵君!长见识了!!!
离线mjghosts

发帖
8256
金钱
219309
威望
9187
贡献值
2734
交易币
4791
只看该作者 7楼 发表于: 02-09
回 小李 的帖子
小李:金钱居然不够买这个帖子了。 vGPaWYV  
有什么不同啊。 (2018-02-08 11:12)  AwL;-|X  
?|Mmz@  
Extended Dance Mix是整首歌的鼓点都不一样,美宣的鼓点更接近原版 S[M\com'  
区别比较大的是Annie Mix,两者的0:38,3:48两处听得出来
离线三分寰宇

发帖
72
金钱
77
威望
11
贡献值
1
交易币
23
只看该作者 8楼 发表于: 02-10
哇,这个好贵啊,不过必须收,有独占混音
离线小李

发帖
240
金钱
1125
威望
9
贡献值
8
交易币
212
只看该作者 9楼 发表于: 02-10
回 小李 的帖子
小李:金钱居然不够买这个帖子了。 h7EUIlh"  
有什么不同啊。 (2018-02-08 11:12)  i<#h]o C}  
C!7U<rI  
谢谢。我通过朋友下载到了
快速回复
限100 字节
 
上一个 下一个