论坛风格切换切换到宽版
  • 510阅读
  • 15回复

[亲传][Single] 1997 Stranger In Moscow (US Promo - ESK 8337) - WAV整轨 ♬by幽灵 [复制链接]

上一主题 下一主题
离线mjghosts
 

发帖
8251
金钱
218770
威望
9176
贡献值
2723
交易币
4762
只看楼主 倒序阅读 楼主  发表于: 02-06
— 本帖被 mjghosts 执行加亮操作(2018-02-06) —
*97年美国宣传单曲,裸盘,收录5首曲目!* ?-f>zx8O  
EI;\of2,  
注:独家整理,转载请注明出处!EAC无损整轨(压缩包内含CD图片) DHAWUS6  
1bBK1Uw  
解压密码:www.mjsunny.com
CytpL`&^]  
@I&"P:E0F;  
Tracklist |$PLZ,  
1 Stranger In Moscow (Radio Edit) 4:04 V%ch'  
2 Stranger In Moscow (Tee's Radio Mix) 4:21 mw[4<vfB0a  
3 Stranger In Moscow (Charles Roane's Full R&B Mix) 4:39 akQH+j  
4 Stranger In Moscow (Tee's Light AC Mix) 4:24 yr>bL"!CA  
5 Stranger In Moscow (Album Version) 5:44 vi8~j  
F-^HN%  
 2JP?6N  
bZ.N7X PH  
X:lPWz!7{  
Exact Audio Copy V1.0 beta 6 from 9. April 2015 |A0$XU{  
"<x~{BN?  
EAC 抓取日志文件从23. 十一月 2017, 12:18 ex \W]5  
`8;,&<U'`  
Michael Jackson / Stranger In Moscow RX5.bVp eE  
Ia`JIc^e  
使用驱动器  :MATSHITADVD-RAM UJ890AS   Adapter: 1  ID: 1 K3:|Tc(  
oNB,.:  
读取模式      : 可靠Secure qmA2bw]  
使用精确流     : 是 ,LW+7yD  
清空音频缓存    : 否 LkGf|yd_  
使用 C2 指示器 : 是 b"M`@';+  
?96-" l  
读取偏移校正:               : 102 .L7Yf+yFg  
读取 Lead-In 和 Lead-Out : 否 :vK(LU0K  
用静音填充抓取中丢失偏移的采样       : 是 v0`qMBr1y  
去除首尾静音块               : 否 N(:nF5>_  
在CRC 计算中使用了空样本       : 是 >AQ) x  
已用接口                  : Win NT 及 2000 本地 Win32 接口 ^p 2.UW  
mN\%f J7  
所用输出模式: : 内部 WAV 函数 M!Z*QY."P  
样本格式    : 44.100 Hz; 16 Bit; 立体声 4[TS4p  
<rX \LwR  
7~wFU*P1  
已抓取 CD 的 TOC L#`2.nU  
onnI !  
     音轨 |    起始    |    长度    |  起始扇区  |  结束扇区   :`0'GM" `  
    -------------------------------------------- (U|)xA]y!  
      1 |  0:00.00 |  4:06.32 |      0 |  18481 t< sp%zXZ  
      2 |  4:06.32 |  4:23.03 |  18482 |  38209 .#*D!;f  
      3 |  8:29.35 |  4:39.52 |  38210 |  59186 0 _Q * E3  
      4 | 13:09.12 |  4:24.25 |  59187 |  79011 N83!C=X'  
      5 | 17:33.37 |  5:44.23 |  79012 | 104834 ^^%JoQ.  
K[kds`  
C1b*v&1{  
范围状态及错误 0; 7#ji  
axX{6  
已选择范围 xk& NAB  
?=<~^Lk  
     文件名 J:\12 Music*音乐\[WAV] Michael Jackson Audios\【Single】1996 Stranger In Moscow (US Promo - ) 5''\CDImage.wav n+2%tW  
=NadAyv  
     峰值电平 100.0 % "tUwo(K[  
     抓取速度 5.4 X dN< , %}R  
     范围质量 100.0 % sef]>q  
     复制 CRC F462C24F 8#w)X/  
     复制成功 E$A3|rjnoN  
0OnV0SIL  
没有错误发生 KnGTcoXg_  
\vRd}   
C h19h8M  
AccurateRip 摘要 T.ML$"f  
/<{:I \<  
音轨  1  精确地校准抓取  1)  [09EF891F]  (AR v2) Z6Fp\aI8@  
音轨  2  精确地校准抓取  1)  [EBE9A65F]  (AR v2) H,y4`p 0  
音轨  3  精确地校准抓取  1)  [F9DDDCB0]  (AR v2) [0y$! f4  
音轨  4  精确地校准抓取  1)  [9155A06E]  (AR v2) T.m mmT  
音轨  5  精确地校准抓取  1)  [8563D6C5]  (AR v2) [eUftr9&0  
&(N+.T5cp  
所有音轨精确校准抓取 j+-P :xvP  
N!2Rl  
状态报告结尾
@]aOyb@  
/X'(3'a  
链接:https://pan.baidu.com/s/1eT5ipm6 密码: c%m3}mrb  
此帖售价 15 金钱,已有 9 人购买 [记录] [购买]
购买后,将显示帖子中所有出售内容。
若发现会员采用欺骗的方法获取财富,请立刻举报,我们会对会员处以2-N倍的罚金,严重者封掉ID!
此段为出售的内容,购买后显示
离线mjlove98

发帖
2568
金钱
4330
威望
197
贡献值
123
交易币
2646
只看该作者 1楼 发表于: 02-06
Re:[Single] 1997 Stranger In Moscow (US Promo - ESK 8337) - WAV整轨 ?by幽灵
棒棒哒,谢谢

发帖
2740
金钱
30927
威望
620
贡献值
37
交易币
393
只看该作者 2楼 发表于: 02-07
感谢分享

离线小李

发帖
238
金钱
1115
威望
9
贡献值
8
交易币
210
只看该作者 3楼 发表于: 02-07
Stranger In Moscow (Tee's Light AC Mix) 没发过
离线mich008

发帖
840
金钱
5921
威望
24
贡献值
15
交易币
902
只看该作者 4楼 发表于: 02-07
新年的新发布 收了
离线天地若龙

发帖
175
金钱
190
威望
36
贡献值
5
交易币
196
只看该作者 5楼 发表于: 02-08
谢谢发布~
离线刘123伟

发帖
697
金钱
1175
威望
54
贡献值
14
交易币
754
只看该作者 6楼 发表于: 02-09
666,希望幽灵收的碟越来越棒!
离线mjnet

发帖
381
金钱
30568
威望
104
贡献值
54
交易币
558
只看该作者 7楼 发表于: 02-10
thank you!!!!!!
离线妙脚踹人

发帖
6
金钱
45
威望
2
贡献值
1
交易币
11
只看该作者 8楼 发表于: 02-10
新人哈哈哈
离线amorzm

发帖
3
金钱
38
威望
2
贡献值
1
交易币
8
只看该作者 9楼 发表于: 02-10
感谢大佬分享呀
快速回复
限100 字节
 
上一个 下一个