论坛风格切换切换到宽版
  • 1094阅读
  • 16回复

[亲传][Single] 1997 Stranger In Moscow (US Promo - ESK 8337) - WAV整轨 ♬by幽灵 [复制链接]

上一主题 下一主题
离线mjghosts
 

发帖
8263
金钱
219674
威望
9187
贡献值
2734
交易币
4798
只看楼主 倒序阅读 楼主  发表于: 2018-02-06
— 本帖被 mjghosts 执行加亮操作(2018-02-06) —
*97年美国宣传单曲,裸盘,收录5首曲目!* >;,gGH  
`qE4U4  
注:独家整理,转载请注明出处!EAC无损整轨(压缩包内含CD图片) Xtkw Z3  
zrrz<dW  
解压密码:www.mjsunny.com
S;8.yj-  
@ u+|=x];  
Tracklist Zi/-~')E  
1 Stranger In Moscow (Radio Edit) 4:04 i:d`{kJ|[  
2 Stranger In Moscow (Tee's Radio Mix) 4:21 '00J~j~  
3 Stranger In Moscow (Charles Roane's Full R&B Mix) 4:39 I8k  
4 Stranger In Moscow (Tee's Light AC Mix) 4:24 Fc'[+L--Q  
5 Stranger In Moscow (Album Version) 5:44 uoCGSXsi  
>A($8=+#x  
f=m/ -mAA  
:B.G)M\  
-k{ Jp/-D  
Exact Audio Copy V1.0 beta 6 from 9. April 2015 XG&K32_fs  
GV8)Kor%  
EAC 抓取日志文件从23. 十一月 2017, 12:18 `WlE| G[  
(pYYkR"  
Michael Jackson / Stranger In Moscow 3Gd0E;3sk~  
*Bw#c j  
使用驱动器  :MATSHITADVD-RAM UJ890AS   Adapter: 1  ID: 1 arj$dAW  
25em[Q:  
读取模式      : 可靠Secure DuNcX$%%  
使用精确流     : 是 ~:2K#q5C  
清空音频缓存    : 否 =kFuJ x)f  
使用 C2 指示器 : 是 ZvH{wt   
,F: =(21  
读取偏移校正:               : 102 o}~3JBn T  
读取 Lead-In 和 Lead-Out : 否 q^Inb)FeN  
用静音填充抓取中丢失偏移的采样       : 是 Mi74Xl i  
去除首尾静音块               : 否 Dh`=ydI5  
在CRC 计算中使用了空样本       : 是 1+^n!$  
已用接口                  : Win NT 及 2000 本地 Win32 接口 %#9P?COs&W  
BD'NuI  
所用输出模式: : 内部 WAV 函数 pqq?*\W&[v  
样本格式    : 44.100 Hz; 16 Bit; 立体声 `[@VxGy_  
R&!]Rl9hf  
Bb_Q_<DTs  
已抓取 CD 的 TOC -t>Z 9  
xp=Zd\5W$  
     音轨 |    起始    |    长度    |  起始扇区  |  结束扇区   ol#yjrv  
    -------------------------------------------- :ln/`_  
      1 |  0:00.00 |  4:06.32 |      0 |  18481 ki4Xp'IK  
      2 |  4:06.32 |  4:23.03 |  18482 |  38209 _eh3qs:  
      3 |  8:29.35 |  4:39.52 |  38210 |  59186 <b'1#Pd>0  
      4 | 13:09.12 |  4:24.25 |  59187 |  79011 UI_v3c3b  
      5 | 17:33.37 |  5:44.23 |  79012 | 104834 01o [!nT  
hWm0$v 1p  
CMFC"eS e  
范围状态及错误 eZ A6D\  
^t7_3%%w  
已选择范围 1NW>wo  
IE|, ~M2  
     文件名 J:\12 Music*音乐\[WAV] Michael Jackson Audios\【Single】1996 Stranger In Moscow (US Promo - ) 5''\CDImage.wav $.;iu2iyo  
~PCTLP~zI  
     峰值电平 100.0 % UYH|?Jw!N  
     抓取速度 5.4 X =#jTo|~u4o  
     范围质量 100.0 % UC.8DaIPN  
     复制 CRC F462C24F 0,bt^a  
     复制成功 gNG.l  
C-_(13S  
没有错误发生 ]Qh[%GD  
e og\pMv  
 b$PT_!d  
AccurateRip 摘要 !Jk(&.  
CX1L(Y[  
音轨  1  精确地校准抓取  1)  [09EF891F]  (AR v2) +ZY2a7uI  
音轨  2  精确地校准抓取  1)  [EBE9A65F]  (AR v2) PWADbu{+  
音轨  3  精确地校准抓取  1)  [F9DDDCB0]  (AR v2) Ry3+/]  
音轨  4  精确地校准抓取  1)  [9155A06E]  (AR v2) <B|n<R<?  
音轨  5  精确地校准抓取  1)  [8563D6C5]  (AR v2) T4%i`<i  
hP'~  
所有音轨精确校准抓取 [ZL r:2+z  
rf1wS*uU+  
状态报告结尾
')1}#V/I  
Z9 ;nC zHm  
链接:https://pan.baidu.com/s/1eT5ipm6 密码: ne !j%9Ar  
此帖售价 15 金钱,已有 9 人购买 [记录] [购买]
购买后,将显示帖子中所有出售内容。
若发现会员采用欺骗的方法获取财富,请立刻举报,我们会对会员处以2-N倍的罚金,严重者封掉ID!
此段为出售的内容,购买后显示
离线mjlove98

发帖
2594
金钱
4045
威望
197
贡献值
123
交易币
2672
只看该作者 1楼 发表于: 2018-02-06
Re:[Single] 1997 Stranger In Moscow (US Promo - ESK 8337) - WAV整轨 ?by幽灵
棒棒哒,谢谢

发帖
2770
金钱
30927
威望
622
贡献值
39
交易币
431
只看该作者 2楼 发表于: 2018-02-07
感谢分享

离线小李

发帖
240
金钱
1125
威望
9
贡献值
8
交易币
212
只看该作者 3楼 发表于: 2018-02-07
Stranger In Moscow (Tee's Light AC Mix) 没发过
离线mich008

发帖
862
金钱
7116
威望
24
贡献值
15
交易币
924
只看该作者 4楼 发表于: 2018-02-07
新年的新发布 收了
离线天地若龙

发帖
179
金钱
186
威望
36
贡献值
5
交易币
200
只看该作者 5楼 发表于: 2018-02-08
谢谢发布~
离线刘123伟

发帖
730
金钱
14901
威望
56
贡献值
15
交易币
791
只看该作者 6楼 发表于: 2018-02-09
666,希望幽灵收的碟越来越棒!
离线mjnet

发帖
381
金钱
30546
威望
104
贡献值
54
交易币
558
只看该作者 7楼 发表于: 2018-02-10
thank you!!!!!!
离线妙脚踹人

发帖
6
金钱
45
威望
2
贡献值
1
交易币
11
只看该作者 8楼 发表于: 2018-02-10
新人哈哈哈
离线amorzm

发帖
3
金钱
38
威望
2
贡献值
1
交易币
8
只看该作者 9楼 发表于: 2018-02-10
感谢大佬分享呀
快速回复
限100 字节
 
上一个 下一个