论坛风格切换切换到宽版
  • 961阅读
  • 16回复

[亲传][Single] 1997 Stranger In Moscow (US Promo - ESK 8337) - WAV整轨 ♬by幽灵 [复制链接]

上一主题 下一主题
离线mjghosts
 

发帖
8261
金钱
219535
威望
9187
贡献值
2734
交易币
4796
只看楼主 倒序阅读 楼主  发表于: 2018-02-06
— 本帖被 mjghosts 执行加亮操作(2018-02-06) —
*97年美国宣传单曲,裸盘,收录5首曲目!* `v$Bib)  
e!*%U= [Q  
注:独家整理,转载请注明出处!EAC无损整轨(压缩包内含CD图片) `_H^k !^  
||sj*K  
解压密码:www.mjsunny.com
t>>\U X  
I`}<1~ue  
Tracklist |MXv  w6P  
1 Stranger In Moscow (Radio Edit) 4:04 #>byP?)n  
2 Stranger In Moscow (Tee's Radio Mix) 4:21 /!Kl  
3 Stranger In Moscow (Charles Roane's Full R&B Mix) 4:39 a0ze7F<(  
4 Stranger In Moscow (Tee's Light AC Mix) 4:24 5U/1Z{  
5 Stranger In Moscow (Album Version) 5:44 35[8XD  
1$Pn;jg:  
;|LS$O1c  
61J01(+|  
mTzzF9n"Y  
Exact Audio Copy V1.0 beta 6 from 9. April 2015 FT* o;&_QS  
-vfV;+3  
EAC 抓取日志文件从23. 十一月 2017, 12:18 z.[ Ok  
P~0d'Oi  
Michael Jackson / Stranger In Moscow zSYWNmj&  
U jC$Mi`O  
使用驱动器  :MATSHITADVD-RAM UJ890AS   Adapter: 1  ID: 1 .JpYZ |  
)^^r\  
读取模式      : 可靠Secure VPf*>ph=  
使用精确流     : 是 h.QKbbDj  
清空音频缓存    : 否 'MM#nQ\(  
使用 C2 指示器 : 是 CD^_>sya  
2&]UFg:8Q  
读取偏移校正:               : 102 5Lt&P 5BY  
读取 Lead-In 和 Lead-Out : 否 @yB!?x  
用静音填充抓取中丢失偏移的采样       : 是 wLU w'Ai  
去除首尾静音块               : 否 @}x)>tqD  
在CRC 计算中使用了空样本       : 是 m{x!uq  
已用接口                  : Win NT 及 2000 本地 Win32 接口 _hMVv&$  
}k<b)I*A  
所用输出模式: : 内部 WAV 函数 X&M4 c5Li  
样本格式    : 44.100 Hz; 16 Bit; 立体声 _QBd3B %  
`U!eh1*b  
[4Glt>Nj>  
已抓取 CD 的 TOC cGsxfwD  
)Ah  
     音轨 |    起始    |    长度    |  起始扇区  |  结束扇区   !j%)nU  
    -------------------------------------------- I g-VSQ  
      1 |  0:00.00 |  4:06.32 |      0 |  18481 fgn*3 pg  
      2 |  4:06.32 |  4:23.03 |  18482 |  38209 VC>KW{&J0  
      3 |  8:29.35 |  4:39.52 |  38210 |  59186 W.zA1S  
      4 | 13:09.12 |  4:24.25 |  59187 |  79011 2c8,H29  
      5 | 17:33.37 |  5:44.23 |  79012 | 104834 vhWj_\m  
oPzt1Y  
nV:.-JR  
范围状态及错误 En5I  
^Y #?@  
已选择范围 zq{L:.#ha  
z%*ZmF^K  
     文件名 J:\12 Music*音乐\[WAV] Michael Jackson Audios\【Single】1996 Stranger In Moscow (US Promo - ) 5''\CDImage.wav :kY][_  
H1hj` '\"<  
     峰值电平 100.0 % og2]B\mN4  
     抓取速度 5.4 X =UTv  
     范围质量 100.0 % n/^wzG  
     复制 CRC F462C24F :j?Lil%R  
     复制成功 Nz5gu.a6{L  
p1G!-\l  
没有错误发生 4V<s"  
Zr oj-3-X~  
LA"`8  
AccurateRip 摘要 v0= ^Hy m  
QXgh[9w G  
音轨  1  精确地校准抓取  1)  [09EF891F]  (AR v2) (AXS QI~y  
音轨  2  精确地校准抓取  1)  [EBE9A65F]  (AR v2) <P}{0Y~@*W  
音轨  3  精确地校准抓取  1)  [F9DDDCB0]  (AR v2) Tv~<W4  
音轨  4  精确地校准抓取  1)  [9155A06E]  (AR v2) 3H@TvV/;f  
音轨  5  精确地校准抓取  1)  [8563D6C5]  (AR v2) .CrahV1G  
rK}*Uwut  
所有音轨精确校准抓取 Fgt/A#`fz  
"%-HZw%X  
状态报告结尾
EJb"/oLla  
2O`uzT$  
链接:https://pan.baidu.com/s/1eT5ipm6 密码: qRTxg%  
此帖售价 15 金钱,已有 9 人购买 [记录] [购买]
购买后,将显示帖子中所有出售内容。
若发现会员采用欺骗的方法获取财富,请立刻举报,我们会对会员处以2-N倍的罚金,严重者封掉ID!
此段为出售的内容,购买后显示
离线mjlove98

发帖
2591
金钱
4047
威望
197
贡献值
123
交易币
2669
只看该作者 1楼 发表于: 2018-02-06
Re:[Single] 1997 Stranger In Moscow (US Promo - ESK 8337) - WAV整轨 ?by幽灵
棒棒哒,谢谢

发帖
2765
金钱
30989
威望
622
贡献值
39
交易币
426
只看该作者 2楼 发表于: 2018-02-07
感谢分享

离线小李

发帖
240
金钱
1125
威望
9
贡献值
8
交易币
212
只看该作者 3楼 发表于: 2018-02-07
Stranger In Moscow (Tee's Light AC Mix) 没发过
离线mich008

发帖
856
金钱
6691
威望
24
贡献值
15
交易币
918
只看该作者 4楼 发表于: 2018-02-07
新年的新发布 收了
离线天地若龙

发帖
175
金钱
190
威望
36
贡献值
5
交易币
196
只看该作者 5楼 发表于: 2018-02-08
谢谢发布~
离线刘123伟

发帖
727
金钱
14872
威望
56
贡献值
15
交易币
788
只看该作者 6楼 发表于: 2018-02-09
666,希望幽灵收的碟越来越棒!
离线mjnet

发帖
381
金钱
30546
威望
104
贡献值
54
交易币
558
只看该作者 7楼 发表于: 2018-02-10
thank you!!!!!!
离线妙脚踹人

发帖
6
金钱
45
威望
2
贡献值
1
交易币
11
只看该作者 8楼 发表于: 2018-02-10
新人哈哈哈
离线amorzm

发帖
3
金钱
38
威望
2
贡献值
1
交易币
8
只看该作者 9楼 发表于: 2018-02-10
感谢大佬分享呀
快速回复
限100 字节
 
上一个 下一个