论坛风格切换切换到宽版
  • 252阅读
  • 12回复

[亲传][Single] 1997 Stranger In Moscow (US Promo - ESK 8337) - WAV整轨 ♬by幽灵 [复制链接]

上一主题 下一主题
离线mjghosts
 

发帖
8240
金钱
216437
威望
9172
贡献值
2721
交易币
4743
只看楼主 倒序阅读 楼主  发表于: 02-06
— 本帖被 mjghosts 执行加亮操作(2018-02-06) —
*97年美国宣传单曲,裸盘,收录5首曲目!* `PZ\3SC'i  
7g5Pc_  
注:独家整理,转载请注明出处!EAC无损整轨(压缩包内含CD图片) eiCmd =O7  
m 7S`u  
解压密码:www.mjsunny.com
O1@3V/.Wu  
p"7]zq]'  
Tracklist d}aMdIF!e  
1 Stranger In Moscow (Radio Edit) 4:04 ykRd+H-t  
2 Stranger In Moscow (Tee's Radio Mix) 4:21 u+y3( 0  
3 Stranger In Moscow (Charles Roane's Full R&B Mix) 4:39 @Gw.U>"!C  
4 Stranger In Moscow (Tee's Light AC Mix) 4:24 8`s*+.LI!  
5 Stranger In Moscow (Album Version) 5:44 ._]*Y`5)d  
Z`f?7/"B  
O6vHo3k  
iMv):1p>8  
:]4s;q:m  
Exact Audio Copy V1.0 beta 6 from 9. April 2015 &1Y7Ne  
2c51kG77E  
EAC 抓取日志文件从23. 十一月 2017, 12:18 39m8iI%w[  
h@]{j_$u  
Michael Jackson / Stranger In Moscow p I.~j]*:{  
0}YadNb7  
使用驱动器  :MATSHITADVD-RAM UJ890AS   Adapter: 1  ID: 1 KYyoN  
7Le- f  
读取模式      : 可靠Secure zJh!Q**  
使用精确流     : 是 +vH#xc\'  
清空音频缓存    : 否 qJJ 5o?'  
使用 C2 指示器 : 是 qY!LzKM0  
fLeHn,*,"  
读取偏移校正:               : 102 tKeozV[V  
读取 Lead-In 和 Lead-Out : 否 O$x +>^  
用静音填充抓取中丢失偏移的采样       : 是 C8i4z  
去除首尾静音块               : 否 nET<u;  
在CRC 计算中使用了空样本       : 是 `9k\~D=D~  
已用接口                  : Win NT 及 2000 本地 Win32 接口 xOr"3;^  
G^z>2P  
所用输出模式: : 内部 WAV 函数 fB&i{_J  
样本格式    : 44.100 Hz; 16 Bit; 立体声 :^qUr`)  
xIV#}z0  
qG2P?DR  
已抓取 CD 的 TOC +;)Xu}  
uKTYb#E7  
     音轨 |    起始    |    长度    |  起始扇区  |  结束扇区   nEP3B '+  
    -------------------------------------------- Z#l6BXK  
      1 |  0:00.00 |  4:06.32 |      0 |  18481 J9f]=1`  
      2 |  4:06.32 |  4:23.03 |  18482 |  38209 $VP\Ac,!  
      3 |  8:29.35 |  4:39.52 |  38210 |  59186 arS@l<79  
      4 | 13:09.12 |  4:24.25 |  59187 |  79011 3[?;s}61  
      5 | 17:33.37 |  5:44.23 |  79012 | 104834 B/mfm 7  
DGw*BN%`  
ynf!1!4  
范围状态及错误 "\]]?&  
90-s@a3B-j  
已选择范围 t0?t Xe.B  
_ /Eg_dQ~@  
     文件名 J:\12 Music*音乐\[WAV] Michael Jackson Audios\【Single】1996 Stranger In Moscow (US Promo - ) 5''\CDImage.wav $Y\7E/T  
d/@P;YN!  
     峰值电平 100.0 % TTWiwPo59  
     抓取速度 5.4 X JuOCOl\  
     范围质量 100.0 % ka{!' ^  
     复制 CRC F462C24F m;TekJXm  
     复制成功 S)'&+HamI  
W59xe&l  
没有错误发生 5zyd;y)|'  
W[e2J&G  
e? |4O< @  
AccurateRip 摘要 0Pt% (^  
y@AUSh;  
音轨  1  精确地校准抓取  1)  [09EF891F]  (AR v2) 2^Z"4t4  
音轨  2  精确地校准抓取  1)  [EBE9A65F]  (AR v2) |TF6&$>d  
音轨  3  精确地校准抓取  1)  [F9DDDCB0]  (AR v2) jfam/LL{V  
音轨  4  精确地校准抓取  1)  [9155A06E]  (AR v2) *Uf>Xr&  
音轨  5  精确地校准抓取  1)  [8563D6C5]  (AR v2) ICc:k%wE7  
sheCwhV  
所有音轨精确校准抓取 9A|9:OdG1  
w6-<HPW<S  
状态报告结尾
6JR FYgI  
i'1 MZ%.  
链接:https://pan.baidu.com/s/1eT5ipm6 密码: t8.3  
此帖售价 15 金钱,已有 6 人购买 [记录] [购买]
购买后,将显示帖子中所有出售内容。
若发现会员采用欺骗的方法获取财富,请立刻举报,我们会对会员处以2-N倍的罚金,严重者封掉ID!
此段为出售的内容,购买后显示
离线mjlove98

发帖
2520
金钱
5968
威望
196
贡献值
122
交易币
2594
只看该作者 1楼 发表于: 02-06
Re:[Single] 1997 Stranger In Moscow (US Promo - ESK 8337) - WAV整轨 ?by幽灵
棒棒哒,谢谢

发帖
2729
金钱
31485
威望
620
贡献值
37
交易币
382
只看该作者 2楼 发表于: 02-07
感谢分享

离线小李

发帖
232
金钱
230
威望
99
贡献值
8
交易币
204
只看该作者 3楼 发表于: 02-07
Stranger In Moscow (Tee's Light AC Mix) 没发过
离线mich008

发帖
824
金钱
5504
威望
24
贡献值
15
交易币
886
只看该作者 4楼 发表于: 02-07
新年的新发布 收了
离线天地若龙

发帖
171
金钱
170
威望
36
贡献值
5
交易币
192
只看该作者 5楼 发表于: 02-08
谢谢发布~
离线刘123伟

发帖
682
金钱
971
威望
54
贡献值
14
交易币
739
只看该作者 6楼 发表于: 02-09
666,希望幽灵收的碟越来越棒!
离线mjnet

发帖
380
金钱
30469
威望
104
贡献值
54
交易币
557
只看该作者 7楼 发表于: 02-10
thank you!!!!!!
离线妙脚踹人

发帖
2
金钱
12
威望
1
贡献值
0
交易币
3
只看该作者 8楼 发表于: 02-10
新人哈哈哈
离线amorzm

发帖
3
金钱
38
威望
2
贡献值
1
交易币
8
只看该作者 9楼 发表于: 02-10
感谢大佬分享呀
快速回复
限100 字节
 
上一个 下一个