论坛风格切换切换到宽版
  • 617阅读
  • 15回复

[亲传][Single] 1997 Stranger In Moscow (US Promo - ESK 8337) - WAV整轨 ♬by幽灵 [复制链接]

上一主题 下一主题
离线mjghosts
 

发帖
8256
金钱
219309
威望
9187
贡献值
2734
交易币
4791
只看楼主 倒序阅读 楼主  发表于: 02-06
— 本帖被 mjghosts 执行加亮操作(2018-02-06) —
*97年美国宣传单曲,裸盘,收录5首曲目!* I!O S&8:u  
j!)p NZW.<  
注:独家整理,转载请注明出处!EAC无损整轨(压缩包内含CD图片) Zx 1z hc  
&Qjl|2  
解压密码:www.mjsunny.com
-`EoTXT*U  
,2bAKa  
Tracklist 7`!( 8  
1 Stranger In Moscow (Radio Edit) 4:04 R2W_/fsG  
2 Stranger In Moscow (Tee's Radio Mix) 4:21 Bx4GFCdifC  
3 Stranger In Moscow (Charles Roane's Full R&B Mix) 4:39 He3zV\X[Z  
4 Stranger In Moscow (Tee's Light AC Mix) 4:24 ^j}sS!p  
5 Stranger In Moscow (Album Version) 5:44 Hc|U@G  
U{(07GNm#  
D7/Bp4I#o  
" SqKS,J  
yVzg<%CR^  
Exact Audio Copy V1.0 beta 6 from 9. April 2015 Qe.kN dT+_  
%=y3  
EAC 抓取日志文件从23. 十一月 2017, 12:18 [d>yo_iB  
5V8C+k)  
Michael Jackson / Stranger In Moscow ?Zp!AV  
pY#EXZ#   
使用驱动器  :MATSHITADVD-RAM UJ890AS   Adapter: 1  ID: 1 3eP0v  
$50"3g!Y  
读取模式      : 可靠Secure yUwgRj  
使用精确流     : 是 Er1u1@  
清空音频缓存    : 否 lA-!~SM v"  
使用 C2 指示器 : 是 *oX]=u&  
e0WSHg=6@  
读取偏移校正:               : 102 |$?Ux,(6  
读取 Lead-In 和 Lead-Out : 否 D6)Cjc>a  
用静音填充抓取中丢失偏移的采样       : 是 <*Kh=v  
去除首尾静音块               : 否 K[>@'P}y  
在CRC 计算中使用了空样本       : 是 ^HlLj#  
已用接口                  : Win NT 及 2000 本地 Win32 接口 fqk Dk  
feI[M;7u  
所用输出模式: : 内部 WAV 函数 ,*nZf|  
样本格式    : 44.100 Hz; 16 Bit; 立体声 /q"d`!h)w  
/#qs(! d  
h-b5   
已抓取 CD 的 TOC \n*7# aX/  
si^4<$Nr%j  
     音轨 |    起始    |    长度    |  起始扇区  |  结束扇区   Hw?2XDv j  
    -------------------------------------------- ckf<N9  
      1 |  0:00.00 |  4:06.32 |      0 |  18481 wTlK4R#  
      2 |  4:06.32 |  4:23.03 |  18482 |  38209 b'7z DZI]  
      3 |  8:29.35 |  4:39.52 |  38210 |  59186 SLdN.4idK  
      4 | 13:09.12 |  4:24.25 |  59187 |  79011 MegE--h  
      5 | 17:33.37 |  5:44.23 |  79012 | 104834 la\zaKC;>  
EjR_-8@FK  
f0 uUbJ5  
范围状态及错误 bJQ5- *F  
~L%Pz0Gg  
已选择范围 #XTY7,@ P  
lLuID  
     文件名 J:\12 Music*音乐\[WAV] Michael Jackson Audios\【Single】1996 Stranger In Moscow (US Promo - ) 5''\CDImage.wav ]y3pE}R  
q} ]'Q -  
     峰值电平 100.0 % ]43alf F#  
     抓取速度 5.4 X 9$Ig~W)  
     范围质量 100.0 % Dt.0YKF  
     复制 CRC F462C24F CY34X2F  
     复制成功 YiD-F7hf.*  
i.3cj1  
没有错误发生  s[3e=N  
>D 97c|?c  
N;uUx#z  
AccurateRip 摘要 MhNFW'_  
*l{yW"Su  
音轨  1  精确地校准抓取  1)  [09EF891F]  (AR v2) $(ewk):  
音轨  2  精确地校准抓取  1)  [EBE9A65F]  (AR v2) EFAGP${F  
音轨  3  精确地校准抓取  1)  [F9DDDCB0]  (AR v2) VU|;:  
音轨  4  精确地校准抓取  1)  [9155A06E]  (AR v2) .x!T+`l>8I  
音轨  5  精确地校准抓取  1)  [8563D6C5]  (AR v2) dt_e  
K^zDNIQU  
所有音轨精确校准抓取 EATu KLP\  
'7*=`q{  
状态报告结尾
w\w(U  
k%P;w1  
链接:https://pan.baidu.com/s/1eT5ipm6 密码: ]3B%8  
此帖售价 15 金钱,已有 9 人购买 [记录] [购买]
购买后,将显示帖子中所有出售内容。
若发现会员采用欺骗的方法获取财富,请立刻举报,我们会对会员处以2-N倍的罚金,严重者封掉ID!
此段为出售的内容,购买后显示
离线mjlove98

发帖
2584
金钱
4090
威望
197
贡献值
123
交易币
2662
只看该作者 1楼 发表于: 02-06
Re:[Single] 1997 Stranger In Moscow (US Promo - ESK 8337) - WAV整轨 ?by幽灵
棒棒哒,谢谢

发帖
2751
金钱
30829
威望
621
贡献值
38
交易币
408
只看该作者 2楼 发表于: 02-07
感谢分享

离线小李

发帖
240
金钱
1125
威望
9
贡献值
8
交易币
212
只看该作者 3楼 发表于: 02-07
Stranger In Moscow (Tee's Light AC Mix) 没发过
离线mich008

发帖
849
金钱
5981
威望
24
贡献值
15
交易币
911
只看该作者 4楼 发表于: 02-07
新年的新发布 收了
离线天地若龙

发帖
175
金钱
190
威望
36
贡献值
5
交易币
196
只看该作者 5楼 发表于: 02-08
谢谢发布~
在线刘123伟

发帖
711
金钱
14449
威望
55
贡献值
14
交易币
768
只看该作者 6楼 发表于: 02-09
666,希望幽灵收的碟越来越棒!
离线mjnet

发帖
381
金钱
30548
威望
104
贡献值
54
交易币
558
只看该作者 7楼 发表于: 02-10
thank you!!!!!!
离线妙脚踹人

发帖
6
金钱
45
威望
2
贡献值
1
交易币
11
只看该作者 8楼 发表于: 02-10
新人哈哈哈
离线amorzm

发帖
3
金钱
38
威望
2
贡献值
1
交易币
8
只看该作者 9楼 发表于: 02-10
感谢大佬分享呀
快速回复
限100 字节
 
上一个 下一个