论坛风格切换切换到宽版
  • 371阅读
  • 13回复

[亲传][Single] 1997 Stranger In Moscow (US Promo - ESK 8337) - WAV整轨 ♬by幽灵 [复制链接]

上一主题 下一主题
离线mjghosts
 

发帖
8242
金钱
217431
威望
9173
贡献值
2722
交易币
4749
只看楼主 倒序阅读 楼主  发表于: 02-06
— 本帖被 mjghosts 执行加亮操作(2018-02-06) —
*97年美国宣传单曲,裸盘,收录5首曲目!* N4qBCBr(  
jp_)NC/~g  
注:独家整理,转载请注明出处!EAC无损整轨(压缩包内含CD图片) Z! /_H($  
7ko}X,aC  
解压密码:www.mjsunny.com
2sqH > fen  
UaXIrBc  
Tracklist FD~uUZTM  
1 Stranger In Moscow (Radio Edit) 4:04 ^Kl<<pUaV  
2 Stranger In Moscow (Tee's Radio Mix) 4:21 _w <6o<@  
3 Stranger In Moscow (Charles Roane's Full R&B Mix) 4:39 QUXr#!rPY|  
4 Stranger In Moscow (Tee's Light AC Mix) 4:24 dqt}:^L*0g  
5 Stranger In Moscow (Album Version) 5:44 8"wavh|g4  
?|<p^:  
=p8iYtI  
>o"0QD  
$L]E< gWrP  
Exact Audio Copy V1.0 beta 6 from 9. April 2015 ~X) 1!Sr  
Eo <N  
EAC 抓取日志文件从23. 十一月 2017, 12:18 a&n}pnEn)  
_~b]/]|z#N  
Michael Jackson / Stranger In Moscow &,=t2_n  
+,0 :L :a  
使用驱动器  :MATSHITADVD-RAM UJ890AS   Adapter: 1  ID: 1 rgrsNr:1  
m-|~tve  
读取模式      : 可靠Secure P/~kX_  
使用精确流     : 是 n@| &jh  
清空音频缓存    : 否 Z= /bD*\g  
使用 C2 指示器 : 是 9|LV x3]  
tv7A&Z)Rh  
读取偏移校正:               : 102 &H@OLyC  
读取 Lead-In 和 Lead-Out : 否 tm280  
用静音填充抓取中丢失偏移的采样       : 是 {nlqQ.jO  
去除首尾静音块               : 否 B<uUf)t  
在CRC 计算中使用了空样本       : 是 #i~2C@]  
已用接口                  : Win NT 及 2000 本地 Win32 接口 Qk.:b  
5PU$D`7it  
所用输出模式: : 内部 WAV 函数 c'r7sI%Yi  
样本格式    : 44.100 Hz; 16 Bit; 立体声 89{@2TXR  
BVpRkUC"  
g0BJj=  
已抓取 CD 的 TOC g5*Zg_G/  
s!d"(K9E  
     音轨 |    起始    |    长度    |  起始扇区  |  结束扇区   b8@gv OB  
    -------------------------------------------- Iq-+X3i  
      1 |  0:00.00 |  4:06.32 |      0 |  18481 cH!w;U b]  
      2 |  4:06.32 |  4:23.03 |  18482 |  38209 ~#b&UR  
      3 |  8:29.35 |  4:39.52 |  38210 |  59186 Nuw_,-h  
      4 | 13:09.12 |  4:24.25 |  59187 |  79011 Lit@ m2{\  
      5 | 17:33.37 |  5:44.23 |  79012 | 104834 gt1W_C\  
|X6]#&g7  
72gQ<Si  
范围状态及错误 eJB !|  
:h>d'+\  
已选择范围 a_UVb'z  
t$sL6|Ww}o  
     文件名 J:\12 Music*音乐\[WAV] Michael Jackson Audios\【Single】1996 Stranger In Moscow (US Promo - ) 5''\CDImage.wav B*+3A!{s  
f#RI&I\  
     峰值电平 100.0 % \4RVJ[2  
     抓取速度 5.4 X x<'(b7{U0  
     范围质量 100.0 % %z6.}4h  
     复制 CRC F462C24F h)EHaaf  
     复制成功 =v4;t'_^  
o#KGENd  
没有错误发生 c?qg i"kS  
_~aFzM  
g">E it*[  
AccurateRip 摘要 ;$|[z<1RdW  
E,I*E{nd9  
音轨  1  精确地校准抓取  1)  [09EF891F]  (AR v2) 0n25{N  
音轨  2  精确地校准抓取  1)  [EBE9A65F]  (AR v2) G3{t{XkV  
音轨  3  精确地校准抓取  1)  [F9DDDCB0]  (AR v2) q=bW!.#?  
音轨  4  精确地校准抓取  1)  [9155A06E]  (AR v2) r<]Db&k   
音轨  5  精确地校准抓取  1)  [8563D6C5]  (AR v2) "4c ?hH:C  
cE}R7,y  
所有音轨精确校准抓取 > Y <in/  
k=,,s(]tx  
状态报告结尾
O5HK2Xg,C  
BKDs3?&  
链接:https://pan.baidu.com/s/1eT5ipm6 密码: Fj\}&H*+  
此帖售价 15 金钱,已有 7 人购买 [记录] [购买]
购买后,将显示帖子中所有出售内容。
若发现会员采用欺骗的方法获取财富,请立刻举报,我们会对会员处以2-N倍的罚金,严重者封掉ID!
此段为出售的内容,购买后显示
离线mjlove98

发帖
2545
金钱
5654
威望
196
贡献值
122
交易币
2619
只看该作者 1楼 发表于: 02-06
Re:[Single] 1997 Stranger In Moscow (US Promo - ESK 8337) - WAV整轨 ?by幽灵
棒棒哒,谢谢

发帖
2735
金钱
31355
威望
620
贡献值
37
交易币
388
只看该作者 2楼 发表于: 02-07
感谢分享

离线小李

发帖
233
金钱
190
威望
99
贡献值
8
交易币
205
只看该作者 3楼 发表于: 02-07
Stranger In Moscow (Tee's Light AC Mix) 没发过
离线mich008

发帖
831
金钱
5816
威望
24
贡献值
15
交易币
893
只看该作者 4楼 发表于: 02-07
新年的新发布 收了
离线天地若龙

发帖
175
金钱
190
威望
36
贡献值
5
交易币
196
只看该作者 5楼 发表于: 02-08
谢谢发布~
离线刘123伟

发帖
684
金钱
406
威望
54
贡献值
14
交易币
741
只看该作者 6楼 发表于: 02-09
666,希望幽灵收的碟越来越棒!
离线mjnet

发帖
380
金钱
30479
威望
104
贡献值
54
交易币
557
只看该作者 7楼 发表于: 02-10
thank you!!!!!!
离线妙脚踹人

发帖
6
金钱
45
威望
2
贡献值
1
交易币
11
只看该作者 8楼 发表于: 02-10
新人哈哈哈
离线amorzm

发帖
3
金钱
38
威望
2
贡献值
1
交易币
8
只看该作者 9楼 发表于: 02-10
感谢大佬分享呀
快速回复
限100 字节
 
上一个 下一个