论坛风格切换切换到宽版
  • 475阅读
  • 9回复

[亲传][Single] 1992 Who Is It (US Promo - ESK 74406) - WAV整轨 ♬by幽灵 [复制链接]

上一主题 下一主题
离线mjghosts
 

发帖
8255
金钱
219228
威望
9187
贡献值
2734
交易币
4790
只看楼主 倒序阅读 楼主  发表于: 04-27
— 本帖被 mjghosts 执行加亮操作(2018-04-27) —
*1992年精品宣传CD,收录4首电台剪辑/混音版!完美抓轨。* x.rOP_rs  
=9UR~-`d\  
注:独家整理,转载请注明出处!EAC无损整轨(压缩包内含CD图片) ~{,U%B  
Vy;f4;I{  
解压密码:www.mjsunny.com
box(FjrZE  
N;cEf7+f  
Tracklist \\80c65-  
1 Who Is It (7" Edit) 4:05 <szD"p|K  
2 Who Is It (The Oprah Winfrey Special Intro) 4:00 zGrUl|j  
3 Who Is It (Patience Edit) 4:01 gxEa?QH  
4 Who Is It (House 7") 3:55
90)0\i+P  
"mbcZ5 _  
6Z~u2&  
z=TaB^-)  
^06f\7A  
0HUSN_3F  
Exact Audio Copy V1.3 from 2. September 2016 &fJ92v?%^S  
/0Q=}:d  
EAC 抓取日志文件从26. 四月 2018, 3:23 5urM,1SQ@  
ji(W+tQ2Y'  
Michael Jackson / Who Is It y+f@8]  
tydD~a  
使用驱动器  :MATSHITADVD-RAM UJ890AS   Adapter: 1  ID: 1 ' uvTOgP,  
hn9'M!*:O  
读取模式      : 可靠Secure $ o rN>M42  
使用精确流     : 是 x`8rR;N!  
清空音频缓存    : 否 yl|?+  
使用 C2 指示器 : 是 4;anoqiG\  
AR9D;YfR~  
读取偏移校正:               : 102 <<#-IsT  
读取 Lead-In 和 Lead-Out : 否 kO:|?}Koc  
用静音填充抓取中丢失偏移的采样       : 是 VC%{qal;q  
去除首尾静音块               : 否 &R$6dG4  
在CRC 计算中使用了空样本       : 是 `#O%ZZ+  
已用接口                  : Win NT 及 2000 本地 Win32 接口 ^0A}iJL  
4 DhGp  
所用输出模式: : 内部 WAV 函数 wf47Ulx  
样本格式    : 44.100 Hz; 16 Bit; 立体声 Dq=&K,5;  
>*DR>U  
DK' ? '  
已抓取 CD 的 TOC w>-@h>Ln  
f uzz3#  
     音轨 |    起始    |    长度    |  起始扇区  |  结束扇区   #G</RYM~m  
    -------------------------------------------- ug?gVK  
      1 |  0:00.00 |  4:02.27 |      0 |  18176 UB%Zq1D|t  
      2 |  4:02.27 |  4:01.70 |  18177 |  36321 ?= G+L0t  
      3 |  8:04.22 |  4:05.40 |  36322 |  54736 d|I_SI1  
      4 | 12:09.62 |  3:53.00 |  54737 |  72211 r"E%U:y3P  
SB1j$6]OR7  
F~bDA~  
范围状态及错误 =*0KH##%$  
! qVuhad.  
已选择范围 GG0H3MSc  
>m$jJlAv8  
     文件名 I:\12 Music*音乐\[WAV] Michael Jackson Audios\CDImage.wav ^`~s#L7  
hD> ]\u  
     峰值电平 100.0 % H^Mfj!S  
     抓取速度 3.2 X ~mF^t7n]  
     范围质量 100.0 % Cy frnU8g  
     复制 CRC A8F0C54B )_&P:;N  
     复制成功 [S~/lm  
+P &S0/  
没有错误发生 .Ei#mG-=}&  
0$qK: ze  
{X\%7Zef+  
AccurateRip 摘要 DL*&e|:q  
pJ3-f k"i  
音轨  1  精确地校准抓取  1)  [E7E8EDA3]  (AR v2) uv&4 A,h  
音轨  2  精确地校准抓取  1)  [850A1D5A]  (AR v2) 8DuD1hZq  
音轨  3  精确地校准抓取  1)  [912F8E00]  (AR v2)  nb\pBl  
音轨  4  精确地校准抓取  1)  [C4B72E86]  (AR v2) O@>ZYA%  
nK)hv95i_  
所有音轨精确校准抓取 arc{:u.K  
`)tIXMn  
状态报告结尾 6VtN4c .Q  
]P96-x  
---- CUETools DB Plugin V2.1.6 d f j;e%H  
+xuj]J  
[CTDB TOCID: zNG20KHRDOEvX4igbt5TmwnFPtE-] found 1pz-jo,2'  
Submit result: zNG20KHRDOEvX4igbt5TmwnFPtE- has been confirmed LMNmG]#!  
Track | CTDB Status %R<xe.X  
  1   | (1/1) Accurately ripped A*{CT>  
  2   | (1/1) Accurately ripped @V Sr'?7-  
  3   | (1/1) Accurately ripped GHO6$iM)[  
  4   | (1/1) Accurately ripped
w3&L 6|,  
;?y~ h$  
链接:https://pan.baidu.com/s/1wXNDtys9flRNrwiT4uH3gQ 密码: wlEK"kKU  
此帖售价 45 金钱,已有 6 人购买 [记录] [购买]
购买后,将显示帖子中所有出售内容。
若发现会员采用欺骗的方法获取财富,请立刻举报,我们会对会员处以2-N倍的罚金,严重者封掉ID!
此段为出售的内容,购买后显示
2条评分金钱+10威望+2
MJ守护者 威望 +2 - 07-23
MJ守护者 金钱 +10 - 07-23
离线mjlove98

发帖
2582
金钱
4092
威望
197
贡献值
123
交易币
2660
只看该作者 1楼 发表于: 04-27
Re:[Single] 1992 Who Is It (US Promo - ESK 74406) - WAV整轨 ?by幽灵
谢谢楼主了
离线小李

发帖
240
金钱
1125
威望
9
贡献值
8
交易币
212
只看该作者 2楼 发表于: 04-27
第3首有可能没听过
离线刘123伟

发帖
705
金钱
1305
威望
54
贡献值
14
交易币
762
只看该作者 3楼 发表于: 04-28
感谢幽灵大佬的分享,支持下!!!
离线mich008

发帖
847
金钱
5863
威望
24
贡献值
15
交易币
909
只看该作者 4楼 发表于: 04-28
又有新发布 支持一个
离线lifan_npl

发帖
2209
金钱
31653
威望
851
贡献值
428
交易币
2582
只看该作者 5楼 发表于: 04-29
谢谢分享  一直想买一张这个实体cd
我的淘宝:
http://shop63152617.taobao.com  
离线Moses

发帖
5062
金钱
37320
威望
2951
贡献值
1521
交易币
2748
只看该作者 6楼 发表于: 05-03
美版普遍声音大 ]oC"gWDYu  
http://blog.sina.com.cn/mjjcfc

发帖
2748
金钱
30802
威望
621
贡献值
38
交易币
405
只看该作者 7楼 发表于: 06-28
感谢分享

离线flash

发帖
271
金钱
530
威望
81
贡献值
0
交易币
271
只看该作者 8楼 发表于: 08-09
又有新发布 支持一个
离线xiaoyin258

发帖
259
金钱
4337
威望
22
贡献值
27
交易币
368
只看该作者 9楼 发表于: 08-25
幽灵资源大神,你有没有尾箱演唱会现场的高清音频资源吗 ?我特别需要JAM.,DANGEROUS BILLIE JEAN的资源
快速回复
限100 字节
 
上一个 下一个