论坛风格切换切换到宽版
  • 308阅读
  • 6回复

[亲传][Single] 1992 Who Is It (US Promo - ESK 74406) - WAV整轨 ♬by幽灵 [复制链接]

上一主题 下一主题
离线mjghosts
 

发帖
8242
金钱
217441
威望
9173
贡献值
2722
交易币
4749
只看楼主 倒序阅读 楼主  发表于: 04-27
— 本帖被 mjghosts 执行加亮操作(2018-04-27) —
*1992年精品宣传CD,收录4首电台剪辑/混音版!完美抓轨。* f(.6|mPp  
Ns~ g+C9  
注:独家整理,转载请注明出处!EAC无损整轨(压缩包内含CD图片) B%(K0`G#X  
:+1bg&wQ  
解压密码:www.mjsunny.com
PIpWa$b  
e18T(g_i  
Tracklist SE-} XI\  
1 Who Is It (7" Edit) 4:05 : (RL8  
2 Who Is It (The Oprah Winfrey Special Intro) 4:00 r5Wkc$  
3 Who Is It (Patience Edit) 4:01 %!D_q ~"H  
4 Who Is It (House 7") 3:55
"&| lO|  
|#!eMJ&0  
MQjG<O\  
% d4+Ctrp-  
HarYV :  
KC#kss  
Exact Audio Copy V1.3 from 2. September 2016 \=$EmHF  
Ax :3}  
EAC 抓取日志文件从26. 四月 2018, 3:23 X v`2hf  
m+;B!4 6  
Michael Jackson / Who Is It ~W]#9&yQ  
Kx(76_XD  
使用驱动器  :MATSHITADVD-RAM UJ890AS   Adapter: 1  ID: 1 Z[DetRc-  
R4z<Xf:!  
读取模式      : 可靠Secure u|]mcZ,ZW  
使用精确流     : 是 fxLE]VJQ  
清空音频缓存    : 否 mq|A8>g  
使用 C2 指示器 : 是 q\ \8b{~  
knNhN=hG+  
读取偏移校正:               : 102 pXpLL_  
读取 Lead-In 和 Lead-Out : 否 "/ a*[_sV  
用静音填充抓取中丢失偏移的采样       : 是 $ g1wK}B3  
去除首尾静音块               : 否 !9e\O5PmO  
在CRC 计算中使用了空样本       : 是 Y1yvI  
已用接口                  : Win NT 及 2000 本地 Win32 接口 WcZo+r  
I;Z`!u:+  
所用输出模式: : 内部 WAV 函数 & 8:iB {n  
样本格式    : 44.100 Hz; 16 Bit; 立体声  OGE#wG"S  
@=MZ6q  
a\[fC=]r:  
已抓取 CD 的 TOC  ycAi(K  
9rf|r 3  
     音轨 |    起始    |    长度    |  起始扇区  |  结束扇区   :+gCO!9Y  
    -------------------------------------------- D\_*,Fc  
      1 |  0:00.00 |  4:02.27 |      0 |  18176 t+4%,n f_1  
      2 |  4:02.27 |  4:01.70 |  18177 |  36321 }v(H E%~}  
      3 |  8:04.22 |  4:05.40 |  36322 |  54736 ?GMeA}j  
      4 | 12:09.62 |  3:53.00 |  54737 |  72211 ~_l: b  
;uWI l  
i]^*J1a  
范围状态及错误 ?H7p6m u  
)>A%FL9  
已选择范围  d7-F&!sQ  
])ZJ1QL1  
     文件名 I:\12 Music*音乐\[WAV] Michael Jackson Audios\CDImage.wav V{aIhH>P  
RV@(&eM  
     峰值电平 100.0 % {~p %\  
     抓取速度 3.2 X V9 t:JY  
     范围质量 100.0 % PL B=%[  
     复制 CRC A8F0C54B WAXrA$:3J  
     复制成功 ' xq5tRg>  
I Y-5/  
没有错误发生 \Hx#p`B%  
Yy:sZJ  
j{+I~|ZB,  
AccurateRip 摘要 4>eg@sN  
_5 -"<  
音轨  1  精确地校准抓取  1)  [E7E8EDA3]  (AR v2) )n61IqrW  
音轨  2  精确地校准抓取  1)  [850A1D5A]  (AR v2) 9K_HcLO%y  
音轨  3  精确地校准抓取  1)  [912F8E00]  (AR v2) J\},o|WI  
音轨  4  精确地校准抓取  1)  [C4B72E86]  (AR v2) W| eG}`  
438> )=  
所有音轨精确校准抓取 0a;zT O/"v  
_dY}86{  
状态报告结尾 6H9]]Unju  
0 N^V&k   
---- CUETools DB Plugin V2.1.6 Kqjeqr@)  
*]k"H`JoFC  
[CTDB TOCID: zNG20KHRDOEvX4igbt5TmwnFPtE-] found 1 1'Tt!  
Submit result: zNG20KHRDOEvX4igbt5TmwnFPtE- has been confirmed !pXz-hxKT  
Track | CTDB Status Tj#XsD?J  
  1   | (1/1) Accurately ripped r3)t5P*_  
  2   | (1/1) Accurately ripped Lr&tpB<  
  3   | (1/1) Accurately ripped h)8_sC  
  4   | (1/1) Accurately ripped
vUA,`  
: Dlk `?  
链接:https://pan.baidu.com/s/1wXNDtys9flRNrwiT4uH3gQ 密码: %Z|*!A+wN5  
此帖售价 45 金钱,已有 4 人购买 [记录] [购买]
购买后,将显示帖子中所有出售内容。
若发现会员采用欺骗的方法获取财富,请立刻举报,我们会对会员处以2-N倍的罚金,严重者封掉ID!
此段为出售的内容,购买后显示
离线mjlove98

发帖
2549
金钱
5647
威望
197
贡献值
123
交易币
2627
只看该作者 1楼 发表于: 04-27
Re:[Single] 1992 Who Is It (US Promo - ESK 74406) - WAV整轨 ?by幽灵
谢谢楼主了
离线小李

发帖
233
金钱
190
威望
99
贡献值
8
交易币
205
只看该作者 2楼 发表于: 04-27
第3首有可能没听过
离线刘123伟

发帖
684
金钱
406
威望
54
贡献值
14
交易币
741
只看该作者 3楼 发表于: 04-28
感谢幽灵大佬的分享,支持下!!!
离线mich008

发帖
831
金钱
5826
威望
24
贡献值
15
交易币
893
只看该作者 4楼 发表于: 04-28
又有新发布 支持一个
离线lifan_npl

发帖
2185
金钱
16546
威望
783
贡献值
348
交易币
2542
只看该作者 5楼 发表于: 04-29
谢谢分享  一直想买一张这个实体cd
我的淘宝:
http://shop63152617.taobao.com  
离线Moses

发帖
5060
金钱
37310
威望
2951
贡献值
1521
交易币
2746
只看该作者 6楼 发表于: 05-03
美版普遍声音大 ax^${s|{-  
http://blog.sina.com.cn/mjjcfc
快速回复
限100 字节
 
上一个 下一个