论坛风格切换切换到宽版
  • 905阅读
  • 10回复

[亲传][Single] 1992 Who Is It (US Promo - ESK 74406) - WAV整轨 ♬by幽灵 [复制链接]

上一主题 下一主题
离线mjghosts
 

发帖
8262
金钱
219666
威望
9187
贡献值
2734
交易币
4797
只看楼主 倒序阅读 楼主  发表于: 2018-04-27
— 本帖被 mjghosts 执行加亮操作(2018-04-27) —
*1992年精品宣传CD,收录4首电台剪辑/混音版!完美抓轨。* kN6 jX  
xXfv({  
注:独家整理,转载请注明出处!EAC无损整轨(压缩包内含CD图片) w '9!%mr  
4"UH~A;^  
解压密码:www.mjsunny.com
z<%dWz  
NLu[<u U*  
Tracklist UXh%DOq   
1 Who Is It (7" Edit) 4:05 \58bz<u"  
2 Who Is It (The Oprah Winfrey Special Intro) 4:00 %`~+^{Wp  
3 Who Is It (Patience Edit) 4:01 abv*X 1  
4 Who Is It (House 7") 3:55
]~~G<Yh:=  
WX]O1Y  
{{B'65Wu  
j5og}P q:  
A6J:!sY4A  
vexF|'!}0#  
Exact Audio Copy V1.3 from 2. September 2016 D?UURURf  
q#I'@Jbj  
EAC 抓取日志文件从26. 四月 2018, 3:23 s diWQv  
%IE;'aa }  
Michael Jackson / Who Is It +> d;%K  
?B$L'i[l  
使用驱动器  :MATSHITADVD-RAM UJ890AS   Adapter: 1  ID: 1 |(2#KMEWa  
r NKeY48\  
读取模式      : 可靠Secure :-lq Yd5^  
使用精确流     : 是 &<_q00F  
清空音频缓存    : 否 ?'|GGtvm  
使用 C2 指示器 : 是 wq,&0P-v  
{O).!  
读取偏移校正:               : 102 zHg=K /  
读取 Lead-In 和 Lead-Out : 否 =Ti@Y  
用静音填充抓取中丢失偏移的采样       : 是 Z__fwv.X[  
去除首尾静音块               : 否 (x@J@ GP*  
在CRC 计算中使用了空样本       : 是 BFP@Yn~k  
已用接口                  : Win NT 及 2000 本地 Win32 接口 3djw  
Zn40NKYc  
所用输出模式: : 内部 WAV 函数 [`E_/95  
样本格式    : 44.100 Hz; 16 Bit; 立体声 m@*aA}69  
9!_LsQ\)  
;"e55|d9I  
已抓取 CD 的 TOC nGK=Nf.5  
 lA4J#  
     音轨 |    起始    |    长度    |  起始扇区  |  结束扇区   Au/'|%2#(  
    -------------------------------------------- 1cMdoQ  
      1 |  0:00.00 |  4:02.27 |      0 |  18176 Bd;EI)JT  
      2 |  4:02.27 |  4:01.70 |  18177 |  36321 1GLb^:~A  
      3 |  8:04.22 |  4:05.40 |  36322 |  54736 Oq3t-omXS  
      4 | 12:09.62 |  3:53.00 |  54737 |  72211 =KnHa.%  
X.q#ZpK  
3z#fFP@E  
范围状态及错误 ~aL?{kb+  
:N xksL^  
已选择范围 )^E6VD&6  
w %6 L"  
     文件名 I:\12 Music*音乐\[WAV] Michael Jackson Audios\CDImage.wav t +CU  
+]VW[ $W  
     峰值电平 100.0 % AIA4c"w.EO  
     抓取速度 3.2 X )f%Q7  
     范围质量 100.0 % &v+Hl ^  
     复制 CRC A8F0C54B + j6^g*  
     复制成功 o-]8)G>~M  
_eaK:EW  
没有错误发生 qNbgN{4  
X,+N/ nku  
QPsvc6ds  
AccurateRip 摘要 BH?fFe&J:`  
f<2<8xS  
音轨  1  精确地校准抓取  1)  [E7E8EDA3]  (AR v2) ~^"s.Lsb  
音轨  2  精确地校准抓取  1)  [850A1D5A]  (AR v2) >U[YSsFt6  
音轨  3  精确地校准抓取  1)  [912F8E00]  (AR v2) C]%}L%,  
音轨  4  精确地校准抓取  1)  [C4B72E86]  (AR v2) l#%G~c8x  
;"D I)hd z  
所有音轨精确校准抓取 a6.0 $'  
8AVG pL  
状态报告结尾 e't1.%w  
=OF]xpI'&a  
---- CUETools DB Plugin V2.1.6 *f( e`3E  
R?GF,s<j  
[CTDB TOCID: zNG20KHRDOEvX4igbt5TmwnFPtE-] found _q dLA  
Submit result: zNG20KHRDOEvX4igbt5TmwnFPtE- has been confirmed 1(12`3  
Track | CTDB Status -S%)2(f^  
  1   | (1/1) Accurately ripped N`%f+eT(  
  2   | (1/1) Accurately ripped 3?R QPP  
  3   | (1/1) Accurately ripped S0<m><|kl  
  4   | (1/1) Accurately ripped
P?P))UB5  
dECH/vJ^  
链接:https://pan.baidu.com/s/1wXNDtys9flRNrwiT4uH3gQ 密码: p-t*?p C  
此帖售价 45 金钱,已有 6 人购买 [记录] [购买]
购买后,将显示帖子中所有出售内容。
若发现会员采用欺骗的方法获取财富,请立刻举报,我们会对会员处以2-N倍的罚金,严重者封掉ID!
此段为出售的内容,购买后显示
2条评分金钱+10威望+2
MJ守护者 威望 +2 - 2018-07-23
MJ守护者 金钱 +10 - 2018-07-23
离线mjlove98

发帖
2594
金钱
4045
威望
197
贡献值
123
交易币
2672
只看该作者 1楼 发表于: 2018-04-27
Re:[Single] 1992 Who Is It (US Promo - ESK 74406) - WAV整轨 ?by幽灵
谢谢楼主了
离线小李

发帖
240
金钱
1125
威望
9
贡献值
8
交易币
212
只看该作者 2楼 发表于: 2018-04-27
第3首有可能没听过
离线刘123伟

发帖
730
金钱
14896
威望
56
贡献值
15
交易币
791
只看该作者 3楼 发表于: 2018-04-28
感谢幽灵大佬的分享,支持下!!!
离线mich008

发帖
859
金钱
6992
威望
24
贡献值
15
交易币
921
只看该作者 4楼 发表于: 2018-04-28
又有新发布 支持一个
离线lifan_npl

发帖
2225
金钱
31745
威望
853
贡献值
430
交易币
2606
只看该作者 5楼 发表于: 2018-04-29
谢谢分享  一直想买一张这个实体cd
我的淘宝店:
http://shop63152617.taobao.com  
离线Moses

发帖
5062
金钱
37320
威望
2951
贡献值
1521
交易币
2748
只看该作者 6楼 发表于: 2018-05-03
美版普遍声音大 r{l(O,|e  
http://blog.sina.com.cn/mjjcfc

发帖
2769
金钱
30908
威望
622
贡献值
39
交易币
430
只看该作者 7楼 发表于: 2018-06-28
感谢分享

离线flash

发帖
279
金钱
480
威望
81
贡献值
0
交易币
279
只看该作者 8楼 发表于: 2018-08-09
又有新发布 支持一个
离线xiaoyin258

发帖
264
金钱
4338
威望
22
贡献值
27
交易币
373
只看该作者 9楼 发表于: 2018-08-25
幽灵资源大神,你有没有尾箱演唱会现场的高清音频资源吗 ?我特别需要JAM.,DANGEROUS BILLIE JEAN的资源
快速回复
限100 字节
 
上一个 下一个