论坛风格切换切换到宽版
  • 367阅读
  • 7回复

[亲传][Single] 1992 Who Is It (US Promo - ESK 74406) - WAV整轨 ♬by幽灵 [复制链接]

上一主题 下一主题
离线mjghosts
 

发帖
8248
金钱
217821
威望
9174
贡献值
2723
交易币
4759
只看楼主 倒序阅读 楼主  发表于: 04-27
— 本帖被 mjghosts 执行加亮操作(2018-04-27) —
*1992年精品宣传CD,收录4首电台剪辑/混音版!完美抓轨。* q8uq%wf  
=:t<!dp  
注:独家整理,转载请注明出处!EAC无损整轨(压缩包内含CD图片) A%X=yqY  
i/Nc)kKL  
解压密码:www.mjsunny.com
8Zy*#[-  
7VskZbj\  
Tracklist 0~P]Fw^w  
1 Who Is It (7" Edit) 4:05 4`Zo Ar-5|  
2 Who Is It (The Oprah Winfrey Special Intro) 4:00 tvBLfqIr  
3 Who Is It (Patience Edit) 4:01 !E|R3e X_  
4 Who Is It (House 7") 3:55
9g# 62oIg  
s>1\bio*I  
72/ bC  
@BPQ >  
ROvY,-?  
hTWZIW@  
Exact Audio Copy V1.3 from 2. September 2016 e z_c;  
feH&Ug4?G  
EAC 抓取日志文件从26. 四月 2018, 3:23 yMzy!b Ky  
l>L?T#v!_  
Michael Jackson / Who Is It 2Nx:Y+[  
xA<-'8ST  
使用驱动器  :MATSHITADVD-RAM UJ890AS   Adapter: 1  ID: 1 .JTRFk{W  
.3jijc j  
读取模式      : 可靠Secure )2 q r^)  
使用精确流     : 是 T XT<6(  
清空音频缓存    : 否 U#- 5",X|  
使用 C2 指示器 : 是 X\w["! B  
Nq^o8q_  
读取偏移校正:               : 102 ueg%D +u  
读取 Lead-In 和 Lead-Out : 否 lxbC 7?O  
用静音填充抓取中丢失偏移的采样       : 是 `c|H^*RC  
去除首尾静音块               : 否 L]Xx-S  
在CRC 计算中使用了空样本       : 是 c6=XJvz  
已用接口                  : Win NT 及 2000 本地 Win32 接口 DZLEx{cm  
YXmy-o >  
所用输出模式: : 内部 WAV 函数 [Jjo H1E@  
样本格式    : 44.100 Hz; 16 Bit; 立体声 Cs,Cb2[  
g z uWhQo  
fZS'e{V  
已抓取 CD 的 TOC gNZ"Kr o6  
=3rf}bl2  
     音轨 |    起始    |    长度    |  起始扇区  |  结束扇区   U#sv.r/L}3  
    -------------------------------------------- j9w{=( MV  
      1 |  0:00.00 |  4:02.27 |      0 |  18176 LaZ @4/z!  
      2 |  4:02.27 |  4:01.70 |  18177 |  36321 \d:Uq5d)0  
      3 |  8:04.22 |  4:05.40 |  36322 |  54736 qlg.\H:W~  
      4 | 12:09.62 |  3:53.00 |  54737 |  72211 0"N4WH O  
Lpnw(r9Y  
ACFEM9 [=  
范围状态及错误 `K[r5;QFKf  
0R0_UvsXU  
已选择范围 !Htl e %  
V`i(vC(  
     文件名 I:\12 Music*音乐\[WAV] Michael Jackson Audios\CDImage.wav +# !?+'A  
_{}^]ZB  
     峰值电平 100.0 % >}C:EnECy  
     抓取速度 3.2 X  n$>_2v  
     范围质量 100.0 % }s#4m  
     复制 CRC A8F0C54B unnuSW#v=  
     复制成功 W>,D$  
zP@\rZ@4  
没有错误发生 ,?%o ~  
>m=XqtP  
RaymSh  
AccurateRip 摘要 8Bxb~*  
bHTTxZ-%  
音轨  1  精确地校准抓取  1)  [E7E8EDA3]  (AR v2) `}}|QP5xG  
音轨  2  精确地校准抓取  1)  [850A1D5A]  (AR v2) e;"%h%'  
音轨  3  精确地校准抓取  1)  [912F8E00]  (AR v2) $z5C+K@  
音轨  4  精确地校准抓取  1)  [C4B72E86]  (AR v2) ?8<R)hJa<  
Cs,t:ajP  
所有音轨精确校准抓取 C [8='i26  
78]( ZYJV  
状态报告结尾 2e({%P@2?  
@ "C P@^  
---- CUETools DB Plugin V2.1.6 =feVT2*  
WxtB:7J  
[CTDB TOCID: zNG20KHRDOEvX4igbt5TmwnFPtE-] found 7|)K!  
Submit result: zNG20KHRDOEvX4igbt5TmwnFPtE- has been confirmed ~(^?M  
Track | CTDB Status DM(c :+K-  
  1   | (1/1) Accurately ripped 4X>=UO``L  
  2   | (1/1) Accurately ripped r+h$]OJ  
  3   | (1/1) Accurately ripped  LD}<|  
  4   | (1/1) Accurately ripped
-TNb=2en(  
iR'Pc3   
链接:https://pan.baidu.com/s/1wXNDtys9flRNrwiT4uH3gQ 密码: ]Lm?3$u$  
此帖售价 45 金钱,已有 5 人购买 [记录] [购买]
购买后,将显示帖子中所有出售内容。
若发现会员采用欺骗的方法获取财富,请立刻举报,我们会对会员处以2-N倍的罚金,严重者封掉ID!
此段为出售的内容,购买后显示
离线mjlove98

发帖
2562
金钱
4352
威望
197
贡献值
123
交易币
2640
只看该作者 1楼 发表于: 04-27
Re:[Single] 1992 Who Is It (US Promo - ESK 74406) - WAV整轨 ?by幽灵
谢谢楼主了
离线小李

发帖
238
金钱
1115
威望
9
贡献值
8
交易币
210
只看该作者 2楼 发表于: 04-27
第3首有可能没听过
离线刘123伟

发帖
692
金钱
1114
威望
55
贡献值
15
交易币
753
只看该作者 3楼 发表于: 04-28
感谢幽灵大佬的分享,支持下!!!
离线mich008

发帖
836
金钱
5803
威望
24
贡献值
15
交易币
898
只看该作者 4楼 发表于: 04-28
又有新发布 支持一个
离线lifan_npl

发帖
2193
金钱
31613
威望
851
贡献值
428
交易币
2566
只看该作者 5楼 发表于: 04-29
谢谢分享  一直想买一张这个实体cd
我的淘宝:
http://shop63152617.taobao.com  
离线Moses

发帖
5062
金钱
37320
威望
2951
贡献值
1521
交易币
2748
只看该作者 6楼 发表于: 05-03
美版普遍声音大 }}bMq.Q'  
http://blog.sina.com.cn/mjjcfc

发帖
2739
金钱
30945
威望
620
贡献值
37
交易币
392
只看该作者 7楼 发表于: 06-28
感谢分享

快速回复
限100 字节
 
上一个 下一个