论坛风格切换切换到宽版
  • 309阅读
  • 6回复

[亲传][Single] 1992 Who Is It (US Promo - ESK 74406) - WAV整轨 ♬by幽灵 [复制链接]

上一主题 下一主题
离线mjghosts
 

发帖
8242
金钱
217441
威望
9173
贡献值
2722
交易币
4749
只看楼主 倒序阅读 楼主  发表于: 04-27
— 本帖被 mjghosts 执行加亮操作(2018-04-27) —
*1992年精品宣传CD,收录4首电台剪辑/混音版!完美抓轨。* kG!hqj  
+<F3}]]  
注:独家整理,转载请注明出处!EAC无损整轨(压缩包内含CD图片) a4~B  
(E00T`@t0i  
解压密码:www.mjsunny.com
(W:@v&p  
r.#r!.6 q  
Tracklist -;_"Y]#  
1 Who Is It (7" Edit) 4:05 H<i!C|AF  
2 Who Is It (The Oprah Winfrey Special Intro) 4:00 T{+a48,;  
3 Who Is It (Patience Edit) 4:01 c8uw_6#r(D  
4 Who Is It (House 7") 3:55
Y3:HQ0w`|  
,>6a)2xh  
u]Vt>Ywu  
>_yL@^  
Bv@p9 ] n  
95@u|#n  
Exact Audio Copy V1.3 from 2. September 2016 HLPRTta.  
wQy~5+LE  
EAC 抓取日志文件从26. 四月 2018, 3:23 B;=Z^$%T  
^z)De+,!4  
Michael Jackson / Who Is It ]`x+wWe  
}9\6!GY0  
使用驱动器  :MATSHITADVD-RAM UJ890AS   Adapter: 1  ID: 1 U~ a\v8l~  
d<j`=QH  
读取模式      : 可靠Secure *Ts$Hj[  
使用精确流     : 是 mTX:?>  
清空音频缓存    : 否 )GG9[%H!  
使用 C2 指示器 : 是 )JTQZ,f3]  
dX1jn;7  
读取偏移校正:               : 102 Ojl X<y.  
读取 Lead-In 和 Lead-Out : 否 s;oe Qa}TB  
用静音填充抓取中丢失偏移的采样       : 是 aB;f*x  
去除首尾静音块               : 否 y ]@JkF(  
在CRC 计算中使用了空样本       : 是 a~LA&>@  
已用接口                  : Win NT 及 2000 本地 Win32 接口 nm<VcCc  
&)Qq%\EP4  
所用输出模式: : 内部 WAV 函数 $<)]~* *K  
样本格式    : 44.100 Hz; 16 Bit; 立体声 dI%jR&.e;  
.E^w, o  
%eofG]VM<  
已抓取 CD 的 TOC +i!HMyM  
tc`3-goX  
     音轨 |    起始    |    长度    |  起始扇区  |  结束扇区   \`~YW<D  
    -------------------------------------------- |0}Xb|+  
      1 |  0:00.00 |  4:02.27 |      0 |  18176 !$1qnsz  
      2 |  4:02.27 |  4:01.70 |  18177 |  36321 rAHP5dx:  
      3 |  8:04.22 |  4:05.40 |  36322 |  54736 S[$9_Jf  
      4 | 12:09.62 |  3:53.00 |  54737 |  72211 ~x9J&*zxM  
TE o  
n[!QrEeR},  
范围状态及错误 c.LRS$o/j  
V#$QKn`;  
已选择范围 Ws3z-U>j  
"4WnDd 5"  
     文件名 I:\12 Music*音乐\[WAV] Michael Jackson Audios\CDImage.wav p<dw  C"z  
XQ[\K6X5  
     峰值电平 100.0 % qk'&:A  
     抓取速度 3.2 X t*Ro2QZ  
     范围质量 100.0 % *>qc6d@'  
     复制 CRC A8F0C54B um$U3'0e  
     复制成功 }03?eWk/y  
']2d^'TH  
没有错误发生 J|U~W kW  
Y'P^]Q=}_#  
_Fj\0S"  
AccurateRip 摘要 l<=k#d  
+fozE?  
音轨  1  精确地校准抓取  1)  [E7E8EDA3]  (AR v2) (L4C1h_]9  
音轨  2  精确地校准抓取  1)  [850A1D5A]  (AR v2) dMjQV&  
音轨  3  精确地校准抓取  1)  [912F8E00]  (AR v2) <<qzZ+u  
音轨  4  精确地校准抓取  1)  [C4B72E86]  (AR v2) `r=^{Y  
qrOesSdc  
所有音轨精确校准抓取 &~.|9P/45  
{be|G^.c  
状态报告结尾 jZ5ac=D&I  
|iSwG=&  
---- CUETools DB Plugin V2.1.6 4>Ht_B<<  
z/5TYv)S  
[CTDB TOCID: zNG20KHRDOEvX4igbt5TmwnFPtE-] found UZiL NKc  
Submit result: zNG20KHRDOEvX4igbt5TmwnFPtE- has been confirmed rjfWty%6pX  
Track | CTDB Status Y~( 8<`^  
  1   | (1/1) Accurately ripped K43`$  
  2   | (1/1) Accurately ripped ~|{e"!(}  
  3   | (1/1) Accurately ripped Ek06=2i  
  4   | (1/1) Accurately ripped
6x!iL\Y~  
ed/ "O gA  
链接:https://pan.baidu.com/s/1wXNDtys9flRNrwiT4uH3gQ 密码: f0g_Gn $  
此帖售价 45 金钱,已有 4 人购买 [记录] [购买]
购买后,将显示帖子中所有出售内容。
若发现会员采用欺骗的方法获取财富,请立刻举报,我们会对会员处以2-N倍的罚金,严重者封掉ID!
此段为出售的内容,购买后显示
离线mjlove98

发帖
2549
金钱
5647
威望
197
贡献值
123
交易币
2627
只看该作者 1楼 发表于: 04-27
Re:[Single] 1992 Who Is It (US Promo - ESK 74406) - WAV整轨 ?by幽灵
谢谢楼主了
离线小李

发帖
233
金钱
190
威望
99
贡献值
8
交易币
205
只看该作者 2楼 发表于: 04-27
第3首有可能没听过
离线刘123伟

发帖
684
金钱
416
威望
54
贡献值
14
交易币
741
只看该作者 3楼 发表于: 04-28
感谢幽灵大佬的分享,支持下!!!
离线mich008

发帖
831
金钱
5836
威望
24
贡献值
15
交易币
893
只看该作者 4楼 发表于: 04-28
又有新发布 支持一个
离线lifan_npl

发帖
2185
金钱
16546
威望
783
贡献值
348
交易币
2542
只看该作者 5楼 发表于: 04-29
谢谢分享  一直想买一张这个实体cd
我的淘宝:
http://shop63152617.taobao.com  
离线Moses

发帖
5060
金钱
37310
威望
2951
贡献值
1521
交易币
2746
只看该作者 6楼 发表于: 05-03
美版普遍声音大 SvQ|SKE':  
http://blog.sina.com.cn/mjjcfc
快速回复
限100 字节
 
上一个 下一个