论坛风格切换切换到宽版
  • 610阅读
  • 10回复

[亲传][Single] 1992 Who Is It (US Promo - ESK 74406) - WAV整轨 ♬by幽灵 [复制链接]

上一主题 下一主题
离线mjghosts
 

发帖
8257
金钱
219460
威望
9187
贡献值
2734
交易币
4792
只看楼主 倒序阅读 楼主  发表于: 04-27
— 本帖被 mjghosts 执行加亮操作(2018-04-27) —
*1992年精品宣传CD,收录4首电台剪辑/混音版!完美抓轨。* Yhu 6QyRV  
|` gSkv  
注:独家整理,转载请注明出处!EAC无损整轨(压缩包内含CD图片) <t[WHDO`  
Tdvw7I-q  
解压密码:www.mjsunny.com
QF 2Eg  
0^htwec!  
Tracklist {J-kcD!bz`  
1 Who Is It (7" Edit) 4:05 Dg]( ?^  
2 Who Is It (The Oprah Winfrey Special Intro) 4:00 k[3J5 4`g1  
3 Who Is It (Patience Edit) 4:01 *gHGi(U(U  
4 Who Is It (House 7") 3:55
:Z0m "  
#SiOx/  
bbevy!m  
F.:B_t  
IN2FO/Y@  
e-vwve  
Exact Audio Copy V1.3 from 2. September 2016 G?\\k[#,&  
<0!/7*;#ZT  
EAC 抓取日志文件从26. 四月 2018, 3:23 QAiont ,!  
 #P8R  
Michael Jackson / Who Is It OmO/x  
<4!SQgL  
使用驱动器  :MATSHITADVD-RAM UJ890AS   Adapter: 1  ID: 1 E:,V{&tLK  
U#3Y3EdF<  
读取模式      : 可靠Secure /Q Xq<NG  
使用精确流     : 是 4Eq$f (QJ  
清空音频缓存    : 否 nZ>8r  
使用 C2 指示器 : 是 WJ)( *1  
z:C VzK,  
读取偏移校正:               : 102 RL =  
读取 Lead-In 和 Lead-Out : 否  c=? =u  
用静音填充抓取中丢失偏移的采样       : 是  [o]^\a y  
去除首尾静音块               : 否 r=8(n<;Co  
在CRC 计算中使用了空样本       : 是 rp*f)rJ  
已用接口                  : Win NT 及 2000 本地 Win32 接口 ZMs$C3  
i}C9  
所用输出模式: : 内部 WAV 函数 zNe>fZ  
样本格式    : 44.100 Hz; 16 Bit; 立体声 e))fbv&V  
r q2]u  
VFUuG3p)  
已抓取 CD 的 TOC yQ5F'.m9e  
? OrRTRW  
     音轨 |    起始    |    长度    |  起始扇区  |  结束扇区   E yJWi<  
    -------------------------------------------- p$r=jF&  
      1 |  0:00.00 |  4:02.27 |      0 |  18176 7A!E~/nSC  
      2 |  4:02.27 |  4:01.70 |  18177 |  36321 KW^#DI6tr  
      3 |  8:04.22 |  4:05.40 |  36322 |  54736 JO*}\Es  
      4 | 12:09.62 |  3:53.00 |  54737 |  72211 _M.7%k/U8  
RzPqtN  
]xhZJ~"@u  
范围状态及错误 _ ^5w f  
1A>>#M=A  
已选择范围 ["N{6d&Q  
~zEBJgeyh  
     文件名 I:\12 Music*音乐\[WAV] Michael Jackson Audios\CDImage.wav R $vo  
oA_T9uh[  
     峰值电平 100.0 % N@Ie VF  
     抓取速度 3.2 X GR@jn]50  
     范围质量 100.0 % :Taequk  
     复制 CRC A8F0C54B )_$F/ug  
     复制成功 ^zdZ"\x  
7#\\Ava$T  
没有错误发生 \\\%pBT7]\  
K,pQ11J  
R?,Oh*  
AccurateRip 摘要 )vO?d~x|  
=&kd|o/i  
音轨  1  精确地校准抓取  1)  [E7E8EDA3]  (AR v2) d(LX;sq?  
音轨  2  精确地校准抓取  1)  [850A1D5A]  (AR v2) V/ a!&_ ""  
音轨  3  精确地校准抓取  1)  [912F8E00]  (AR v2) EX]LH({?+L  
音轨  4  精确地校准抓取  1)  [C4B72E86]  (AR v2) kZ8+ev=  
Rd4 z+G  
所有音轨精确校准抓取 Sb9O#$89  
_z`g@[m:t  
状态报告结尾 6Dx^$=Sa$  
#!a}ZhIt  
---- CUETools DB Plugin V2.1.6 4tv}5llSG  
-+#QZ7b  
[CTDB TOCID: zNG20KHRDOEvX4igbt5TmwnFPtE-] found K6C@YY(  
Submit result: zNG20KHRDOEvX4igbt5TmwnFPtE- has been confirmed D #<)q)  
Track | CTDB Status y.pwj~s  
  1   | (1/1) Accurately ripped G)vq+L5%  
  2   | (1/1) Accurately ripped p5 !B  
  3   | (1/1) Accurately ripped ?b}d"QsmU  
  4   | (1/1) Accurately ripped
0N" VOEvG  
SHc<`M'+  
链接:https://pan.baidu.com/s/1wXNDtys9flRNrwiT4uH3gQ 密码: yA74Rxl*6  
此帖售价 45 金钱,已有 6 人购买 [记录] [购买]
购买后,将显示帖子中所有出售内容。
若发现会员采用欺骗的方法获取财富,请立刻举报,我们会对会员处以2-N倍的罚金,严重者封掉ID!
此段为出售的内容,购买后显示
2条评分金钱+10威望+2
MJ守护者 威望 +2 - 07-23
MJ守护者 金钱 +10 - 07-23
离线mjlove98

发帖
2585
金钱
4080
威望
197
贡献值
123
交易币
2663
只看该作者 1楼 发表于: 04-27
Re:[Single] 1992 Who Is It (US Promo - ESK 74406) - WAV整轨 ?by幽灵
谢谢楼主了
离线小李

发帖
240
金钱
1125
威望
9
贡献值
8
交易币
212
只看该作者 2楼 发表于: 04-27
第3首有可能没听过
离线刘123伟

发帖
713
金钱
14569
威望
55
贡献值
14
交易币
770
只看该作者 3楼 发表于: 04-28
感谢幽灵大佬的分享,支持下!!!
离线mich008

发帖
852
金钱
6246
威望
24
贡献值
15
交易币
914
只看该作者 4楼 发表于: 04-28
又有新发布 支持一个
离线lifan_npl

发帖
2213
金钱
31997
威望
853
贡献值
430
交易币
2594
只看该作者 5楼 发表于: 04-29
谢谢分享  一直想买一张这个实体cd
我的淘宝店:
http://shop63152617.taobao.com  
离线Moses

发帖
5062
金钱
37320
威望
2951
贡献值
1521
交易币
2748
只看该作者 6楼 发表于: 05-03
美版普遍声音大 <1]# E@  
http://blog.sina.com.cn/mjjcfc

发帖
2752
金钱
30900
威望
621
贡献值
38
交易币
409
只看该作者 7楼 发表于: 06-28
感谢分享

离线flash

发帖
276
金钱
484
威望
81
贡献值
0
交易币
276
只看该作者 8楼 发表于: 08-09
又有新发布 支持一个
离线xiaoyin258

发帖
260
金钱
4340
威望
22
贡献值
27
交易币
369
只看该作者 9楼 发表于: 08-25
幽灵资源大神,你有没有尾箱演唱会现场的高清音频资源吗 ?我特别需要JAM.,DANGEROUS BILLIE JEAN的资源
快速回复
限100 字节
 
上一个 下一个