论坛风格切换切换到宽版
  • 307阅读
  • 6回复

[亲传][Single] 1992 Who Is It (US Promo - ESK 74406) - WAV整轨 ♬by幽灵 [复制链接]

上一主题 下一主题
离线mjghosts
 

发帖
8242
金钱
217441
威望
9173
贡献值
2722
交易币
4749
只看楼主 倒序阅读 楼主  发表于: 04-27
— 本帖被 mjghosts 执行加亮操作(2018-04-27) —
*1992年精品宣传CD,收录4首电台剪辑/混音版!完美抓轨。* idB1%?<  
[[HCP8Wk   
注:独家整理,转载请注明出处!EAC无损整轨(压缩包内含CD图片) #K0/ >W  
,ss"s3  
解压密码:www.mjsunny.com
O}%E SAB  
<o9AjASv\,  
Tracklist Zr1"'+-  
1 Who Is It (7" Edit) 4:05 A1F$//a  
2 Who Is It (The Oprah Winfrey Special Intro) 4:00 z{&Av  
3 Who Is It (Patience Edit) 4:01 %f'=9pit  
4 Who Is It (House 7") 3:55
K\KQ(N8F  
4i.&geX A.  
P5h*RV>oS  
cuH5f}oc  
lwfM>%%N  
lAA&#-#YG  
Exact Audio Copy V1.3 from 2. September 2016 -fV\JJ  
I$S*elveG  
EAC 抓取日志文件从26. 四月 2018, 3:23 j:uq85 s  
x^c,cV+*  
Michael Jackson / Who Is It V1Ojr~iM  
GIkeZV{4}  
使用驱动器  :MATSHITADVD-RAM UJ890AS   Adapter: 1  ID: 1 `KLr!<i()  
?D7zty+}^  
读取模式      : 可靠Secure "M+I$*]  
使用精确流     : 是 #@w/S:KbJt  
清空音频缓存    : 否 yMM2us#*+q  
使用 C2 指示器 : 是 M6quPj  
K$GQc"  
读取偏移校正:               : 102 4_CL1g  
读取 Lead-In 和 Lead-Out : 否 {|OXiRm'  
用静音填充抓取中丢失偏移的采样       : 是 "Xwsu8~  
去除首尾静音块               : 否 })kx#_o]'d  
在CRC 计算中使用了空样本       : 是 $%ND5uK  
已用接口                  : Win NT 及 2000 本地 Win32 接口 }X=c|]6i^  
9vW]HOK  
所用输出模式: : 内部 WAV 函数 I`jG  
样本格式    : 44.100 Hz; 16 Bit; 立体声 K5^zu`19  
|/8!P Km  
sKs`gi2  
已抓取 CD 的 TOC N7}3?wS  
c3c3T`B  
     音轨 |    起始    |    长度    |  起始扇区  |  结束扇区   ]mNsG0r6  
    -------------------------------------------- UQYHR+  
      1 |  0:00.00 |  4:02.27 |      0 |  18176 (]&B' 1b  
      2 |  4:02.27 |  4:01.70 |  18177 |  36321 8r@GoG>  
      3 |  8:04.22 |  4:05.40 |  36322 |  54736 M$>Nd6,@N  
      4 | 12:09.62 |  3:53.00 |  54737 |  72211 _ /.VXW  
&t_TLV 8T  
lZ2g CZ  
范围状态及错误 I3sfOU  
{,T=Siy  
已选择范围 R*k;4*1u  
d>#X+;-k  
     文件名 I:\12 Music*音乐\[WAV] Michael Jackson Audios\CDImage.wav v/$<#2|  
FLkZZ\  
     峰值电平 100.0 % G@T_o4t  
     抓取速度 3.2 X [{& OcEf  
     范围质量 100.0 % d]sg9`  
     复制 CRC A8F0C54B LRS,bl3}/  
     复制成功 Y q|OX<i`K  
fmLDufx  
没有错误发生 K 4{[s z  
W~l.feW$i  
;{e'q?Y  
AccurateRip 摘要  7(o:J  
^0(D2:E  
音轨  1  精确地校准抓取  1)  [E7E8EDA3]  (AR v2) 7kMO);pO  
音轨  2  精确地校准抓取  1)  [850A1D5A]  (AR v2) |gT8QP  
音轨  3  精确地校准抓取  1)  [912F8E00]  (AR v2) Kz]\o"K  
音轨  4  精确地校准抓取  1)  [C4B72E86]  (AR v2) }`76yH^c  
:/>Zky8,k  
所有音轨精确校准抓取 C_h$$G{S(  
8\?H`NN  
状态报告结尾 od&wfwk(  
+7y#c20  
---- CUETools DB Plugin V2.1.6 @$~;vS  
;2gO(  
[CTDB TOCID: zNG20KHRDOEvX4igbt5TmwnFPtE-] found iBY16_q  
Submit result: zNG20KHRDOEvX4igbt5TmwnFPtE- has been confirmed u!FF{~5cs  
Track | CTDB Status VMu?mqEa  
  1   | (1/1) Accurately ripped +u`4@~D#  
  2   | (1/1) Accurately ripped 2r@9|}La  
  3   | (1/1) Accurately ripped Ns\};j?TU*  
  4   | (1/1) Accurately ripped
l,UOP[j  
2g5jGe*0  
链接:https://pan.baidu.com/s/1wXNDtys9flRNrwiT4uH3gQ 密码: #[Rs&$vQm  
此帖售价 45 金钱,已有 4 人购买 [记录] [购买]
购买后,将显示帖子中所有出售内容。
若发现会员采用欺骗的方法获取财富,请立刻举报,我们会对会员处以2-N倍的罚金,严重者封掉ID!
此段为出售的内容,购买后显示
离线mjlove98

发帖
2549
金钱
5647
威望
197
贡献值
123
交易币
2627
只看该作者 1楼 发表于: 04-27
Re:[Single] 1992 Who Is It (US Promo - ESK 74406) - WAV整轨 ?by幽灵
谢谢楼主了
离线小李

发帖
233
金钱
190
威望
99
贡献值
8
交易币
205
只看该作者 2楼 发表于: 04-27
第3首有可能没听过
离线刘123伟

发帖
684
金钱
406
威望
54
贡献值
14
交易币
741
只看该作者 3楼 发表于: 04-28
感谢幽灵大佬的分享,支持下!!!
离线mich008

发帖
831
金钱
5826
威望
24
贡献值
15
交易币
893
只看该作者 4楼 发表于: 04-28
又有新发布 支持一个
离线lifan_npl

发帖
2185
金钱
16546
威望
783
贡献值
348
交易币
2542
只看该作者 5楼 发表于: 04-29
谢谢分享  一直想买一张这个实体cd
我的淘宝:
http://shop63152617.taobao.com  
离线Moses

发帖
5060
金钱
37310
威望
2951
贡献值
1521
交易币
2746
只看该作者 6楼 发表于: 05-03
美版普遍声音大 kae &,'@JF  
http://blog.sina.com.cn/mjjcfc
快速回复
限100 字节
 
上一个 下一个