论坛风格切换切换到宽版
  • 503阅读
  • 9回复

[亲传][Single] 1992 Who Is It (US Promo - ESK 74406) - WAV整轨 ♬by幽灵 [复制链接]

上一主题 下一主题
离线mjghosts
 

发帖
8256
金钱
219309
威望
9187
贡献值
2734
交易币
4791
只看楼主 倒序阅读 楼主  发表于: 04-27
— 本帖被 mjghosts 执行加亮操作(2018-04-27) —
*1992年精品宣传CD,收录4首电台剪辑/混音版!完美抓轨。* GwaU7[6  
)R`w{V  
注:独家整理,转载请注明出处!EAC无损整轨(压缩包内含CD图片) T7{Z0-  
//}[(9b'\  
解压密码:www.mjsunny.com
P]@m0f  
|? !Ew# w  
Tracklist 6uYCU|JsU  
1 Who Is It (7" Edit) 4:05 i`^`^Ka  
2 Who Is It (The Oprah Winfrey Special Intro) 4:00 9'I I!  
3 Who Is It (Patience Edit) 4:01 ;wfzlUBC  
4 Who Is It (House 7") 3:55
xD;5z`A3  
/lSz8h2  
AHP_B&s,Qe  
_PrK6M@"L  
uh3%}2'P  
QF(.fq8, U  
Exact Audio Copy V1.3 from 2. September 2016 Mf%0Cx `  
dJM)~Ay-  
EAC 抓取日志文件从26. 四月 2018, 3:23 40N8?kQ}?  
"qUUH4mR`  
Michael Jackson / Who Is It  y|U3  
uyMxBc%6  
使用驱动器  :MATSHITADVD-RAM UJ890AS   Adapter: 1  ID: 1 %N_5p'W  
=.O8G=;DOA  
读取模式      : 可靠Secure oBiJiPE=`  
使用精确流     : 是 @ofivCc<%  
清空音频缓存    : 否 |l)SX\Qf`@  
使用 C2 指示器 : 是 V:HxRMF2X  
^k6 A,Ak  
读取偏移校正:               : 102 TLbnG$VQS  
读取 Lead-In 和 Lead-Out : 否 &$$KC?!w  
用静音填充抓取中丢失偏移的采样       : 是 "LZQ1P*ef$  
去除首尾静音块               : 否 N8*6sK.  
在CRC 计算中使用了空样本       : 是 b0X<)1O  
已用接口                  : Win NT 及 2000 本地 Win32 接口 LAs#g||M  
/;5U-<qf  
所用输出模式: : 内部 WAV 函数 TEJn;D<1I,  
样本格式    : 44.100 Hz; 16 Bit; 立体声 `GDWy^-Q+!  
'@0Z#A  
']bw37_U,  
已抓取 CD 的 TOC !-veL1r  
oNEjlV*  
     音轨 |    起始    |    长度    |  起始扇区  |  结束扇区   wi/qI(O!  
    -------------------------------------------- [C#H _y(  
      1 |  0:00.00 |  4:02.27 |      0 |  18176 m9=93W?   
      2 |  4:02.27 |  4:01.70 |  18177 |  36321 :w<Ga8\tZ  
      3 |  8:04.22 |  4:05.40 |  36322 |  54736 D JZ$M  
      4 | 12:09.62 |  3:53.00 |  54737 |  72211 hCb2<_3CR  
CB0p2WS_  
8},:  
范围状态及错误 r&+w)U~  
`pjB^--w  
已选择范围 a2[rY  
xf{ZwS%X  
     文件名 I:\12 Music*音乐\[WAV] Michael Jackson Audios\CDImage.wav EywBT  
;E ,i  
     峰值电平 100.0 % T2n3g|4  
     抓取速度 3.2 X 3 /PvH E{R  
     范围质量 100.0 % Rt:^'Qi$!  
     复制 CRC A8F0C54B N:okt)q:%  
     复制成功 8O$ LY\G  
2gZ nrU  
没有错误发生 @g4o8nH}  
\gB ~0@[\7  
G}^=(,jl  
AccurateRip 摘要 HKJBR)T  
ooUVVp  
音轨  1  精确地校准抓取  1)  [E7E8EDA3]  (AR v2) @$n $f  
音轨  2  精确地校准抓取  1)  [850A1D5A]  (AR v2) ThgJ '  
音轨  3  精确地校准抓取  1)  [912F8E00]  (AR v2) >MN"87U6  
音轨  4  精确地校准抓取  1)  [C4B72E86]  (AR v2) rFpYlMct  
*>:phs~r{  
所有音轨精确校准抓取 \WFcb\..  
vLHn4>J,R  
状态报告结尾 9X 4[Zk  
|YROxY"ML  
---- CUETools DB Plugin V2.1.6 y*+8Z&i.:  
IxCesh  
[CTDB TOCID: zNG20KHRDOEvX4igbt5TmwnFPtE-] found Y,0Z&6 <  
Submit result: zNG20KHRDOEvX4igbt5TmwnFPtE- has been confirmed PY7H0\S)  
Track | CTDB Status T{Xd>  
  1   | (1/1) Accurately ripped 2_HIn  
  2   | (1/1) Accurately ripped O$6&4p*F.  
  3   | (1/1) Accurately ripped njxLeD e-  
  4   | (1/1) Accurately ripped
VrPsy) J68  
nQOdM#dP  
链接:https://pan.baidu.com/s/1wXNDtys9flRNrwiT4uH3gQ 密码: lj}3TbM  
此帖售价 45 金钱,已有 6 人购买 [记录] [购买]
购买后,将显示帖子中所有出售内容。
若发现会员采用欺骗的方法获取财富,请立刻举报,我们会对会员处以2-N倍的罚金,严重者封掉ID!
此段为出售的内容,购买后显示
2条评分金钱+10威望+2
MJ守护者 威望 +2 - 07-23
MJ守护者 金钱 +10 - 07-23
离线mjlove98

发帖
2584
金钱
4090
威望
197
贡献值
123
交易币
2662
只看该作者 1楼 发表于: 04-27
Re:[Single] 1992 Who Is It (US Promo - ESK 74406) - WAV整轨 ?by幽灵
谢谢楼主了
离线小李

发帖
240
金钱
1125
威望
9
贡献值
8
交易币
212
只看该作者 2楼 发表于: 04-27
第3首有可能没听过
离线刘123伟

发帖
711
金钱
14439
威望
55
贡献值
14
交易币
768
只看该作者 3楼 发表于: 04-28
感谢幽灵大佬的分享,支持下!!!
离线mich008

发帖
848
金钱
5963
威望
24
贡献值
15
交易币
910
只看该作者 4楼 发表于: 04-28
又有新发布 支持一个
离线lifan_npl

发帖
2211
金钱
31689
威望
853
贡献值
430
交易币
2592
只看该作者 5楼 发表于: 04-29
谢谢分享  一直想买一张这个实体cd
我的淘宝店:
http://shop63152617.taobao.com  
离线Moses

发帖
5062
金钱
37320
威望
2951
贡献值
1521
交易币
2748
只看该作者 6楼 发表于: 05-03
美版普遍声音大 ZfrVjUB  
http://blog.sina.com.cn/mjjcfc

发帖
2751
金钱
30824
威望
621
贡献值
38
交易币
408
只看该作者 7楼 发表于: 06-28
感谢分享

离线flash

发帖
272
金钱
509
威望
81
贡献值
0
交易币
272
只看该作者 8楼 发表于: 08-09
又有新发布 支持一个
离线xiaoyin258

发帖
260
金钱
4340
威望
22
贡献值
27
交易币
369
只看该作者 9楼 发表于: 08-25
幽灵资源大神,你有没有尾箱演唱会现场的高清音频资源吗 ?我特别需要JAM.,DANGEROUS BILLIE JEAN的资源
快速回复
限100 字节
 
上一个 下一个