论坛风格切换切换到宽版
  • 410阅读
  • 8回复

[亲传][Single] 1992 Who Is It (US Promo - ESK 74406) - WAV整轨 ♬by幽灵 [复制链接]

上一主题 下一主题
离线mjghosts
 

发帖
8251
金钱
218770
威望
9176
贡献值
2723
交易币
4762
只看楼主 倒序阅读 楼主  发表于: 04-27
— 本帖被 mjghosts 执行加亮操作(2018-04-27) —
*1992年精品宣传CD,收录4首电台剪辑/混音版!完美抓轨。* 'V9aB5O&  
V<7K!<g)b  
注:独家整理,转载请注明出处!EAC无损整轨(压缩包内含CD图片) %LZM5Z^  
a:%5.!Vd  
解压密码:www.mjsunny.com
WUK.>eM0  
e]B<\i\T  
Tracklist TKBK3N  
1 Who Is It (7" Edit) 4:05 .VEfd4+ni{  
2 Who Is It (The Oprah Winfrey Special Intro) 4:00 KXbYv62  
3 Who Is It (Patience Edit) 4:01 #2'&=?J1r  
4 Who Is It (House 7") 3:55
>Pd23TsN  
e6xjlaKb  
x[@3;_'K  
N$\5%  
G.ARu-2's  
gm$MEeC  
Exact Audio Copy V1.3 from 2. September 2016 G'C^C[_W  
S2SQ;s-t_  
EAC 抓取日志文件从26. 四月 2018, 3:23 LbI])M  
MdjMTe s  
Michael Jackson / Who Is It E?o8'r  
N |L5Ru  
使用驱动器  :MATSHITADVD-RAM UJ890AS   Adapter: 1  ID: 1 ^P`'qfZ  
V7i`vo3Cc  
读取模式      : 可靠Secure x"De 9SB  
使用精确流     : 是 pz=Wq4 l  
清空音频缓存    : 否 G dY^}TJrh  
使用 C2 指示器 : 是 F\<i>LWT'  
X[6 z  
读取偏移校正:               : 102 I ]1fH  
读取 Lead-In 和 Lead-Out : 否 Vd~k4  
用静音填充抓取中丢失偏移的采样       : 是 (#k#0T kE  
去除首尾静音块               : 否 u1<kdTxA N  
在CRC 计算中使用了空样本       : 是 &Y$rVBgQ  
已用接口                  : Win NT 及 2000 本地 Win32 接口 R\?!r4  
i|Wn*~yFOO  
所用输出模式: : 内部 WAV 函数 ]=Q'1%  
样本格式    : 44.100 Hz; 16 Bit; 立体声 uv!/DX#  
KNhH4K2iP8  
=%p{ " <  
已抓取 CD 的 TOC 0a5P@;"a  
l{4\Wn Va  
     音轨 |    起始    |    长度    |  起始扇区  |  结束扇区   -~g3?!+Hb  
    -------------------------------------------- Hw Is7  
      1 |  0:00.00 |  4:02.27 |      0 |  18176 U&NOf;h$  
      2 |  4:02.27 |  4:01.70 |  18177 |  36321 6yU~^))bx  
      3 |  8:04.22 |  4:05.40 |  36322 |  54736 ':=C2x1d|  
      4 | 12:09.62 |  3:53.00 |  54737 |  72211 `#V"@Go  
~gf $ L9  
qz:OnQv!  
范围状态及错误 )q,}jeM8  
^V:YNUqp#  
已选择范围 d09GD[5  
U{x'@/Ld  
     文件名 I:\12 Music*音乐\[WAV] Michael Jackson Audios\CDImage.wav LV[4zo]=  
0C7"*H0 R  
     峰值电平 100.0 % B[$e;h*Aw[  
     抓取速度 3.2 X  D;5RcZ  
     范围质量 100.0 % u,C-U!A  
     复制 CRC A8F0C54B ~q/`Z)(yc  
     复制成功 >8VJ!Kg4  
%H@fVWe2wT  
没有错误发生 ^b%AwzHH}  
$lv  g.u  
\C L`j  
AccurateRip 摘要 * T-XslI  
l"- D@]"  
音轨  1  精确地校准抓取  1)  [E7E8EDA3]  (AR v2) GY!&H"%  
音轨  2  精确地校准抓取  1)  [850A1D5A]  (AR v2) T}zi P  
音轨  3  精确地校准抓取  1)  [912F8E00]  (AR v2) ( R0   
音轨  4  精确地校准抓取  1)  [C4B72E86]  (AR v2) E/am^ TO`  
!~RD>N&n  
所有音轨精确校准抓取 I[R?j?$}>  
='mqfGRi>  
状态报告结尾 R% ddB D\?  
U$-FQRM4K  
---- CUETools DB Plugin V2.1.6 *z(.D\{%  
D6 M:pIN*  
[CTDB TOCID: zNG20KHRDOEvX4igbt5TmwnFPtE-] found M+ H$Jjcs  
Submit result: zNG20KHRDOEvX4igbt5TmwnFPtE- has been confirmed *:_.cbo  
Track | CTDB Status {i=qx#2X?H  
  1   | (1/1) Accurately ripped 94n,13  
  2   | (1/1) Accurately ripped r*kk/ $,2  
  3   | (1/1) Accurately ripped ysSEgC3  
  4   | (1/1) Accurately ripped
YWm:#{n.  
"--rz;+K  
链接:https://pan.baidu.com/s/1wXNDtys9flRNrwiT4uH3gQ 密码: R(Z2DEt</  
此帖售价 45 金钱,已有 6 人购买 [记录] [购买]
购买后,将显示帖子中所有出售内容。
若发现会员采用欺骗的方法获取财富,请立刻举报,我们会对会员处以2-N倍的罚金,严重者封掉ID!
此段为出售的内容,购买后显示
2条评分金钱+10威望+2
MJ守护者 威望 +2 - 07-23
MJ守护者 金钱 +10 - 07-23
离线mjlove98

发帖
2568
金钱
4330
威望
197
贡献值
123
交易币
2646
只看该作者 1楼 发表于: 04-27
Re:[Single] 1992 Who Is It (US Promo - ESK 74406) - WAV整轨 ?by幽灵
谢谢楼主了
离线小李

发帖
238
金钱
1115
威望
9
贡献值
8
交易币
210
只看该作者 2楼 发表于: 04-27
第3首有可能没听过
离线刘123伟

发帖
697
金钱
1175
威望
54
贡献值
14
交易币
754
只看该作者 3楼 发表于: 04-28
感谢幽灵大佬的分享,支持下!!!
离线mich008

发帖
840
金钱
5921
威望
24
贡献值
15
交易币
902
只看该作者 4楼 发表于: 04-28
又有新发布 支持一个
离线lifan_npl

发帖
2196
金钱
31917
威望
851
贡献值
428
交易币
2569
只看该作者 5楼 发表于: 04-29
谢谢分享  一直想买一张这个实体cd
我的淘宝:
http://shop63152617.taobao.com  
离线Moses

发帖
5062
金钱
37320
威望
2951
贡献值
1521
交易币
2748
只看该作者 6楼 发表于: 05-03
美版普遍声音大 slPFDBx  
http://blog.sina.com.cn/mjjcfc

发帖
2740
金钱
30927
威望
620
贡献值
37
交易币
393
只看该作者 7楼 发表于: 06-28
感谢分享

离线flash

发帖
271
金钱
530
威望
81
贡献值
0
交易币
271
只看该作者 8楼 发表于: 08-09
又有新发布 支持一个
快速回复
限100 字节
 
上一个 下一个